  0
SECTION
  2
HEADER
  9
$ACADVER
  1
AC1015
  9
$ACADMAINTVER
 70
     6
  9
$DWGCODEPAGE
  3
ANSI_1250
  9
$INSBASE
 10
0.0
 20
0.0
 30
0.0
  9
$EXTMIN
 10
-506.615784
 20
-112.195015
 30
0.0
  9
$EXTMAX
 10
490.814606
 20
540.727234
 30
0.0
  9
$LIMMIN
 10
-750.395565
 20
-310.730338
  9
$LIMMAX
 10
734.594387
 20
739.262557
  9
$ORTHOMODE
 70
     0
  9
$REGENMODE
 70
     1
  9
$FILLMODE
 70
     1
  9
$QTEXTMODE
 70
     0
  9
$MIRRTEXT
 70
     1
  9
$LTSCALE
 40
1.0
  9
$ATTMODE
 70
     0
  9
$TEXTSIZE
 40
5.044092
  9
$TRACEWID
 40
1.0
  9
$TEXTSTYLE
  7
STANDARD
  9
$CLAYER
  8
0
  9
$CELTYPE
  6
Continuous
  9
$CECOLOR
 62
     7
  9
$CELTSCALE
 40
1.0
  9
$DISPSILH
 70
     0
  9
$DIMSCALE
 40
1.0
  9
$DIMASZ
 40
4.0
  9
$DIMEXO
 40
1.5
  9
$DIMDLI
 40
10.0
  9
$DIMRND
 40
0.1
  9
$DIMDLE
 40
0.0
  9
$DIMEXE
 40
3.0
  9
$DIMTP
 40
0.0
  9
$DIMTM
 40
0.0
  9
$DIMTXT
 40
10.797222
  9
$DIMCEN
 40
0.09
  9
$DIMTSZ
 40
0.0
  9
$DIMTOL
 70
     0
  9
$DIMLIM
 70
     0
  9
$DIMTIH
 70
     1
  9
$DIMTOH
 70
     1
  9
$DIMSE1
 70
     0
  9
$DIMSE2
 70
     0
  9
$DIMTAD
 70
     0
  9
$DIMZIN
 70
     8
  9
$DIMBLK
  1
TC_DIMARROW_FILLED30
  9
$DIMASO
 70
     1
  9
$DIMSHO
 70
     1
  9
$DIMPOST
  1

  9
$DIMAPOST
  1

  9
$DIMALT
 70
     0
  9
$DIMALTD
 70
     2
  9
$DIMALTF
 40
25.4
  9
$DIMLFAC
 40
1.0
  9
$DIMTOFL
 70
     1
  9
$DIMTVP
 40
0.0
  9
$DIMTIX
 70
     0
  9
$DIMSOXD
 70
     0
  9
$DIMSAH
 70
     0
  9
$DIMBLK1
  1

  9
$DIMBLK2
  1

  9
$DIMSTYLE
  2
STANDARD
  9
$DIMCLRD
 70
     7
  9
$DIMCLRE
 70
     7
  9
$DIMCLRT
 70
     7
  9
$DIMTFAC
 40
1.0
  9
$DIMGAP
 40
1.5
  9
$DIMJUST
 70
     0
  9
$DIMSD1
 70
     0
  9
$DIMSD2
 70
     0
  9
$DIMTOLJ
 70
     1
  9
$DIMTZIN
 70
     0
  9
$DIMALTZ
 70
     0
  9
$DIMALTTZ
 70
     0
  9
$DIMUPT
 70
     0
  9
$DIMDEC
 70
     4
  9
$DIMTDEC
 70
     4
  9
$DIMALTU
 70
     2
  9
$DIMALTTD
 70
     2
  9
$DIMTXSTY
  7
STANDARD
  9
$DIMAUNIT
 70
     0
  9
$DIMADEC
 70
     0
  9
$DIMALTRND
 40
0.0
  9
$DIMAZIN
 70
     0
  9
$DIMDSEP
 70
     0
  9
$DIMATFIT
 70
     0
  9
$DIMFRAC
 70
     0
  9
$DIMLDRBLK
  1

  9
$DIMLUNIT
 70
     2
  9
$DIMLWD
 70
     0
  9
$DIMLWE
 70
     0
  9
$DIMTMOVE
 70
     0
  9
$LUNITS
 70
     2
  9
$LUPREC
 70
     1
  9
$SKETCHINC
 40
1.0
  9
$FILLETRAD
 40
1.0
  9
$AUNITS
 70
     0
  9
$AUPREC
 70
     2
  9
$MENU
  1
acad
  9
$ELEVATION
 40
0.0
  9
$PELEVATION
 40
0.0
  9
$THICKNESS
 40
0.0
  9
$LIMCHECK
 70
     0
  9
$CHAMFERA
 40
0.0
  9
$CHAMFERB
 40
0.0
  9
$CHAMFERC
 40
0.0
  9
$CHAMFERD
 40
0.0
  9
$SKPOLY
 70
     0
  9
$TDCREATE
 40
0.000000000
  9
$TDUCREATE
 40
0.000000000
  9
$TDUPDATE
 40
2449702.667959363
  9
$TDUUPDATE
 40
0.000000000
  9
$TDINDWG
 40
0.0000000000
  9
$TDUSRTIMER
 40
0.0000000000
  9
$USRTIMER
 70
     1
  9
$ANGBASE
 50
0.0
  9
$ANGDIR
 70
     0
  9
$PDMODE
 70
     0
  9
$PDSIZE
 40
0.0
  9
$PLINEWID
 40
0.0
  9
$SPLFRAME
 70
     0
  9
$SPLINETYPE
 70
     6
  9
$SPLINESEGS
 70
    20
  9
$HANDSEED
  5
292
  9
$SURFTAB1
 70
     6
  9
$SURFTAB2
 70
     6
  9
$SURFTYPE
 70
     6
  9
$SURFU
 70
     6
  9
$SURFV
 70
     6
  9
$UCSBASE
  2

  9
$UCSNAME
  2

  9
$UCSORG
 10
0.0
 20
0.0
 30
0.0
  9
$UCSXDIR
 10
1.0
 20
0.0
 30
0.0
  9
$UCSYDIR
 10
0.0
 20
1.0
 30
0.0
  9
$UCSORTHOREF
  2

  9
$UCSORTHOVIEW
 70
     0
  9
$UCSORGTOP
 10
0.0
 20
0.0
 30
0.0
  9
$UCSORGBOTTOM
 10
0.0
 20
0.0
 30
0.0
  9
$UCSORGLEFT
 10
0.0
 20
0.0
 30
0.0
  9
$UCSORGRIGHT
 10
0.0
 20
0.0
 30
0.0
  9
$UCSORGFRONT
 10
0.0
 20
0.0
 30
0.0
  9
$UCSORGBACK
 10
0.0
 20
0.0
 30
0.0
  9
$PUCSBASE
  2

  9
$PUCSNAME
  2

  9
$PUCSORG
 10
0.0
 20
0.0
 30
0.0
  9
$PUCSXDIR
 10
1.0
 20
0.0
 30
0.0
  9
$PUCSYDIR
 10
0.0
 20
1.0
 30
0.0
  9
$PUCSORTHOREF
  2

  9
$PUCSORTHOVIEW
 70
     0
  9
$PUCSORGTOP
 10
0.0
 20
0.0
 30
0.0
  9
$PUCSORGBOTTOM
 10
0.0
 20
0.0
 30
0.0
  9
$PUCSORGLEFT
 10
0.0
 20
0.0
 30
0.0
  9
$PUCSORGRIGHT
 10
0.0
 20
0.0
 30
0.0
  9
$PUCSORGFRONT
 10
0.0
 20
0.0
 30
0.0
  9
$PUCSORGBACK
 10
0.0
 20
0.0
 30
0.0
  9
$USERI1
 70
     0
  9
$USERI2
 70
     0
  9
$USERI3
 70
     0
  9
$USERI4
 70
     0
  9
$USERI5
 70
     0
  9
$USERR1
 40
0.0
  9
$USERR2
 40
0.0
  9
$USERR3
 40
0.0
  9
$USERR4
 40
0.0
  9
$USERR5
 40
0.0
  9
$WORLDVIEW
 70
     1
  9
$SHADEDGE
 70
     3
  9
$SHADEDIF
 70
    70
  9
$TILEMODE
 70
     1
  9
$MAXACTVP
 70
    16
  9
$PINSBASE
 10
0.0
 20
0.0
 30
0.0
  9
$PLIMCHECK
 70
     0
  9
$PEXTMIN
 10
0.0
 20
0.0
 30
0.0
  9
$PEXTMAX
 10
297.0
 20
210.0
 30
0.0
  9
$PLIMMIN
 10
0.0
 20
0.0
  9
$PLIMMAX
 10
297.0
 20
210.0
  9
$UNITMODE
 70
     0
  9
$VISRETAIN
 70
     0
  9
$PLINEGEN
 70
     1
  9
$PSLTSCALE
 70
     1
  9
$TREEDEPTH
 70
  3020
  9
$CMLSTYLE
  2
STANDARD
  9
$CMLJUST
 70
     0
  9
$CMLSCALE
 40
1.0
  9
$PROXYGRAPHICS
 70
     0
  9
$MEASUREMENT
 70
     0
  9
$CELWEIGHT
370
     0
  9
$ENDCAPS
280
     0
  9
$JOINSTYLE
280
     0
  9
$LWDISPLAY
290
     0
  9
$INSUNITS
 70
     0
  9
$HYPERLINKBASE
  1

  9
$XEDIT
290
     1
  9
$CEPSNTYPE
380
     0
  9
$PSTYLEMODE
290
     1
  9
$FINGERPRINTGUID
  2

  9
$VERSIONGUID
  2

  9
$EXTNAMES
290
     1
  9
$PSVPSCALE
 40
0.0
  0
ENDSEC
  0
SECTION
  2
CLASSES
  0
CLASS
  1
LWPOLYLINE
  2
AcDbPolyline
  3
"AutoCAD"
 90
        0
280
     0
281
     1
  0
CLASS
  1
IMAGE
  2
AcDbRasterImage
  3
ISM
 90
      127
280
     0
281
     1
  0
CLASS
  1
OLE2FRAME
  2
AcDbOle2Frame
  3
""
 90
        0
280
     0
281
     1
  0
CLASS
  1
HATCH
  2
AcDbHatch
  3
"ACAD_SEDONA"
 90
        0
280
     0
281
     1
  0
CLASS
  1
DICTIONARYVAR
  2
AcDbDictionaryVar
  3
"AutoCAD"
 90
        0
280
     0
281
     0
  0
CLASS
  1
RASTERVARIABLES
  2
AcDbRasterVariables
  3
ISM
 90
        0
280
     0
281
     0
  0
CLASS
  1
IMAGEDEF
  2
AcDbRasterImageDef
  3
ISM
 90
        0
280
     0
281
     0
  0
CLASS
  1
IMAGEDEF_REACTOR
  2
AcDbRasterImageDefReactor
  3
ISM
 90
        1
280
     0
281
     0
  0
CLASS
  1
IDBUFFER
  2
AcDbIdBuffer
  3
"Acad"
 90
        0
280
     0
281
     0
  0
CLASS
  1
SPATIAL_FILTER
  2
AcDbSpatialFilter
  3
"Acad"
 90
        0
280
     0
281
     0
  0
CLASS
  1
XRECORD
  2
AcDbXrecord
  3
"<Built In>"
 90
        0
280
     0
281
     0
  0
CLASS
  1
SORTENTSTABLE
  2
AcDbSortentsTable
  3
"AutoCAD"
 90
        0
280
     0
281
     0
  0
CLASS
  1
LAYER_INDEX
  2
AcDbLayerIndex
  3
"Acad"
 90
        0
280
     0
281
     0
  0
CLASS
  1
SPATIAL_INDEX
  2
AcDbSpatialIndex
  3
"Acad"
 90
        0
280
     0
281
     0
  0
CLASS
  1
OBJECT_PTR
  2
CAseDLPNTableRecord
  3
"ASE-LPNTableRecord"
 90
        1
280
     0
281
     0
  0
CLASS
  1
LAYOUT
  2
AcDbLayout
  3
"AutoCAD 2000"
 90
        1
280
     0
281
     0
  0
CLASS
  1
PLOTSETTINGS
  2
AcDbPlotSettings
  3
"AutoCAD 2000"
 90
        1
280
     0
281
     0
  0
CLASS
  1
ACDBDICTIONARYWDFLT
  2
AcDbDictionaryWithDefault
  3
"AutoCAD 2000"
 90
        1
280
     0
281
     0
  0
CLASS
  1
ACDBPLACEHOLDER
  2
AcDbPlaceHolder
  3
"AutoCAD 2000"
 90
        1
280
     0
281
     0
  0
CLASS
  1
VBA_PROJECT
  2
AcDbVbaProject
  3
"acadvba"
 90
        1
280
     0
281
     0
  0
CLASS
  1
WIPEOUT
  2
AcDbWipeout
  3
WipeOut|AutoCAD Express Tool|expresstools@autodesk.com
 90
      127
280
     0
281
     1
  0
CLASS
  1
WIPEOUTVARIABLES
  2
AcDbWipeoutVariables
  3
WipeOut|AutoCAD Express Tool|expresstools@autodesk.com
 90
        0
280
     0
281
     0
  0
CLASS
  1
RTEXT
  2
RText
  3
RText|AutoCAD Express Tool|expresstools@autodesk.com
 90
        0
280
     0
281
     1
  0
CLASS
  1
ARCALIGNEDTEXT
  2
AcDbArcAlignedText
  3
ATEXT|AutoCAD Express Tool|expresstools@autodesk.com
 90
        0
280
     0
281
     1
  0
ENDSEC
  0
SECTION
  2
TABLES
  0
TABLE
  2
VPORT
  5
7
100
AcDbSymbolTable
 70
     1
  0
VPORT
  5
15
100
AcDbSymbolTableRecord
100
AcDbViewportTableRecord
  2
*ACTIVE
 70
     0
 10
0.0
 20
0.0
 11
1.0
 21
1.0
 12
0.0
 22
0.0
 13
0.0
 23
0.0
 14
5.0
 24
5.0
 15
5.0
 25
5.0
 16
0.0
 26
0.0
 36
1.0
 17
-7.900577
 27
214.2661
 37
1.0
 40
665.980713
 41
1.95723
 42
50.0
 43
0.0
 44
0.0
 50
0.0
 51
0.0
 71
     0
 72
   100
 73
     1
 74
     1
 75
     0
 76
     1
 77
     0
 78
     0
281
     0
 65
     0
110
0.0
120
0.0
130
0.0
111
1.0
121
0.0
131
0.0
112
0.0
122
1.0
132
0.0
345
0
346
0
 79
     0
146
0.0
  0
ENDTAB
  0
TABLE
  2
LTYPE
  5
4
100
AcDbSymbolTable
 70
    15
  0
LTYPE
  5
11
100
AcDbSymbolTableRecord
100
AcDbLinetypeTableRecord
  2
ByBlock
 70
    64
  3

 72
    65
 73
     0
 40
0.0
  0
LTYPE
  5
12
100
AcDbSymbolTableRecord
100
AcDbLinetypeTableRecord
  2
ByLayer
 70
    64
  3

 72
    65
 73
     0
 40
0.0
  0
LTYPE
  5
13
100
AcDbSymbolTableRecord
100
AcDbLinetypeTableRecord
  2
Continuous
 70
    64
  3
Solid line
 72
    65
 73
     0
 40
0.0
  0
LTYPE
  5
25
100
AcDbSymbolTableRecord
100
AcDbLinetypeTableRecord
  2
BORDER
 70
     0
  3
BORDER
 72
    65
 73
     6
 40
1.75
 49
0.5
 74
     0
 49
-0.25
 74
     0
 49
0.5
 74
     0
 49
-0.25
 74
     0
 49
0.0
 74
     0
 49
-0.25
 74
     0
  0
LTYPE
  5
26
100
AcDbSymbolTableRecord
100
AcDbLinetypeTableRecord
  2
CENTER
 70
     0
  3
CENTER
 72
    65
 73
     4
 40
2.0
 49
1.25
 74
     0
 49
-0.25
 74
     0
 49
0.25
 74
     0
 49
-0.25
 74
     0
  0
LTYPE
  5
27
100
AcDbSymbolTableRecord
100
AcDbLinetypeTableRecord
  2
DASHDOT
 70
     0
  3
DASHDOT
 72
    65
 73
     4
 40
1.0
 49
0.5
 74
     0
 49
-0.25
 74
     0
 49
0.0
 74
     0
 49
-0.25
 74
     0
  0
LTYPE
  5
28
100
AcDbSymbolTableRecord
100
AcDbLinetypeTableRecord
  2
DASHED
 70
     0
  3
DASHED
 72
    65
 73
     2
 40
0.75
 49
0.5
 74
     0
 49
-0.25
 74
     0
  0
LTYPE
  5
29
100
AcDbSymbolTableRecord
100
AcDbLinetypeTableRecord
  2
DIVIDE
 70
     0
  3
DIVIDE
 72
    65
 73
     6
 40
1.25
 49
0.5
 74
     0
 49
-0.25
 74
     0
 49
0.0
 74
     0
 49
-0.25
 74
     0
 49
0.0
 74
     0
 49
-0.25
 74
     0
  0
LTYPE
  5
2A
100
AcDbSymbolTableRecord
100
AcDbLinetypeTableRecord
  2
DOT
 70
     0
  3
DOT
 72
    65
 73
     2
 40
0.25
 49
0.0
 74
     0
 49
-0.25
 74
     0
  0
LTYPE
  5
2B
100
AcDbSymbolTableRecord
100
AcDbLinetypeTableRecord
  2
HIDDEN
 70
     0
  3
HIDDEN
 72
    65
 73
     2
 40
0.375
 49
0.25
 74
     0
 49
-0.125
 74
     0
  0
LTYPE
  5
2C
100
AcDbSymbolTableRecord
100
AcDbLinetypeTableRecord
  2
PHANTOM
 70
     0
  3
PHANTOM
 72
    65
 73
     6
 40
2.5
 49
1.25
 74
     0
 49
-0.25
 74
     0
 49
0.25
 74
     0
 49
-0.25
 74
     0
 49
0.25
 74
     0
 49
-0.25
 74
     0
  0
LTYPE
  5
2D
100
AcDbSymbolTableRecord
100
AcDbLinetypeTableRecord
  2
$INVISIBLE
 70
     0
  3
$INVISIBLE
 72
    65
 73
     2
 40
200.0
 49
-100.0
 74
     0
 49
-100.0
 74
     0
  0
LTYPE
  5
2E
100
AcDbSymbolTableRecord
100
AcDbLinetypeTableRecord
  2
$AUXILIARY
 70
     0
  3
$AUXILIARY
 72
    65
 73
     2
 40
0.1
 49
0.05
 74
     0
 49
-0.05
 74
     0
  0
LTYPE
  5
2F
100
AcDbSymbolTableRecord
100
AcDbLinetypeTableRecord
  2
$CONSTRUCTION
 70
     0
  3
$CONSTRUCTION
 72
    65
 73
     4
 40
0.3
 49
0.2
 74
     0
 49
-0.05
 74
     0
 49
0.0
 74
     0
 49
-0.05
 74
     0
  0
LTYPE
  5
30
100
AcDbSymbolTableRecord
100
AcDbLinetypeTableRecord
  2
$SNAPEXT
 70
     0
  3
$SNAPEXT
 72
    65
 73
     2
 40
0.04
 49
0.02
 74
     0
 49
-0.02
 74
     0
  0
ENDTAB
  0
TABLE
  2
LAYER
  5
2
100
AcDbSymbolTable
 70
     1
  0
LAYER
  5
14
100
AcDbSymbolTableRecord
100
AcDbLayerTableRecord
  2
0
 70
     0
 62
     7
  6
Continuous
290
     1
370
    -3
390
1F
1001
TCAD
1000
TCW_LAYER_ORDER
1002
{
1071
        0
1002
}
  0
ENDTAB
  0
TABLE
  2
STYLE
  5
3
100
AcDbSymbolTable
 70
     2
  0
STYLE
  5
17
100
AcDbSymbolTableRecord
100
AcDbTextStyleTableRecord
  2
STANDARD
 70
     0
 40
0.0
 41
1.0
 50
0.0
 71
     0
 42
3.222614
  3
ARIAL.TTF
  4

1001
ACAD
1000
Arial
1071
       34
  0
STYLE
  5
37
100
AcDbSymbolTableRecord
100
AcDbTextStyleTableRecord
  2
_TCW_TXTSTY_1
 70
     0
 40
0.0
 41
1.0
 50
0.0
 71
     0
 42
18.339952
  3

  4

1001
ACAD
1000
Times New Roman CE
1071
    60962
  0
ENDTAB
  0
TABLE
  2
VIEW
  5
5
100
AcDbSymbolTable
 70
     1
  0
VIEW
  5
31
100
AcDbSymbolTableRecord
100
AcDbViewTableRecord
  2
View_0
 70
     0
 40
210.0
 10
148.5
 20
105.0
 41
297.0
 11
0.0
 21
0.0
 31
1.0
 12
0.0
 22
0.0
 32
0.0
 42
50.0
 43
0.0
 44
0.0
 50
0.0
 71
     0
281
     0
 72
     0
110
0.0
120
0.0
130
0.0
111
1.0
121
0.0
131
0.0
112
0.0
122
1.0
132
0.0
  0
ENDTAB
  0
TABLE
  2
UCS
  5
6
100
AcDbSymbolTable
 70
     0
  0
ENDTAB
  0
TABLE
  2
APPID
  5
8
100
AcDbSymbolTable
 70
     2
  0
APPID
  5
16
100
AcDbSymbolTableRecord
100
AcDbRegAppTableRecord
  2
ACAD
 70
     0
  0
APPID
  5
24
100
AcDbSymbolTableRecord
100
AcDbRegAppTableRecord
  2
TCAD
 70
     0
  0
ENDTAB
  0
TABLE
  2
DIMSTYLE
  5
9
100
AcDbSymbolTable
 70
     1
100
AcDbDimStyleTable
 71
     0
  0
DIMSTYLE
105
18
100
AcDbSymbolTableRecord
100
AcDbDimStyleTableRecord
  2
STANDARD
 70
     0
  3

  4

 40
1.0
 41
4.0
 42
1.5
 43
10.0
 44
3.0
 45
0.1
 46
0.0
 47
0.0
 48
0.0
 71
     0
 72
     0
 73
     1
 74
     1
 75
     0
 76
     0
 77
     0
 78
     8
 79
     0
140
10.797222
141
0.09
142
0.0
143
25.4
144
1.0
145
0.0
146
1.0
147
1.5
148
0.0
170
     0
171
     2
172
     1
173
     0
174
     0
175
     0
176
     7
177
     7
178
     7
179
     0
271
     4
272
     4
273
     2
274
     2
275
     0
276
     0
277
     2
278
    46
279
     0
280
     0
281
     0
282
     0
283
     1
284
     0
285
     0
286
     0
288
     0
340
17
341
0
342
32
343
0
344
0
371
    -2
372
    -2
  0
ENDTAB
  0
TABLE
  2
BLOCK_RECORD
  5
1
100
AcDbSymbolTable
 70
    18
  0
BLOCK_RECORD
  5
A
100
AcDbSymbolTableRecord
100
AcDbBlockTableRecord
  2
*MODEL_SPACE
340
20
  0
BLOCK_RECORD
  5
B
100
AcDbSymbolTableRecord
100
AcDbBlockTableRecord
  2
*PAPER_SPACE
340
21
  0
BLOCK_RECORD
  5
32
100
AcDbSymbolTableRecord
100
AcDbBlockTableRecord
  2
TC_DIMARROW_FILLED30
340
0
  0
BLOCK_RECORD
  5
3A
100
AcDbSymbolTableRecord
100
AcDbBlockTableRecord
  2
*D1
340
0
  0
BLOCK_RECORD
  5
59
100
AcDbSymbolTableRecord
100
AcDbBlockTableRecord
  2
*D2
340
0
  0
BLOCK_RECORD
  5
E0
100
AcDbSymbolTableRecord
100
AcDbBlockTableRecord
  2
*D3
340
0
  0
BLOCK_RECORD
  5
FF
100
AcDbSymbolTableRecord
100
AcDbBlockTableRecord
  2
*D4
340
0
  0
BLOCK_RECORD
  5
11E
100
AcDbSymbolTableRecord
100
AcDbBlockTableRecord
  2
*D5
340
0
  0
BLOCK_RECORD
  5
133
100
AcDbSymbolTableRecord
100
AcDbBlockTableRecord
  2
*D6
340
0
  0
BLOCK_RECORD
  5
156
100
AcDbSymbolTableRecord
100
AcDbBlockTableRecord
  2
*D7
340
0
  0
BLOCK_RECORD
  5
175
100
AcDbSymbolTableRecord
100
AcDbBlockTableRecord
  2
*D8
340
0
  0
BLOCK_RECORD
  5
194
100
AcDbSymbolTableRecord
100
AcDbBlockTableRecord
  2
*D9
340
0
  0
BLOCK_RECORD
  5
1AC
100
AcDbSymbolTableRecord
100
AcDbBlockTableRecord
  2
*D10
340
0
  0
BLOCK_RECORD
  5
1C4
100
AcDbSymbolTableRecord
100
AcDbBlockTableRecord
  2
*D11
340
0
  0
BLOCK_RECORD
  5
1D5
100
AcDbSymbolTableRecord
100
AcDbBlockTableRecord
  2
*D12
340
0
  0
BLOCK_RECORD
  5
1F4
100
AcDbSymbolTableRecord
100
AcDbBlockTableRecord
  2
*D13
340
0
  0
BLOCK_RECORD
  5
213
100
AcDbSymbolTableRecord
100
AcDbBlockTableRecord
  2
*D14
340
0
  0
BLOCK_RECORD
  5
22B
100
AcDbSymbolTableRecord
100
AcDbBlockTableRecord
  2
*D15
340
0
  0
BLOCK_RECORD
  5
24B
100
AcDbSymbolTableRecord
100
AcDbBlockTableRecord
  2
*D16
340
0
  0
BLOCK_RECORD
  5
26A
100
AcDbSymbolTableRecord
100
AcDbBlockTableRecord
  2
*D17
340
0
  0
ENDTAB
  0
ENDSEC
  0
SECTION
  2
BLOCKS
  0
BLOCK
  5
D
100
AcDbEntity
  8
0
100
AcDbBlockBegin
  2
*MODEL_SPACE
 70
     0
 10
0.0
 20
0.0
 30
0.0
  3
*MODEL_SPACE
  1

  0
ENDBLK
  5
E
100
AcDbEntity
  8
0
100
AcDbBlockEnd
  0
BLOCK
  5
F
100
AcDbEntity
 67
     1
  8
0
100
AcDbBlockBegin
  2
*PAPER_SPACE
 70
     0
 10
0.0
 20
0.0
 30
0.0
  3
*PAPER_SPACE
  1

  0
ENDBLK
  5
10
100
AcDbEntity
 67
     1
  8
0
100
AcDbBlockEnd
  0
BLOCK
  5
33
100
AcDbEntity
  8
0
100
AcDbBlockBegin
  2
TC_DIMARROW_FILLED30
 70
     0
 10
0.0
 20
0.0
 30
0.0
  3
TC_DIMARROW_FILLED30
  1

  0
SOLID
  5
34
100
AcDbEntity
  8
0
  6
ByBlock
 62
     0
100
AcDbTrace
 10
0.0
 20
0.0
 30
0.0
 11
-1.0
 21
0.267949
 31
0.0
 12
-1.0
 22
-0.267949
 32
0.0
 13
-1.0
 23
-0.267949
 33
0.0
  0
ENDBLK
  5
35
100
AcDbEntity
  8
0
100
AcDbBlockEnd
  0
BLOCK
  5
3B
100
AcDbEntity
  8
0
100
AcDbBlockBegin
  2
*D1
 70
     1
 10
0.0
 20
0.0
 30
0.0
  3
*D1
  1

  0
LINE
  5
3C
100
AcDbEntity
  8
0
370
     0
  6
Continuous
 62
     5
100
AcDbLine
 10
-379.740753
 20
504.383242
 30
0.0
 11
-379.740753
 21
535.277224
 31
0.0
  0
LINE
  5
3D
100
AcDbEntity
  8
0
370
     0
  6
Continuous
 62
     5
100
AcDbLine
 10
380.61295
 20
501.758779
 30
0.0
 11
380.61295
 21
535.277224
 31
0.0
  0
POLYLINE
  5
3E
100
AcDbEntity
  8
0
370
     0
  6
Continuous
 62
     5
100
AcDb2dPolyline
 66
     1
 10
0.0
 20
0.0
 30
0.0
 70
   128
  0
VERTEX
  5
3F
100
AcDbEntity
  8
0
  6
Continuous
 62
     5
100
AcDbVertex
100
AcDb2dVertex
 10
-375.740753
 20
532.277224
 30
0.0
  0
VERTEX
  5
40
100
AcDbEntity
  8
0
  6
Continuous
 62
     5
100
AcDbVertex
100
AcDb2dVertex
 10
-375.740753
 20
532.277224
 30
0.0
  0
VERTEX
  5
41
100
AcDbEntity
  8
0
  6
Continuous
 62
     5
100
AcDbVertex
100
AcDb2dVertex
 10
-375.740753
 20
532.277224
 30
0.0
  0
VERTEX
  5
42
100
AcDbEntity
  8
0
  6
Continuous
 62
     5
100
AcDbVertex
100
AcDb2dVertex
 10
-13.683504
 20
532.277224
 30
0.0
  0
SEQEND
  5
43
100
AcDbEntity
  8
0
  6
Continuous
 62
     5
  0
POLYLINE
  5
44
100
AcDbEntity
  8
0
370
     0
  6
Continuous
 62
     5
100
AcDb2dPolyline
 66
     1
 10
0.0
 20
0.0
 30
0.0
 70
   128
  0
VERTEX
  5
45
100
AcDbEntity
  8
0
  6
Continuous
 62
     5
100
AcDbVertex
100
AcDb2dVertex
 10
376.61295
 20
532.277224
 30
0.0
  0
VERTEX
  5
46
100
AcDbEntity
  8
0
  6
Continuous
 62
     5
100
AcDbVertex
100
AcDb2dVertex
 10
376.61295
 20
532.277224
 30
0.0
  0
VERTEX
  5
47
100
AcDbEntity
  8
0
  6
Continuous
 62
     5
100
AcDbVertex
100
AcDb2dVertex
 10
376.61295
 20
532.277224
 30
0.0
  0
VERTEX
  5
48
100
AcDbEntity
  8
0
  6
Continuous
 62
     5
100
AcDbVertex
100
AcDb2dVertex
 10
14.555701
 20
532.277224
 30
0.0
  0
SEQEND
  5
49
100
AcDbEntity
  8
0
  6
Continuous
 62
     5
  0
POLYLINE
  5
4B
102
{ACAD_REACTORS
330
4A
102
}
100
AcDbEntity
  8
0
370
     0
  6
Continuous
 62
     5
100
AcDb2dPolyline
 66
     1
 10
0.0
 20
0.0
 30
0.0
 70
   129
  0
VERTEX
  5
4C
100
AcDbEntity
  8
0
  6
Continuous
 62
     5
100
AcDbVertex
100
AcDb2dVertex
 10
-379.740753
 20
532.277224
 30
0.0
  0
VERTEX
  5
4D
100
AcDbEntity
  8
0
  6
Continuous
 62
     5
100
AcDbVertex
100
AcDb2dVertex
 10
-375.740753
 20
531.610558
 30
0.0
  0
VERTEX
  5
4E
100
AcDbEntity
  8
0
  6
Continuous
 62
     5
100
AcDbVertex
100
AcDb2dVertex
 10
-375.740753
 20
532.943891
 30
0.0
  0
SEQEND
  5
4F
100
AcDbEntity
  8
0
  6
Continuous
 62
     5
  0
HATCH
  5
4A
100
AcDbEntity
  8
0
  6
Continuous
 62
     5
100
AcDbHatch
 10
0.0
 20
0.0
 30
0.0
210
0.0
220
0.0
230
1.0
  2
SOLID
 70
     1
 71
     1
 91
        1
 92
        3
 72
     0
 73
     1
 93
        3
 10
-379.74075327253388
 20
532.27722446324742
 10
-375.74075327253388
 20
531.61055779658079
 10
-375.74075327253388
 20
532.94389112991405
 97
        1
330
4B
 75
     0
 76
     0
 98
        0
  0
POLYLINE
  5
51
102
{ACAD_REACTORS
330
50
102
}
100
AcDbEntity
  8
0
370
     0
  6
Continuous
 62
     5
100
AcDb2dPolyline
 66
     1
 10
0.0
 20
0.0
 30
0.0
 70
   129
  0
VERTEX
  5
52
100
AcDbEntity
  8
0
  6
Continuous
 62
     5
100
AcDbVertex
100
AcDb2dVertex
 10
380.61295
 20
532.277224
 30
0.0
  0
VERTEX
  5
53
100
AcDbEntity
  8
0
  6
Continuous
 62
     5
100
AcDbVertex
100
AcDb2dVertex
 10
376.61295
 20
532.943891
 30
0.0
  0
VERTEX
  5
54
100
AcDbEntity
  8
0
  6
Continuous
 62
     5
100
AcDbVertex
100
AcDb2dVertex
 10
376.61295
 20
531.610558
 30
0.0
  0
SEQEND
  5
55
100
AcDbEntity
  8
0
  6
Continuous
 62
     5
  0
HATCH
  5
50
100
AcDbEntity
  8
0
  6
Continuous
 62
     5
100
AcDbHatch
 10
0.0
 20
0.0
 30
0.0
210
0.0
220
0.0
230
1.0
  2
SOLID
 70
     1
 71
     1
 91
        1
 92
        3
 72
     0
 73
     1
 93
        3
 10
380.61295001984104
 20
532.27722446324742
 10
376.61295001984104
 20
532.94389112991405
 10
376.61295001984104
 20
531.61055779658079
 97
        1
330
51
 75
     0
 76
     0
 98
        0
  0
TEXT
  5
56
100
AcDbEntity
  8
0
  6
Continuous
 62
     5
100
AcDbText
 10
-12.183504
 20
527.113336
 30
0.0
 40
10.797222
  1
760
 72
     5
 11
13.055701
 21
527.113336
 31
0.0
100
AcDbText
  0
ENDBLK
  5
57
100
AcDbEntity
  8
0
100
AcDbBlockEnd
  0
BLOCK
  5
5A
100
AcDbEntity
  8
0
100
AcDbBlockBegin
  2
*D2
 70
     1
 10
0.0
 20
0.0
 30
0.0
  3
*D2
  1

  0
LINE
  5
5B
100
AcDbEntity
  8
0
370
     0
  6
Continuous
 62
     5
100
AcDbLine
 10
-388.903333
 20
500.177718
 30
0.0
 11
-496.996183
 21
500.177718
 31
0.0
  0
LINE
  5
5C
100
AcDbEntity
  8
0
370
     0
  6
Continuous
 62
     5
100
AcDbLine
 10
-3.244354
 20
0.013719
 30
0.0
 11
-496.996183
 21
0.013719
 31
0.0
  0
POLYLINE
  5
5D
100
AcDbEntity
  8
0
370
     0
  6
Continuous
 62
     5
100
AcDb2dPolyline
 66
     1
 10
0.0
 20
0.0
 30
0.0
 70
   128
  0
VERTEX
  5
5E
100
AcDbEntity
  8
0
  6
Continuous
 62
     5
100
AcDbVertex
100
AcDb2dVertex
 10
-493.996183
 20
496.177718
 30
0.0
  0
VERTEX
  5
5F
100
AcDbEntity
  8
0
  6
Continuous
 62
     5
100
AcDbVertex
100
AcDb2dVertex
 10
-493.996183
 20
496.177718
 30
0.0
  0
VERTEX
  5
60
100
AcDbEntity
  8
0
  6
Continuous
 62
     5
100
AcDbVertex
100
AcDb2dVertex
 10
-493.996183
 20
496.177718
 30
0.0
  0
VERTEX
  5
61
100
AcDbEntity
  8
0
  6
Continuous
 62
     5
100
AcDbVertex
100
AcDb2dVertex
 10
-493.996183
 20
260.235719
 30
0.0
  0
SEQEND
  5
62
100
AcDbEntity
  8
0
  6
Continuous
 62
     5
  0
POLYLINE
  5
63
100
AcDbEntity
  8
0
370
     0
  6
Continuous
 62
     5
100
AcDb2dPolyline
 66
     1
 10
0.0
 20
0.0
 30
0.0
 70
   128
  0
VERTEX
  5
64
100
AcDbEntity
  8
0
  6
Continuous
 62
     5
100
AcDbVertex
100
AcDb2dVertex
 10
-493.996183
 20
4.013719
 30
0.0
  0
VERTEX
  5
65
100
AcDbEntity
  8
0
  6
Continuous
 62
     5
100
AcDbVertex
100
AcDb2dVertex
 10
-493.996183
 20
4.013719
 30
0.0
  0
VERTEX
  5
66
100
AcDbEntity
  8
0
  6
Continuous
 62
     5
100
AcDbVertex
100
AcDb2dVertex
 10
-493.996183
 20
4.013719
 30
0.0
  0
VERTEX
  5
67
100
AcDbEntity
  8
0
  6
Continuous
 62
     5
100
AcDbVertex
100
AcDb2dVertex
 10
-493.996183
 20
239.955719
 30
0.0
  0
SEQEND
  5
68
100
AcDbEntity
  8
0
  6
Continuous
 62
     5
  0
POLYLINE
  5
6A
102
{ACAD_REACTORS
330
69
102
}
100
AcDbEntity
  8
0
370
     0
  6
Continuous
 62
     5
100
AcDb2dPolyline
 66
     1
 10
0.0
 20
0.0
 30
0.0
 70
   129
  0
VERTEX
  5
6B
100
AcDbEntity
  8
0
  6
Continuous
 62
     5
100
AcDbVertex
100
AcDb2dVertex
 10
-493.996183
 20
500.177718
 30
0.0
  0
VERTEX
  5
6C
100
AcDbEntity
  8
0
  6
Continuous
 62
     5
100
AcDbVertex
100
AcDb2dVertex
 10
-494.662849
 20
496.177718
 30
0.0
  0
VERTEX
  5
6D
100
AcDbEntity
  8
0
  6
Continuous
 62
     5
100
AcDbVertex
100
AcDb2dVertex
 10
-493.329516
 20
496.177718
 30
0.0
  0
SEQEND
  5
6E
100
AcDbEntity
  8
0
  6
Continuous
 62
     5
  0
HATCH
  5
69
100
AcDbEntity
  8
0
  6
Continuous
 62
     5
100
AcDbHatch
 10
0.0
 20
0.0
 30
0.0
210
0.0
220
0.0
230
1.0
  2
SOLID
 70
     1
 71
     1
 91
        1
 92
        3
 72
     0
 73
     1
 93
        3
 10
-493.99618276408052
 20
500.17771801221215
 10
-494.6628494307472
 20
496.17771801221215
 10
-493.32951609741383
 20
496.17771801221215
 97
        1
330
6A
 75
     0
 76
     0
 98
        0
  0
POLYLINE
  5
70
102
{ACAD_REACTORS
330
6F
102
}
100
AcDbEntity
  8
0
370
     0
  6
Continuous
 62
     5
100
AcDb2dPolyline
 66
     1
 10
0.0
 20
0.0
 30
0.0
 70
   129
  0
VERTEX
  5
71
100
AcDbEntity
  8
0
  6
Continuous
 62
     5
100
AcDbVertex
100
AcDb2dVertex
 10
-493.996183
 20
0.013719
 30
0.0
  0
VERTEX
  5
72
100
AcDbEntity
  8
0
  6
Continuous
 62
     5
100
AcDbVertex
100
AcDb2dVertex
 10
-493.329516
 20
4.013719
 30
0.0
  0
VERTEX
  5
73
100
AcDbEntity
  8
0
  6
Continuous
 62
     5
100
AcDbVertex
100
AcDb2dVertex
 10
-494.662849
 20
4.013719
 30
0.0
  0
SEQEND
  5
74
100
AcDbEntity
  8
0
  6
Continuous
 62
     5
  0
HATCH
  5
6F
100
AcDbEntity
  8
0
  6
Continuous
 62
     5
100
AcDbHatch
 10
0.0
 20
0.0
 30
0.0
210
0.0
220
0.0
230
1.0
  2
SOLID
 70
     1
 71
     1
 91
        1
 92
        3
 72
     0
 73
     1
 93
        3
 10
-493.99618276408052
 20
0.0137191759508255
 10
-493.32951609741383
 20
4.0137191759508255
 10
-494.6628494307472
 20
4.0137191759508255
 97
        1
330
70
 75
     0
 76
     0
 98
        0
  0
TEXT
  5
75
100
AcDbEntity
  8
0
  6
Continuous
 62
     5
100
AcDbText
 10
-506.615785
 20
244.93183
 30
0.0
 40
10.797222
  1
500
 72
     5
 11
-481.37658
 21
244.93183
 31
0.0
100
AcDbText
  0
ENDBLK
  5
76
100
AcDbEntity
  8
0
100
AcDbBlockEnd
  0
BLOCK
  5
E1
100
AcDbEntity
  8
0
100
AcDbBlockBegin
  2
*D3
 70
     1
 10
0.0
 20
0.0
 30
0.0
  3
*D3
  1

  0
LINE
  5
E2
100
AcDbEntity
  8
0
370
     0
  6
Continuous
 62
     5
100
AcDbLine
 10
-1.916343
 20
-0.023242
 30
0.0
 11
-423.844676
 21
-0.023242
 31
0.0
  0
LINE
  5
E3
100
AcDbEntity
  8
0
370
     0
  6
Continuous
 62
     5
100
AcDbLine
 10
-377.575987
 20
319.168652
 30
0.0
 11
-423.844676
 21
319.168652
 31
0.0
  0
POLYLINE
  5
E4
100
AcDbEntity
  8
0
370
     0
  6
Continuous
 62
     5
100
AcDb2dPolyline
 66
     1
 10
0.0
 20
0.0
 30
0.0
 70
   128
  0
VERTEX
  5
E5
100
AcDbEntity
  8
0
  6
Continuous
 62
     5
100
AcDbVertex
100
AcDb2dVertex
 10
-420.844676
 20
3.976758
 30
0.0
  0
VERTEX
  5
E6
100
AcDbEntity
  8
0
  6
Continuous
 62
     5
100
AcDbVertex
100
AcDb2dVertex
 10
-420.844676
 20
3.976758
 30
0.0
  0
VERTEX
  5
E7
100
AcDbEntity
  8
0
  6
Continuous
 62
     5
100
AcDbVertex
100
AcDb2dVertex
 10
-420.844676
 20
3.976758
 30
0.0
  0
VERTEX
  5
E8
100
AcDbEntity
  8
0
  6
Continuous
 62
     5
100
AcDbVertex
100
AcDb2dVertex
 10
-420.844676
 20
149.432705
 30
0.0
  0
SEQEND
  5
E9
100
AcDbEntity
  8
0
  6
Continuous
 62
     5
  0
POLYLINE
  5
EA
100
AcDbEntity
  8
0
370
     0
  6
Continuous
 62
     5
100
AcDb2dPolyline
 66
     1
 10
0.0
 20
0.0
 30
0.0
 70
   128
  0
VERTEX
  5
EB
100
AcDbEntity
  8
0
  6
Continuous
 62
     5
100
AcDbVertex
100
AcDb2dVertex
 10
-420.844676
 20
315.168652
 30
0.0
  0
VERTEX
  5
EC
100
AcDbEntity
  8
0
  6
Continuous
 62
     5
100
AcDbVertex
100
AcDb2dVertex
 10
-420.844676
 20
315.168652
 30
0.0
  0
VERTEX
  5
ED
100
AcDbEntity
  8
0
  6
Continuous
 62
     5
100
AcDbVertex
100
AcDb2dVertex
 10
-420.844676
 20
315.168652
 30
0.0
  0
VERTEX
  5
EE
100
AcDbEntity
  8
0
  6
Continuous
 62
     5
100
AcDbVertex
100
AcDb2dVertex
 10
-420.844676
 20
169.712705
 30
0.0
  0
SEQEND
  5
EF
100
AcDbEntity
  8
0
  6
Continuous
 62
     5
  0
POLYLINE
  5
F1
102
{ACAD_REACTORS
330
F0
102
}
100
AcDbEntity
  8
0
370
     0
  6
Continuous
 62
     5
100
AcDb2dPolyline
 66
     1
 10
0.0
 20
0.0
 30
0.0
 70
   129
  0
VERTEX
  5
F2
100
AcDbEntity
  8
0
  6
Continuous
 62
     5
100
AcDbVertex
100
AcDb2dVertex
 10
-420.844676
 20
-0.023242
 30
0.0
  0
VERTEX
  5
F3
100
AcDbEntity
  8
0
  6
Continuous
 62
     5
100
AcDbVertex
100
AcDb2dVertex
 10
-420.17801
 20
3.976758
 30
0.0
  0
VERTEX
  5
F4
100
AcDbEntity
  8
0
  6
Continuous
 62
     5
100
AcDbVertex
100
AcDb2dVertex
 10
-421.511343
 20
3.976758
 30
0.0
  0
SEQEND
  5
F5
100
AcDbEntity
  8
0
  6
Continuous
 62
     5
  0
HATCH
  5
F0
100
AcDbEntity
  8
0
  6
Continuous
 62
     5
100
AcDbHatch
 10
0.0
 20
0.0
 30
0.0
210
0.0
220
0.0
230
1.0
  2
SOLID
 70
     1
 71
     1
 91
        1
 92
        3
 72
     0
 73
     1
 93
        3
 10
-420.8446761951223
 20
-0.0232422506686589
 10
-420.17800952845562
 20
3.9767577493313411
 10
-421.51134286178899
 20
3.9767577493313411
 97
        1
330
F1
 75
     0
 76
     0
 98
        0
  0
POLYLINE
  5
F7
102
{ACAD_REACTORS
330
F6
102
}
100
AcDbEntity
  8
0
370
     0
  6
Continuous
 62
     5
100
AcDb2dPolyline
 66
     1
 10
0.0
 20
0.0
 30
0.0
 70
   129
  0
VERTEX
  5
F8
100
AcDbEntity
  8
0
  6
Continuous
 62
     5
100
AcDbVertex
100
AcDb2dVertex
 10
-420.844676
 20
319.168652
 30
0.0
  0
VERTEX
  5
F9
100
AcDbEntity
  8
0
  6
Continuous
 62
     5
100
AcDbVertex
100
AcDb2dVertex
 10
-421.511343
 20
315.168652
 30
0.0
  0
VERTEX
  5
FA
100
AcDbEntity
  8
0
  6
Continuous
 62
     5
100
AcDbVertex
100
AcDb2dVertex
 10
-420.17801
 20
315.168652
 30
0.0
  0
SEQEND
  5
FB
100
AcDbEntity
  8
0
  6
Continuous
 62
     5
  0
HATCH
  5
F6
100
AcDbEntity
  8
0
  6
Continuous
 62
     5
100
AcDbHatch
 10
0.0
 20
0.0
 30
0.0
210
0.0
220
0.0
230
1.0
  2
SOLID
 70
     1
 71
     1
 91
        1
 92
        3
 72
     0
 73
     1
 93
        3
 10
-420.84467619512225
 20
319.16865202495728
 10
-421.51134286178893
 20
315.16865202495728
 10
-420.17800952845556
 20
315.16865202495728
 97
        1
330
F7
 75
     0
 76
     0
 98
        0
  0
TEXT
  5
FC
100
AcDbEntity
  8
0
  6
Continuous
 62
     5
100
AcDbText
 10
-433.464278
 20
154.408816
 30
0.0
 40
10.797222
  1
319
 72
     5
 11
-408.225074
 21
154.408816
 31
0.0
100
AcDbText
  0
ENDBLK
  5
FD
100
AcDbEntity
  8
0
100
AcDbBlockEnd
  0
BLOCK
  5
100
100
AcDbEntity
  8
0
100
AcDbBlockBegin
  2
*D4
 70
     1
 10
0.0
 20
0.0
 30
0.0
  3
*D4
  1

  0
LINE
  5
101
100
AcDbEntity
  8
0
370
     0
  6
Continuous
 62
     5
100
AcDbLine
 10
-3.22451
 20
-0.025512
 30
0.0
 11
-462.423051
 21
-0.025512
 31
0.0
  0
LINE
  5
102
100
AcDbEntity
  8
0
370
     0
  6
Continuous
 62
     5
100
AcDbLine
 10
-381.055198
 20
443.614146
 30
0.0
 11
-462.423051
 21
443.614146
 31
0.0
  0
POLYLINE
  5
103
100
AcDbEntity
  8
0
370
     0
  6
Continuous
 62
     5
100
AcDb2dPolyline
 66
     1
 10
0.0
 20
0.0
 30
0.0
 70
   128
  0
VERTEX
  5
104
100
AcDbEntity
  8
0
  6
Continuous
 62
     5
100
AcDbVertex
100
AcDb2dVertex
 10
-459.423051
 20
3.974488
 30
0.0
  0
VERTEX
  5
105
100
AcDbEntity
  8
0
  6
Continuous
 62
     5
100
AcDbVertex
100
AcDb2dVertex
 10
-459.423051
 20
3.974488
 30
0.0
  0
VERTEX
  5
106
100
AcDbEntity
  8
0
  6
Continuous
 62
     5
100
AcDbVertex
100
AcDb2dVertex
 10
-459.423051
 20
3.974488
 30
0.0
  0
VERTEX
  5
107
100
AcDbEntity
  8
0
  6
Continuous
 62
     5
100
AcDbVertex
100
AcDb2dVertex
 10
-459.423051
 20
211.654317
 30
0.0
  0
SEQEND
  5
108
100
AcDbEntity
  8
0
  6
Continuous
 62
     5
  0
POLYLINE
  5
109
100
AcDbEntity
  8
0
370
     0
  6
Continuous
 62
     5
100
AcDb2dPolyline
 66
     1
 10
0.0
 20
0.0
 30
0.0
 70
   128
  0
VERTEX
  5
10A
100
AcDbEntity
  8
0
  6
Continuous
 62
     5
100
AcDbVertex
100
AcDb2dVertex
 10
-459.423051
 20
439.614146
 30
0.0
  0
VERTEX
  5
10B
100
AcDbEntity
  8
0
  6
Continuous
 62
     5
100
AcDbVertex
100
AcDb2dVertex
 10
-459.423051
 20
439.614146
 30
0.0
  0
VERTEX
  5
10C
100
AcDbEntity
  8
0
  6
Continuous
 62
     5
100
AcDbVertex
100
AcDb2dVertex
 10
-459.423051
 20
439.614146
 30
0.0
  0
VERTEX
  5
10D
100
AcDbEntity
  8
0
  6
Continuous
 62
     5
100
AcDbVertex
100
AcDb2dVertex
 10
-459.423051
 20
231.934317
 30
0.0
  0
SEQEND
  5
10E
100
AcDbEntity
  8
0
  6
Continuous
 62
     5
  0
POLYLINE
  5
110
102
{ACAD_REACTORS
330
10F
102
}
100
AcDbEntity
  8
0
370
     0
  6
Continuous
 62
     5
100
AcDb2dPolyline
 66
     1
 10
0.0
 20
0.0
 30
0.0
 70
   129
  0
VERTEX
  5
111
100
AcDbEntity
  8
0
  6
Continuous
 62
     5
100
AcDbVertex
100
AcDb2dVertex
 10
-459.423051
 20
-0.025512
 30
0.0
  0
VERTEX
  5
112
100
AcDbEntity
  8
0
  6
Continuous
 62
     5
100
AcDbVertex
100
AcDb2dVertex
 10
-458.756384
 20
3.974488
 30
0.0
  0
VERTEX
  5
113
100
AcDbEntity
  8
0
  6
Continuous
 62
     5
100
AcDbVertex
100
AcDb2dVertex
 10
-460.089718
 20
3.974488
 30
0.0
  0
SEQEND
  5
114
100
AcDbEntity
  8
0
  6
Continuous
 62
     5
  0
HATCH
  5
10F
100
AcDbEntity
  8
0
  6
Continuous
 62
     5
100
AcDbHatch
 10
0.0
 20
0.0
 30
0.0
210
0.0
220
0.0
230
1.0
  2
SOLID
 70
     1
 71
     1
 91
        1
 92
        3
 72
     0
 73
     1
 93
        3
 10
-459.42305109065711
 20
-0.0255124213225599
 10
-458.75638442399043
 20
3.9744875786774401
 10
-460.0897177573238
 20
3.9744875786774401
 97
        1
330
110
 75
     0
 76
     0
 98
        0
  0
POLYLINE
  5
116
102
{ACAD_REACTORS
330
115
102
}
100
AcDbEntity
  8
0
370
     0
  6
Continuous
 62
     5
100
AcDb2dPolyline
 66
     1
 10
0.0
 20
0.0
 30
0.0
 70
   129
  0
VERTEX
  5
117
100
AcDbEntity
  8
0
  6
Continuous
 62
     5
100
AcDbVertex
100
AcDb2dVertex
 10
-459.423051
 20
443.614146
 30
0.0
  0
VERTEX
  5
118
100
AcDbEntity
  8
0
  6
Continuous
 62
     5
100
AcDbVertex
100
AcDb2dVertex
 10
-460.089718
 20
439.614146
 30
0.0
  0
VERTEX
  5
119
100
AcDbEntity
  8
0
  6
Continuous
 62
     5
100
AcDbVertex
100
AcDb2dVertex
 10
-458.756384
 20
439.614146
 30
0.0
  0
SEQEND
  5
11A
100
AcDbEntity
  8
0
  6
Continuous
 62
     5
  0
HATCH
  5
115
100
AcDbEntity
  8
0
  6
Continuous
 62
     5
100
AcDbHatch
 10
0.0
 20
0.0
 30
0.0
210
0.0
220
0.0
230
1.0
  2
SOLID
 70
     1
 71
     1
 91
        1
 92
        3
 72
     0
 73
     1
 93
        3
 10
-459.423051090657
 20
443.61414643990838
 10
-460.08971775732368
 20
439.61414643990838
 10
-458.75638442399031
 20
439.61414643990838
 97
        1
330
116
 75
     0
 76
     0
 98
        0
  0
TEXT
  5
11B
100
AcDbEntity
  8
0
  6
Continuous
 62
     5
100
AcDbText
 10
-472.042653
 20
216.630428
 30
0.0
 40
10.797222
  1
446
 72
     5
 11
-446.803449
 21
216.630428
 31
0.0
100
AcDbText
  0
ENDBLK
  5
11C
100
AcDbEntity
  8
0
100
AcDbBlockEnd
  0
BLOCK
  5
11F
100
AcDbEntity
  8
0
100
AcDbBlockBegin
  2
*D5
 70
     1
 10
0.0
 20
0.0
 30
0.0
  3
*D5
  1

  0
LINE
  5
120
100
AcDbEntity
  8
0
370
     0
  6
Continuous
 62
     5
100
AcDbLine
 10
1.148855
 20
-0.964434
 30
0.0
 11
81.756365
 21
-68.632317
 31
0.0
  0
LINE
  5
121
100
AcDbEntity
  8
0
370
     0
  6
Continuous
 62
     5
100
AcDbLine
 10
-1.148855
 20
-0.964434
 30
0.0
 11
-81.756365
 21
-68.632317
 31
0.0
  0
ARC
  5
122
100
AcDbEntity
  8
0
370
     0
  6
Continuous
 62
     5
100
AcDbCircle
 10
0.0
 20
0.0
 30
0.0
 40
103.745018
100
AcDbArc
 50
-80.487987
 51
-42.221812
  0
ARC
  5
123
100
AcDbEntity
  8
0
370
     0
  6
Continuous
 62
     5
100
AcDbCircle
 10
0.0
 20
0.0
 30
0.0
 40
103.745018
100
AcDbArc
 50
-137.778193
 51
-99.512011
  0
POLYLINE
  5
125
102
{ACAD_REACTORS
330
124
102
}
100
AcDbEntity
  8
0
370
     0
  6
Continuous
 62
     5
100
AcDb2dPolyline
 66
     1
 10
0.0
 20
0.0
 30
0.0
 70
   129
  0
VERTEX
  5
126
100
AcDbEntity
  8
0
  6
Continuous
 62
     5
100
AcDbVertex
100
AcDb2dVertex
 10
-79.458655
 20
-66.70345
 30
0.0
  0
VERTEX
  5
127
100
AcDbEntity
  8
0
  6
Continuous
 62
     5
100
AcDbVertex
100
AcDb2dVertex
 10
-77.330494
 20
-70.155315
 30
0.0
  0
VERTEX
  5
128
100
AcDbEntity
  8
0
  6
Continuous
 62
     5
100
AcDbVertex
100
AcDb2dVertex
 10
-76.326006
 20
-69.278513
 30
0.0
  0
SEQEND
  5
129
100
AcDbEntity
  8
0
  6
Continuous
 62
     5
  0
HATCH
  5
124
100
AcDbEntity
  8
0
  6
Continuous
 62
     5
100
AcDbHatch
 10
0.0
 20
0.0
 30
0.0
210
0.0
220
0.0
230
1.0
  2
SOLID
 70
     1
 71
     1
 91
        1
 92
        3
 72
     0
 73
     1
 93
        3
 10
-79.458655142893278
 20
-66.703449975218291
 10
-77.330493857050413
 20
-70.155315266026165
 10
-76.32600572413125
 20
-69.278513481925344
 97
        1
330
125
 75
     0
 76
     0
 98
        0
  0
POLYLINE
  5
12B
102
{ACAD_REACTORS
330
12A
102
}
100
AcDbEntity
  8
0
370
     0
  6
Continuous
 62
     5
100
AcDb2dPolyline
 66
     1
 10
0.0
 20
0.0
 30
0.0
 70
   129
  0
VERTEX
  5
12C
100
AcDbEntity
  8
0
  6
Continuous
 62
     5
100
AcDbVertex
100
AcDb2dVertex
 10
79.458655
 20
-66.70345
 30
0.0
  0
VERTEX
  5
12D
100
AcDbEntity
  8
0
  6
Continuous
 62
     5
100
AcDbVertex
100
AcDb2dVertex
 10
76.326006
 20
-69.278513
 30
0.0
  0
VERTEX
  5
12E
100
AcDbEntity
  8
0
  6
Continuous
 62
     5
100
AcDbVertex
100
AcDb2dVertex
 10
77.330494
 20
-70.155315
 30
0.0
  0
SEQEND
  5
12F
100
AcDbEntity
  8
0
  6
Continuous
 62
     5
  0
HATCH
  5
12A
100
AcDbEntity
  8
0
  6
Continuous
 62
     5
100
AcDbHatch
 10
0.0
 20
0.0
 30
0.0
210
0.0
220
0.0
230
1.0
  2
SOLID
 70
     1
 71
     1
 91
        1
 92
        3
 72
     0
 73
     1
 93
        3
 10
79.458655142893278
 20
-66.703449975218291
 10
76.32600572413125
 20
-69.278513481925344
 10
77.330493857050413
 20
-70.155315266026165
 97
        1
330
12B
 75
     0
 76
     0
 98
        0
  0
TEXT
  5
130
100
AcDbEntity
  8
0
  6
Continuous
 62
     5
100
AcDbText
 10
-15.644318
 20
-108.908904
 30
0.0
 40
10.797222
  1
100%%d
 72
     5
 11
15.644318
 21
-108.908904
 31
0.0
100
AcDbText
  0
ENDBLK
  5
131
100
AcDbEntity
  8
0
100
AcDbBlockEnd
  0
BLOCK
  5
134
100
AcDbEntity
  8
0
100
AcDbBlockBegin
  2
*D6
 70
     1
 10
0.0
 20
0.0
 30
0.0
  3
*D6
  1

  0
LINE
  5
135
100
AcDbEntity
  8
0
370
     0
  6
Continuous
 62
     5
100
AcDbLine
 10
4.777014
 20
0.05628
 30
0.0
 11
481.195015
 21
0.05628
 31
0.0
  0
LINE
  5
136
100
AcDbEntity
  8
0
370
     0
  6
Continuous
 62
     5
100
AcDbLine
 10
3.19688
 20
399.988391
 30
0.0
 11
481.195015
 21
399.988391
 31
0.0
  0
POLYLINE
  5
137
100
AcDbEntity
  8
0
370
     0
  6
Continuous
 62
     5
100
AcDb2dPolyline
 66
     1
 10
0.0
 20
0.0
 30
0.0
 70
   128
  0
VERTEX
  5
138
100
AcDbEntity
  8
0
  6
Continuous
 62
     5
100
AcDbVertex
100
AcDb2dVertex
 10
478.195015
 20
4.05628
 30
0.0
  0
VERTEX
  5
139
100
AcDbEntity
  8
0
  6
Continuous
 62
     5
100
AcDbVertex
100
AcDb2dVertex
 10
478.195015
 20
4.05628
 30
0.0
  0
VERTEX
  5
13A
100
AcDbEntity
  8
0
  6
Continuous
 62
     5
100
AcDbVertex
100
AcDb2dVertex
 10
478.195015
 20
4.05628
 30
0.0
  0
VERTEX
  5
13B
100
AcDbEntity
  8
0
  6
Continuous
 62
     5
100
AcDbVertex
100
AcDb2dVertex
 10
478.195015
 20
189.882336
 30
0.0
  0
SEQEND
  5
13C
100
AcDbEntity
  8
0
  6
Continuous
 62
     5
  0
POLYLINE
  5
13D
100
AcDbEntity
  8
0
370
     0
  6
Continuous
 62
     5
100
AcDb2dPolyline
 66
     1
 10
0.0
 20
0.0
 30
0.0
 70
   128
  0
VERTEX
  5
13E
100
AcDbEntity
  8
0
  6
Continuous
 62
     5
100
AcDbVertex
100
AcDb2dVertex
 10
478.195015
 20
395.988391
 30
0.0
  0
VERTEX
  5
13F
100
AcDbEntity
  8
0
  6
Continuous
 62
     5
100
AcDbVertex
100
AcDb2dVertex
 10
478.195015
 20
395.988391
 30
0.0
  0
VERTEX
  5
140
100
AcDbEntity
  8
0
  6
Continuous
 62
     5
100
AcDbVertex
100
AcDb2dVertex
 10
478.195015
 20
395.988391
 30
0.0
  0
VERTEX
  5
141
100
AcDbEntity
  8
0
  6
Continuous
 62
     5
100
AcDbVertex
100
AcDb2dVertex
 10
478.195015
 20
210.162336
 30
0.0
  0
SEQEND
  5
142
100
AcDbEntity
  8
0
  6
Continuous
 62
     5
  0
POLYLINE
  5
144
102
{ACAD_REACTORS
330
143
102
}
100
AcDbEntity
  8
0
370
     0
  6
Continuous
 62
     5
100
AcDb2dPolyline
 66
     1
 10
0.0
 20
0.0
 30
0.0
 70
   129
  0
VERTEX
  5
145
100
AcDbEntity
  8
0
  6
Continuous
 62
     5
100
AcDbVertex
100
AcDb2dVertex
 10
478.195015
 20
0.05628
 30
0.0
  0
VERTEX
  5
146
100
AcDbEntity
  8
0
  6
Continuous
 62
     5
100
AcDbVertex
100
AcDb2dVertex
 10
478.861682
 20
4.05628
 30
0.0
  0
VERTEX
  5
147
100
AcDbEntity
  8
0
  6
Continuous
 62
     5
100
AcDbVertex
100
AcDb2dVertex
 10
477.528349
 20
4.05628
 30
0.0
  0
SEQEND
  5
148
100
AcDbEntity
  8
0
  6
Continuous
 62
     5
  0
HATCH
  5
143
100
AcDbEntity
  8
0
  6
Continuous
 62
     5
100
AcDbHatch
 10
0.0
 20
0.0
 30
0.0
210
0.0
220
0.0
230
1.0
  2
SOLID
 70
     1
 71
     1
 91
        1
 92
        3
 72
     0
 73
     1
 93
        3
 10
478.19501524153196
 20
0.0562803001893712
 10
478.86168190819865
 20
4.0562803001893712
 10
477.52834857486528
 20
4.0562803001893712
 97
        1
330
144
 75
     0
 76
     0
 98
        0
  0
POLYLINE
  5
14A
102
{ACAD_REACTORS
330
149
102
}
100
AcDbEntity
  8
0
370
     0
  6
Continuous
 62
     5
100
AcDb2dPolyline
 66
     1
 10
0.0
 20
0.0
 30
0.0
 70
   129
  0
VERTEX
  5
14B
100
AcDbEntity
  8
0
  6
Continuous
 62
     5
100
AcDbVertex
100
AcDb2dVertex
 10
478.195015
 20
399.988391
 30
0.0
  0
VERTEX
  5
14C
100
AcDbEntity
  8
0
  6
Continuous
 62
     5
100
AcDbVertex
100
AcDb2dVertex
 10
477.528349
 20
395.988391
 30
0.0
  0
VERTEX
  5
14D
100
AcDbEntity
  8
0
  6
Continuous
 62
     5
100
AcDbVertex
100
AcDb2dVertex
 10
478.861682
 20
395.988391
 30
0.0
  0
SEQEND
  5
14E
100
AcDbEntity
  8
0
  6
Continuous
 62
     5
  0
HATCH
  5
149
100
AcDbEntity
  8
0
  6
Continuous
 62
     5
100
AcDbHatch
 10
0.0
 20
0.0
 30
0.0
210
0.0
220
0.0
230
1.0
  2
SOLID
 70
     1
 71
     1
 91
        1
 92
        3
 72
     0
 73
     1
 93
        3
 10
478.19501524153196
 20
399.98839074190471
 10
477.52834857486528
 20
395.98839074190471
 10
478.86168190819865
 20
395.98839074190471
 97
        1
330
14A
 75
     0
 76
     0
 98
        0
  0
TEXT
  5
14F
100
AcDbEntity
  8
0
  6
Continuous
 62
     5
100
AcDbText
 10
465.575413
 20
194.858447
 30
0.0
 40
10.797222
  1
400
 72
     5
 11
490.814618
 21
194.858447
 31
0.0
100
AcDbText
  0
ENDBLK
  5
150
100
AcDbEntity
  8
0
100
AcDbBlockEnd
  0
BLOCK
  5
157
100
AcDbEntity
  8
0
100
AcDbBlockBegin
  2
*D7
 70
     1
 10
0.0
 20
0.0
 30
0.0
  3
*D7
  1

  0
LINE
  5
158
100
AcDbEntity
  8
0
370
     0
  6
Continuous
 62
     5
100
AcDbLine
 10
61.403648
 20
270.133586
 30
0.0
 11
379.397201
 21
270.133586
 31
0.0
  0
LINE
  5
159
100
AcDbEntity
  8
0
370
     0
  6
Continuous
 62
     5
100
AcDbLine
 10
3.053967
 20
0.03719
 30
0.0
 11
379.397201
 21
0.03719
 31
0.0
  0
POLYLINE
  5
15A
100
AcDbEntity
  8
0
370
     0
  6
Continuous
 62
     5
100
AcDb2dPolyline
 66
     1
 10
0.0
 20
0.0
 30
0.0
 70
   128
  0
VERTEX
  5
15B
100
AcDbEntity
  8
0
  6
Continuous
 62
     5
100
AcDbVertex
100
AcDb2dVertex
 10
376.397201
 20
266.133586
 30
0.0
  0
VERTEX
  5
15C
100
AcDbEntity
  8
0
  6
Continuous
 62
     5
100
AcDbVertex
100
AcDb2dVertex
 10
376.397201
 20
266.133586
 30
0.0
  0
VERTEX
  5
15D
100
AcDbEntity
  8
0
  6
Continuous
 62
     5
100
AcDbVertex
100
AcDb2dVertex
 10
376.397201
 20
266.133586
 30
0.0
  0
VERTEX
  5
15E
100
AcDbEntity
  8
0
  6
Continuous
 62
     5
100
AcDbVertex
100
AcDb2dVertex
 10
376.397201
 20
145.225388
 30
0.0
  0
SEQEND
  5
15F
100
AcDbEntity
  8
0
  6
Continuous
 62
     5
  0
POLYLINE
  5
160
100
AcDbEntity
  8
0
370
     0
  6
Continuous
 62
     5
100
AcDb2dPolyline
 66
     1
 10
0.0
 20
0.0
 30
0.0
 70
   128
  0
VERTEX
  5
161
100
AcDbEntity
  8
0
  6
Continuous
 62
     5
100
AcDbVertex
100
AcDb2dVertex
 10
376.397201
 20
4.03719
 30
0.0
  0
VERTEX
  5
162
100
AcDbEntity
  8
0
  6
Continuous
 62
     5
100
AcDbVertex
100
AcDb2dVertex
 10
376.397201
 20
4.03719
 30
0.0
  0
VERTEX
  5
163
100
AcDbEntity
  8
0
  6
Continuous
 62
     5
100
AcDbVertex
100
AcDb2dVertex
 10
376.397201
 20
4.03719
 30
0.0
  0
VERTEX
  5
164
100
AcDbEntity
  8
0
  6
Continuous
 62
     5
100
AcDbVertex
100
AcDb2dVertex
 10
376.397201
 20
124.945388
 30
0.0
  0
SEQEND
  5
165
100
AcDbEntity
  8
0
  6
Continuous
 62
     5
  0
POLYLINE
  5
167
102
{ACAD_REACTORS
330
166
102
}
100
AcDbEntity
  8
0
370
     0
  6
Continuous
 62
     5
100
AcDb2dPolyline
 66
     1
 10
0.0
 20
0.0
 30
0.0
 70
   129
  0
VERTEX
  5
168
100
AcDbEntity
  8
0
  6
Continuous
 62
     5
100
AcDbVertex
100
AcDb2dVertex
 10
376.397201
 20
270.133586
 30
0.0
  0
VERTEX
  5
169
100
AcDbEntity
  8
0
  6
Continuous
 62
     5
100
AcDbVertex
100
AcDb2dVertex
 10
375.730534
 20
266.133586
 30
0.0
  0
VERTEX
  5
16A
100
AcDbEntity
  8
0
  6
Continuous
 62
     5
100
AcDbVertex
100
AcDb2dVertex
 10
377.063868
 20
266.133586
 30
0.0
  0
SEQEND
  5
16B
100
AcDbEntity
  8
0
  6
Continuous
 62
     5
  0
HATCH
  5
166
100
AcDbEntity
  8
0
  6
Continuous
 62
     5
100
AcDbHatch
 10
0.0
 20
0.0
 30
0.0
210
0.0
220
0.0
230
1.0
  2
SOLID
 70
     1
 71
     1
 91
        1
 92
        3
 72
     0
 73
     1
 93
        3
 10
376.3972008580829
 20
270.13358640017731
 10
375.73053419141621
 20
266.13358640017731
 10
377.06386752474958
 20
266.13358640017731
 97
        1
330
167
 75
     0
 76
     0
 98
        0
  0
POLYLINE
  5
16D
102
{ACAD_REACTORS
330
16C
102
}
100
AcDbEntity
  8
0
370
     0
  6
Continuous
 62
     5
100
AcDb2dPolyline
 66
     1
 10
0.0
 20
0.0
 30
0.0
 70
   129
  0
VERTEX
  5
16E
100
AcDbEntity
  8
0
  6
Continuous
 62
     5
100
AcDbVertex
100
AcDb2dVertex
 10
376.397201
 20
0.03719
 30
0.0
  0
VERTEX
  5
16F
100
AcDbEntity
  8
0
  6
Continuous
 62
     5
100
AcDbVertex
100
AcDb2dVertex
 10
377.063868
 20
4.03719
 30
0.0
  0
VERTEX
  5
170
100
AcDbEntity
  8
0
  6
Continuous
 62
     5
100
AcDbVertex
100
AcDb2dVertex
 10
375.730534
 20
4.03719
 30
0.0
  0
SEQEND
  5
171
100
AcDbEntity
  8
0
  6
Continuous
 62
     5
  0
HATCH
  5
16C
100
AcDbEntity
  8
0
  6
Continuous
 62
     5
100
AcDbHatch
 10
0.0
 20
0.0
 30
0.0
210
0.0
220
0.0
230
1.0
  2
SOLID
 70
     1
 71
     1
 91
        1
 92
        3
 72
     0
 73
     1
 93
        3
 10
376.3972008580829
 20
0.0371901516835464
 10
377.06386752474958
 20
4.0371901516835464
 10
375.73053419141621
 20
4.0371901516835464
 97
        1
330
16D
 75
     0
 76
     0
 98
        0
  0
TEXT
  5
172
100
AcDbEntity
  8
0
  6
Continuous
 62
     5
100
AcDbText
 10
363.777599
 20
129.921499
 30
0.0
 40
10.797222
  1
270
 72
     5
 11
389.016803
 21
129.921499
 31
0.0
100
AcDbText
  0
ENDBLK
  5
173
100
AcDbEntity
  8
0
100
AcDbBlockEnd
  0
BLOCK
  5
176
100
AcDbEntity
  8
0
100
AcDbBlockBegin
  2
*D8
 70
     1
 10
0.0
 20
0.0
 30
0.0
  3
*D8
  1

  0
LINE
  5
177
100
AcDbEntity
  8
0
370
     0
  6
Continuous
 62
     5
100
AcDbLine
 10
-66.045782
 20
276.043639
 30
0.0
 11
-66.045782
 21
224.341889
 31
0.0
  0
LINE
  5
178
100
AcDbEntity
  8
0
370
     0
  6
Continuous
 62
     5
100
AcDbLine
 10
65.913104
 20
275.804583
 30
0.0
 11
65.913104
 21
224.341889
 31
0.0
  0
POLYLINE
  5
179
100
AcDbEntity
  8
0
370
     0
  6
Continuous
 62
     5
100
AcDb2dPolyline
 66
     1
 10
0.0
 20
0.0
 30
0.0
 70
   128
  0
VERTEX
  5
17A
100
AcDbEntity
  8
0
  6
Continuous
 62
     5
100
AcDbVertex
100
AcDb2dVertex
 10
-62.045782
 20
227.341889
 30
0.0
  0
VERTEX
  5
17B
100
AcDbEntity
  8
0
  6
Continuous
 62
     5
100
AcDbVertex
100
AcDb2dVertex
 10
-62.045782
 20
227.341889
 30
0.0
  0
VERTEX
  5
17C
100
AcDbEntity
  8
0
  6
Continuous
 62
     5
100
AcDbVertex
100
AcDb2dVertex
 10
-62.045782
 20
227.341889
 30
0.0
  0
VERTEX
  5
17D
100
AcDbEntity
  8
0
  6
Continuous
 62
     5
100
AcDbVertex
100
AcDb2dVertex
 10
-14.185941
 20
227.341889
 30
0.0
  0
SEQEND
  5
17E
100
AcDbEntity
  8
0
  6
Continuous
 62
     5
  0
POLYLINE
  5
17F
100
AcDbEntity
  8
0
370
     0
  6
Continuous
 62
     5
100
AcDb2dPolyline
 66
     1
 10
0.0
 20
0.0
 30
0.0
 70
   128
  0
VERTEX
  5
180
100
AcDbEntity
  8
0
  6
Continuous
 62
     5
100
AcDbVertex
100
AcDb2dVertex
 10
61.913104
 20
227.341889
 30
0.0
  0
VERTEX
  5
181
100
AcDbEntity
  8
0
  6
Continuous
 62
     5
100
AcDbVertex
100
AcDb2dVertex
 10
61.913104
 20
227.341889
 30
0.0
  0
VERTEX
  5
182
100
AcDbEntity
  8
0
  6
Continuous
 62
     5
100
AcDbVertex
100
AcDb2dVertex
 10
61.913104
 20
227.341889
 30
0.0
  0
VERTEX
  5
183
100
AcDbEntity
  8
0
  6
Continuous
 62
     5
100
AcDbVertex
100
AcDb2dVertex
 10
14.053263
 20
227.341889
 30
0.0
  0
SEQEND
  5
184
100
AcDbEntity
  8
0
  6
Continuous
 62
     5
  0
POLYLINE
  5
186
102
{ACAD_REACTORS
330
185
102
}
100
AcDbEntity
  8
0
370
     0
  6
Continuous
 62
     5
100
AcDb2dPolyline
 66
     1
 10
0.0
 20
0.0
 30
0.0
 70
   129
  0
VERTEX
  5
187
100
AcDbEntity
  8
0
  6
Continuous
 62
     5
100
AcDbVertex
100
AcDb2dVertex
 10
-66.045782
 20
227.341889
 30
0.0
  0
VERTEX
  5
188
100
AcDbEntity
  8
0
  6
Continuous
 62
     5
100
AcDbVertex
100
AcDb2dVertex
 10
-62.045782
 20
226.675222
 30
0.0
  0
VERTEX
  5
189
100
AcDbEntity
  8
0
  6
Continuous
 62
     5
100
AcDbVertex
100
AcDb2dVertex
 10
-62.045782
 20
228.008555
 30
0.0
  0
SEQEND
  5
18A
100
AcDbEntity
  8
0
  6
Continuous
 62
     5
  0
HATCH
  5
185
100
AcDbEntity
  8
0
  6
Continuous
 62
     5
100
AcDbHatch
 10
0.0
 20
0.0
 30
0.0
210
0.0
220
0.0
230
1.0
  2
SOLID
 70
     1
 71
     1
 91
        1
 92
        3
 72
     0
 73
     1
 93
        3
 10
-66.045782211700825
 20
227.3418885047268
 10
-62.045782211700825
 20
226.67522183806014
 10
-62.045782211700825
 20
228.00855517139345
 97
        1
330
186
 75
     0
 76
     0
 98
        0
  0
POLYLINE
  5
18C
102
{ACAD_REACTORS
330
18B
102
}
100
AcDbEntity
  8
0
370
     0
  6
Continuous
 62
     5
100
AcDb2dPolyline
 66
     1
 10
0.0
 20
0.0
 30
0.0
 70
   129
  0
VERTEX
  5
18D
100
AcDbEntity
  8
0
  6
Continuous
 62
     5
100
AcDbVertex
100
AcDb2dVertex
 10
65.913104
 20
227.341889
 30
0.0
  0
VERTEX
  5
18E
100
AcDbEntity
  8
0
  6
Continuous
 62
     5
100
AcDbVertex
100
AcDb2dVertex
 10
61.913104
 20
228.008555
 30
0.0
  0
VERTEX
  5
18F
100
AcDbEntity
  8
0
  6
Continuous
 62
     5
100
AcDbVertex
100
AcDb2dVertex
 10
61.913104
 20
226.675222
 30
0.0
  0
SEQEND
  5
190
100
AcDbEntity
  8
0
  6
Continuous
 62
     5
  0
HATCH
  5
18B
100
AcDbEntity
  8
0
  6
Continuous
 62
     5
100
AcDbHatch
 10
0.0
 20
0.0
 30
0.0
210
0.0
220
0.0
230
1.0
  2
SOLID
 70
     1
 71
     1
 91
        1
 92
        3
 72
     0
 73
     1
 93
        3
 10
65.913104441949301
 20
227.3418885047268
 10
61.913104441949301
 20
228.00855517139345
 10
61.913104441949301
 20
226.67522183806014
 97
        1
330
18C
 75
     0
 76
     0
 98
        0
  0
TEXT
  5
191
100
AcDbEntity
  8
0
  6
Continuous
 62
     5
100
AcDbText
 10
-12.685941
 20
222.178
 30
0.0
 40
10.797222
  1
132
 72
     5
 11
12.553263
 21
222.178
 31
0.0
100
AcDbText
  0
ENDBLK
  5
192
100
AcDbEntity
  8
0
100
AcDbBlockEnd
  0
BLOCK
  5
195
100
AcDbEntity
  8
0
100
AcDbBlockBegin
  2
*D9
 70
     1
 10
0.0
 20
0.0
 30
0.0
  3
*D9
  1

  0
TEXT
  5
196
100
AcDbEntity
  8
0
  6
Continuous
 62
     5
100
AcDbText
 10
-106.056436
 20
252.482607
 30
0.0
 40
10.797222
  1
R10
 72
     5
 11
-78.305868
 21
252.482607
 31
0.0
100
AcDbText
  0
POLYLINE
  5
197
100
AcDbEntity
  8
0
370
     0
  6
Continuous
 62
     5
100
AcDb2dPolyline
 66
     1
 10
0.0
 20
0.0
 30
0.0
 70
   128
  0
VERTEX
  5
198
100
AcDbEntity
  8
0
  6
Continuous
 62
     5
100
AcDbVertex
100
AcDb2dVertex
 10
-56.0
 20
280.0
 30
0.0
  0
VERTEX
  5
199
100
AcDbEntity
  8
0
  6
Continuous
 62
     5
100
AcDbVertex
100
AcDb2dVertex
 10
-56.0
 20
280.0
 30
0.0
  0
VERTEX
  5
19A
100
AcDbEntity
  8
0
  6
Continuous
 62
     5
100
AcDbVertex
100
AcDb2dVertex
 10
-56.0
 20
280.0
 30
0.0
  0
VERTEX
  5
19B
100
AcDbEntity
  8
0
  6
Continuous
 62
     5
100
AcDbVertex
100
AcDb2dVertex
 10
-59.605591
 20
275.204199
 30
0.0
  0
SEQEND
  5
19C
100
AcDbEntity
  8
0
  6
Continuous
 62
     5
  0
POLYLINE
  5
19D
100
AcDbEntity
  8
0
370
     0
  6
Continuous
 62
     5
100
AcDb2dPolyline
 66
     1
 10
0.0
 20
0.0
 30
0.0
 70
   128
  0
VERTEX
  5
19E
100
AcDbEntity
  8
0
  6
Continuous
 62
     5
100
AcDbVertex
100
AcDb2dVertex
 10
-62.009319
 20
272.006998
 30
0.0
  0
VERTEX
  5
19F
100
AcDbEntity
  8
0
  6
Continuous
 62
     5
100
AcDbVertex
100
AcDb2dVertex
 10
-64.413047
 20
268.809797
 30
0.0
  0
VERTEX
  5
1A0
100
AcDbEntity
  8
0
  6
Continuous
 62
     5
100
AcDbVertex
100
AcDb2dVertex
 10
-72.805868
 20
257.646496
 30
0.0
  0
VERTEX
  5
1A1
100
AcDbEntity
  8
0
  6
Continuous
 62
     5
100
AcDbVertex
100
AcDb2dVertex
 10
-76.805868
 20
257.646496
 30
0.0
  0
SEQEND
  5
1A2
100
AcDbEntity
  8
0
  6
Continuous
 62
     5
  0
LINE
  5
1A3
100
AcDbEntity
  8
0
370
     0
  6
Continuous
 62
     5
100
AcDbLine
 10
-56.0
 20
280.0
 30
0.0
 11
-56.0
 21
280.0
 31
0.0
  0
POLYLINE
  5
1A5
102
{ACAD_REACTORS
330
1A4
102
}
100
AcDbEntity
  8
0
370
     0
  6
Continuous
 62
     5
100
AcDb2dPolyline
 66
     1
 10
0.0
 20
0.0
 30
0.0
 70
   129
  0
VERTEX
  5
1A6
100
AcDbEntity
  8
0
  6
Continuous
 62
     5
100
AcDbVertex
100
AcDb2dVertex
 10
-62.009319
 20
272.006998
 30
0.0
  0
VERTEX
  5
1A7
100
AcDbEntity
  8
0
  6
Continuous
 62
     5
100
AcDbVertex
100
AcDb2dVertex
 10
-59.072725
 20
274.803577
 30
0.0
  0
VERTEX
  5
1A8
100
AcDbEntity
  8
0
  6
Continuous
 62
     5
100
AcDbVertex
100
AcDb2dVertex
 10
-60.138458
 20
275.60482
 30
0.0
  0
SEQEND
  5
1A9
100
AcDbEntity
  8
0
  6
Continuous
 62
     5
  0
HATCH
  5
1A4
100
AcDbEntity
  8
0
  6
Continuous
 62
     5
100
AcDbHatch
 10
0.0
 20
0.0
 30
0.0
210
0.0
220
0.0
230
1.0
  2
SOLID
 70
     1
 71
     1
 91
        1
 92
        3
 72
     0
 73
     1
 93
        3
 10
-62.009319022528736
 20
272.00699775519399
 10
-59.072724597196839
 20
274.8035773849478
 10
-60.138458229837639
 20
275.60481992128501
 97
        1
330
1A5
 75
     0
 76
     0
 98
        0
  0
ENDBLK
  5
1AA
100
AcDbEntity
  8
0
100
AcDbBlockEnd
  0
BLOCK
  5
1AD
100
AcDbEntity
  8
0
100
AcDbBlockBegin
  2
*D10
 70
     1
 10
0.0
 20
0.0
 30
0.0
  3
*D10
  1

  0
TEXT
  5
1AE
100
AcDbEntity
  8
0
  6
Continuous
 62
     5
100
AcDbText
 10
78.110105
 20
251.260624
 30
0.0
 40
10.797222
  1
R10
 72
     5
 11
105.860673
 21
251.260624
 31
0.0
100
AcDbText
  0
POLYLINE
  5
1AF
100
AcDbEntity
  8
0
370
     0
  6
Continuous
 62
     5
100
AcDb2dPolyline
 66
     1
 10
0.0
 20
0.0
 30
0.0
 70
   128
  0
VERTEX
  5
1B0
100
AcDbEntity
  8
0
  6
Continuous
 62
     5
100
AcDbVertex
100
AcDb2dVertex
 10
56.0
 20
280.0
 30
0.0
  0
VERTEX
  5
1B1
100
AcDbEntity
  8
0
  6
Continuous
 62
     5
100
AcDbVertex
100
AcDb2dVertex
 10
56.0
 20
280.0
 30
0.0
  0
VERTEX
  5
1B2
100
AcDbEntity
  8
0
  6
Continuous
 62
     5
100
AcDbVertex
100
AcDb2dVertex
 10
56.0
 20
280.0
 30
0.0
  0
VERTEX
  5
1B3
100
AcDbEntity
  8
0
  6
Continuous
 62
     5
100
AcDbVertex
100
AcDb2dVertex
 10
59.455735
 20
275.095115
 30
0.0
  0
SEQEND
  5
1B4
100
AcDbEntity
  8
0
  6
Continuous
 62
     5
  0
POLYLINE
  5
1B5
100
AcDbEntity
  8
0
370
     0
  6
Continuous
 62
     5
100
AcDb2dPolyline
 66
     1
 10
0.0
 20
0.0
 30
0.0
 70
   128
  0
VERTEX
  5
1B6
100
AcDbEntity
  8
0
  6
Continuous
 62
     5
100
AcDbVertex
100
AcDb2dVertex
 10
61.759559
 20
271.825192
 30
0.0
  0
VERTEX
  5
1B7
100
AcDbEntity
  8
0
  6
Continuous
 62
     5
100
AcDbVertex
100
AcDb2dVertex
 10
64.063383
 20
268.555269
 30
0.0
  0
VERTEX
  5
1B8
100
AcDbEntity
  8
0
  6
Continuous
 62
     5
100
AcDbVertex
100
AcDb2dVertex
 10
72.610105
 20
256.424513
 30
0.0
  0
VERTEX
  5
1B9
100
AcDbEntity
  8
0
  6
Continuous
 62
     5
100
AcDbVertex
100
AcDb2dVertex
 10
76.610105
 20
256.424513
 30
0.0
  0
SEQEND
  5
1BA
100
AcDbEntity
  8
0
  6
Continuous
 62
     5
  0
LINE
  5
1BB
100
AcDbEntity
  8
0
370
     0
  6
Continuous
 62
     5
100
AcDbLine
 10
56.0
 20
280.0
 30
0.0
 11
56.0
 21
280.0
 31
0.0
  0
POLYLINE
  5
1BD
102
{ACAD_REACTORS
330
1BC
102
}
100
AcDbEntity
  8
0
370
     0
  6
Continuous
 62
     5
100
AcDb2dPolyline
 66
     1
 10
0.0
 20
0.0
 30
0.0
 70
   129
  0
VERTEX
  5
1BE
100
AcDbEntity
  8
0
  6
Continuous
 62
     5
100
AcDbVertex
100
AcDb2dVertex
 10
61.759559
 20
271.825192
 30
0.0
  0
VERTEX
  5
1BF
100
AcDbEntity
  8
0
  6
Continuous
 62
     5
100
AcDbVertex
100
AcDb2dVertex
 10
60.000723
 20
275.479086
 30
0.0
  0
VERTEX
  5
1C0
100
AcDbEntity
  8
0
  6
Continuous
 62
     5
100
AcDbVertex
100
AcDb2dVertex
 10
58.910748
 20
274.711145
 30
0.0
  0
SEQEND
  5
1C1
100
AcDbEntity
  8
0
  6
Continuous
 62
     5
  0
HATCH
  5
1BC
100
AcDbEntity
  8
0
  6
Continuous
 62
     5
100
AcDbHatch
 10
0.0
 20
0.0
 30
0.0
210
0.0
220
0.0
230
1.0
  2
SOLID
 70
     1
 71
     1
 91
        1
 92
        3
 72
     0
 73
     1
 93
        3
 10
61.75955902818076
 20
271.8251923691808
 10
60.000722592296398
 20
275.47908602338725
 10
58.910748241520494
 20
274.71114481962979
 97
        1
330
1BD
 75
     0
 76
     0
 98
        0
  0
ENDBLK
  5
1C2
100
AcDbEntity
  8
0
100
AcDbBlockEnd
  0
BLOCK
  5
1C5
100
AcDbEntity
  8
0
100
AcDbBlockBegin
  2
*D11
 70
     1
 10
0.0
 20
0.0
 30
0.0
  3
*D11
  1

  0
TEXT
  5
1C6
100
AcDbEntity
  8
0
  6
Continuous
 62
     5
100
AcDbText
 10
-175.568652
 20
440.667983
 30
0.0
 40
10.797222
  1
R100
 72
     5
 11
-139.405016
 21
440.667983
 31
0.0
100
AcDbText
  0
POLYLINE
  5
1C7
100
AcDbEntity
  8
0
370
     0
  6
Continuous
 62
     5
100
AcDb2dPolyline
 66
     1
 10
0.0
 20
0.0
 30
0.0
 70
   128
  0
VERTEX
  5
1C8
100
AcDbEntity
  8
0
  6
Continuous
 62
     5
100
AcDbVertex
100
AcDb2dVertex
 10
-26.499819
 20
368.561841
 30
0.0
  0
VERTEX
  5
1C9
100
AcDbEntity
  8
0
  6
Continuous
 62
     5
100
AcDbVertex
100
AcDb2dVertex
 10
-133.905016
 20
445.831872
 30
0.0
  0
VERTEX
  5
1CA
100
AcDbEntity
  8
0
  6
Continuous
 62
     5
100
AcDbVertex
100
AcDb2dVertex
 10
-137.905016
 20
445.831872
 30
0.0
  0
SEQEND
  5
1CB
100
AcDbEntity
  8
0
  6
Continuous
 62
     5
  0
LINE
  5
1CC
100
AcDbEntity
  8
0
370
     0
  6
Continuous
 62
     5
100
AcDbLine
 10
-104.676664
 20
424.804252
 30
0.0
 11
-104.676664
 21
424.804252
 31
0.0
  0
POLYLINE
  5
1CE
102
{ACAD_REACTORS
330
1CD
102
}
100
AcDbEntity
  8
0
370
     0
  6
Continuous
 62
     5
100
AcDb2dPolyline
 66
     1
 10
0.0
 20
0.0
 30
0.0
 70
   129
  0
VERTEX
  5
1CF
100
AcDbEntity
  8
0
  6
Continuous
 62
     5
100
AcDbVertex
100
AcDb2dVertex
 10
-23.252797
 20
366.225851
 30
0.0
  0
VERTEX
  5
1D0
100
AcDbEntity
  8
0
  6
Continuous
 62
     5
100
AcDbVertex
100
AcDb2dVertex
 10
-26.110487
 20
369.103011
 30
0.0
  0
VERTEX
  5
1D1
100
AcDbEntity
  8
0
  6
Continuous
 62
     5
100
AcDbVertex
100
AcDb2dVertex
 10
-26.88915
 20
368.02067
 30
0.0
  0
SEQEND
  5
1D2
100
AcDbEntity
  8
0
  6
Continuous
 62
     5
  0
HATCH
  5
1CD
100
AcDbEntity
  8
0
  6
Continuous
 62
     5
100
AcDbHatch
 10
0.0
 20
0.0
 30
0.0
210
0.0
220
0.0
230
1.0
  2
SOLID
 70
     1
 71
     1
 91
        1
 92
        3
 72
     0
 73
     1
 93
        3
 10
-23.252796726995072
 20
366.22585067996926
 10
-26.110486827885325
 20
369.10301103902441
 10
-26.889150182125356
 20
368.0206704463543
 97
        1
330
1CE
 75
     0
 76
     0
 98
        0
  0
ENDBLK
  5
1D3
100
AcDbEntity
  8
0
100
AcDbBlockEnd
  0
BLOCK
  5
1D6
100
AcDbEntity
  8
0
100
AcDbBlockBegin
  2
*D12
 70
     1
 10
0.0
 20
0.0
 30
0.0
  3
*D12
  1

  0
LINE
  5
1D7
100
AcDbEntity
  8
0
370
     0
  6
Continuous
 62
     5
100
AcDbLine
 10
-63.946504
 20
334.756698
 30
0.0
 11
-63.946504
 21
451.123083
 31
0.0
  0
LINE
  5
1D8
100
AcDbEntity
  8
0
370
     0
  6
Continuous
 62
     5
100
AcDbLine
 10
64.361706
 20
334.756698
 30
0.0
 11
64.361706
 21
451.123083
 31
0.0
  0
POLYLINE
  5
1D9
100
AcDbEntity
  8
0
370
     0
  6
Continuous
 62
     5
100
AcDb2dPolyline
 66
     1
 10
0.0
 20
0.0
 30
0.0
 70
   128
  0
VERTEX
  5
1DA
100
AcDbEntity
  8
0
  6
Continuous
 62
     5
100
AcDbVertex
100
AcDb2dVertex
 10
-59.946504
 20
448.123083
 30
0.0
  0
VERTEX
  5
1DB
100
AcDbEntity
  8
0
  6
Continuous
 62
     5
100
AcDbVertex
100
AcDb2dVertex
 10
-59.946504
 20
448.123083
 30
0.0
  0
VERTEX
  5
1DC
100
AcDbEntity
  8
0
  6
Continuous
 62
     5
100
AcDbVertex
100
AcDb2dVertex
 10
-59.946504
 20
448.123083
 30
0.0
  0
VERTEX
  5
1DD
100
AcDbEntity
  8
0
  6
Continuous
 62
     5
100
AcDbVertex
100
AcDb2dVertex
 10
-13.912001
 20
448.123083
 30
0.0
  0
SEQEND
  5
1DE
100
AcDbEntity
  8
0
  6
Continuous
 62
     5
  0
POLYLINE
  5
1DF
100
AcDbEntity
  8
0
370
     0
  6
Continuous
 62
     5
100
AcDb2dPolyline
 66
     1
 10
0.0
 20
0.0
 30
0.0
 70
   128
  0
VERTEX
  5
1E0
100
AcDbEntity
  8
0
  6
Continuous
 62
     5
100
AcDbVertex
100
AcDb2dVertex
 10
60.361706
 20
448.123083
 30
0.0
  0
VERTEX
  5
1E1
100
AcDbEntity
  8
0
  6
Continuous
 62
     5
100
AcDbVertex
100
AcDb2dVertex
 10
60.361706
 20
448.123083
 30
0.0
  0
VERTEX
  5
1E2
100
AcDbEntity
  8
0
  6
Continuous
 62
     5
100
AcDbVertex
100
AcDb2dVertex
 10
60.361706
 20
448.123083
 30
0.0
  0
VERTEX
  5
1E3
100
AcDbEntity
  8
0
  6
Continuous
 62
     5
100
AcDbVertex
100
AcDb2dVertex
 10
14.327203
 20
448.123083
 30
0.0
  0
SEQEND
  5
1E4
100
AcDbEntity
  8
0
  6
Continuous
 62
     5
  0
POLYLINE
  5
1E6
102
{ACAD_REACTORS
330
1E5
102
}
100
AcDbEntity
  8
0
370
     0
  6
Continuous
 62
     5
100
AcDb2dPolyline
 66
     1
 10
0.0
 20
0.0
 30
0.0
 70
   129
  0
VERTEX
  5
1E7
100
AcDbEntity
  8
0
  6
Continuous
 62
     5
100
AcDbVertex
100
AcDb2dVertex
 10
-63.946504
 20
448.123083
 30
0.0
  0
VERTEX
  5
1E8
100
AcDbEntity
  8
0
  6
Continuous
 62
     5
100
AcDbVertex
100
AcDb2dVertex
 10
-59.946504
 20
447.456417
 30
0.0
  0
VERTEX
  5
1E9
100
AcDbEntity
  8
0
  6
Continuous
 62
     5
100
AcDbVertex
100
AcDb2dVertex
 10
-59.946504
 20
448.78975
 30
0.0
  0
SEQEND
  5
1EA
100
AcDbEntity
  8
0
  6
Continuous
 62
     5
  0
HATCH
  5
1E5
100
AcDbEntity
  8
0
  6
Continuous
 62
     5
100
AcDbHatch
 10
0.0
 20
0.0
 30
0.0
210
0.0
220
0.0
230
1.0
  2
SOLID
 70
     1
 71
     1
 91
        1
 92
        3
 72
     0
 73
     1
 93
        3
 10
-63.946504317474336
 20
448.12308325997759
 10
-59.946504317474336
 20
447.45641659331091
 10
-59.946504317474336
 20
448.78974992664428
 97
        1
330
1E6
 75
     0
 76
     0
 98
        0
  0
POLYLINE
  5
1EC
102
{ACAD_REACTORS
330
1EB
102
}
100
AcDbEntity
  8
0
370
     0
  6
Continuous
 62
     5
100
AcDb2dPolyline
 66
     1
 10
0.0
 20
0.0
 30
0.0
 70
   129
  0
VERTEX
  5
1ED
100
AcDbEntity
  8
0
  6
Continuous
 62
     5
100
AcDbVertex
100
AcDb2dVertex
 10
64.361706
 20
448.123083
 30
0.0
  0
VERTEX
  5
1EE
100
AcDbEntity
  8
0
  6
Continuous
 62
     5
100
AcDbVertex
100
AcDb2dVertex
 10
60.361706
 20
448.78975
 30
0.0
  0
VERTEX
  5
1EF
100
AcDbEntity
  8
0
  6
Continuous
 62
     5
100
AcDbVertex
100
AcDb2dVertex
 10
60.361706
 20
447.456417
 30
0.0
  0
SEQEND
  5
1F0
100
AcDbEntity
  8
0
  6
Continuous
 62
     5
  0
HATCH
  5
1EB
100
AcDbEntity
  8
0
  6
Continuous
 62
     5
100
AcDbHatch
 10
0.0
 20
0.0
 30
0.0
210
0.0
220
0.0
230
1.0
  2
SOLID
 70
     1
 71
     1
 91
        1
 92
        3
 72
     0
 73
     1
 93
        3
 10
64.361706422921287
 20
448.12308325997753
 10
60.361706422921287
 20
448.78974992664422
 10
60.361706422921287
 20
447.45641659331085
 97
        1
330
1EC
 75
     0
 76
     0
 98
        0
  0
TEXT
  5
1F1
100
AcDbEntity
  8
0
  6
Continuous
 62
     5
100
AcDbText
 10
-12.412001
 20
442.959194
 30
0.0
 40
10.797222
  1
128
 72
     5
 11
12.827203
 21
442.959194
 31
0.0
100
AcDbText
  0
ENDBLK
  5
1F2
100
AcDbEntity
  8
0
100
AcDbBlockEnd
  0
BLOCK
  5
1F5
100
AcDbEntity
  8
0
100
AcDbBlockBegin
  2
*D13
 70
     1
 10
0.0
 20
0.0
 30
0.0
  3
*D13
  1

  0
LINE
  5
1F6
100
AcDbEntity
  8
0
370
     0
  6
Continuous
 62
     5
100
AcDbLine
 10
65.385212
 20
333.409429
 30
0.0
 11
452.780654
 21
333.409429
 31
0.0
  0
LINE
  5
1F7
100
AcDbEntity
  8
0
370
     0
  6
Continuous
 62
     5
100
AcDbLine
 10
63.264889
 20
0.037202
 30
0.0
 11
452.780654
 21
0.037202
 31
0.0
  0
POLYLINE
  5
1F8
100
AcDbEntity
  8
0
370
     0
  6
Continuous
 62
     5
100
AcDb2dPolyline
 66
     1
 10
0.0
 20
0.0
 30
0.0
 70
   128
  0
VERTEX
  5
1F9
100
AcDbEntity
  8
0
  6
Continuous
 62
     5
100
AcDbVertex
100
AcDb2dVertex
 10
449.780654
 20
329.409429
 30
0.0
  0
VERTEX
  5
1FA
100
AcDbEntity
  8
0
  6
Continuous
 62
     5
100
AcDbVertex
100
AcDb2dVertex
 10
449.780654
 20
329.409429
 30
0.0
  0
VERTEX
  5
1FB
100
AcDbEntity
  8
0
  6
Continuous
 62
     5
100
AcDbVertex
100
AcDb2dVertex
 10
449.780654
 20
329.409429
 30
0.0
  0
VERTEX
  5
1FC
100
AcDbEntity
  8
0
  6
Continuous
 62
     5
100
AcDbVertex
100
AcDb2dVertex
 10
449.780654
 20
176.863316
 30
0.0
  0
SEQEND
  5
1FD
100
AcDbEntity
  8
0
  6
Continuous
 62
     5
  0
POLYLINE
  5
1FE
100
AcDbEntity
  8
0
370
     0
  6
Continuous
 62
     5
100
AcDb2dPolyline
 66
     1
 10
0.0
 20
0.0
 30
0.0
 70
   128
  0
VERTEX
  5
1FF
100
AcDbEntity
  8
0
  6
Continuous
 62
     5
100
AcDbVertex
100
AcDb2dVertex
 10
449.780654
 20
4.037202
 30
0.0
  0
VERTEX
  5
200
100
AcDbEntity
  8
0
  6
Continuous
 62
     5
100
AcDbVertex
100
AcDb2dVertex
 10
449.780654
 20
4.037202
 30
0.0
  0
VERTEX
  5
201
100
AcDbEntity
  8
0
  6
Continuous
 62
     5
100
AcDbVertex
100
AcDb2dVertex
 10
449.780654
 20
4.037202
 30
0.0
  0
VERTEX
  5
202
100
AcDbEntity
  8
0
  6
Continuous
 62
     5
100
AcDbVertex
100
AcDb2dVertex
 10
449.780654
 20
156.583316
 30
0.0
  0
SEQEND
  5
203
100
AcDbEntity
  8
0
  6
Continuous
 62
     5
  0
POLYLINE
  5
205
102
{ACAD_REACTORS
330
204
102
}
100
AcDbEntity
  8
0
370
     0
  6
Continuous
 62
     5
100
AcDb2dPolyline
 66
     1
 10
0.0
 20
0.0
 30
0.0
 70
   129
  0
VERTEX
  5
206
100
AcDbEntity
  8
0
  6
Continuous
 62
     5
100
AcDbVertex
100
AcDb2dVertex
 10
449.780654
 20
333.409429
 30
0.0
  0
VERTEX
  5
207
100
AcDbEntity
  8
0
  6
Continuous
 62
     5
100
AcDbVertex
100
AcDb2dVertex
 10
449.113987
 20
329.409429
 30
0.0
  0
VERTEX
  5
208
100
AcDbEntity
  8
0
  6
Continuous
 62
     5
100
AcDbVertex
100
AcDb2dVertex
 10
450.447321
 20
329.409429
 30
0.0
  0
SEQEND
  5
209
100
AcDbEntity
  8
0
  6
Continuous
 62
     5
  0
HATCH
  5
204
100
AcDbEntity
  8
0
  6
Continuous
 62
     5
100
AcDbHatch
 10
0.0
 20
0.0
 30
0.0
210
0.0
220
0.0
230
1.0
  2
SOLID
 70
     1
 71
     1
 91
        1
 92
        3
 72
     0
 73
     1
 93
        3
 10
449.78065398891408
 20
333.4094292812448
 10
449.1139873222474
 20
329.4094292812448
 10
450.44732065558077
 20
329.4094292812448
 97
        1
330
205
 75
     0
 76
     0
 98
        0
  0
POLYLINE
  5
20B
102
{ACAD_REACTORS
330
20A
102
}
100
AcDbEntity
  8
0
370
     0
  6
Continuous
 62
     5
100
AcDb2dPolyline
 66
     1
 10
0.0
 20
0.0
 30
0.0
 70
   129
  0
VERTEX
  5
20C
100
AcDbEntity
  8
0
  6
Continuous
 62
     5
100
AcDbVertex
100
AcDb2dVertex
 10
449.780654
 20
0.037202
 30
0.0
  0
VERTEX
  5
20D
100
AcDbEntity
  8
0
  6
Continuous
 62
     5
100
AcDbVertex
100
AcDb2dVertex
 10
450.447321
 20
4.037202
 30
0.0
  0
VERTEX
  5
20E
100
AcDbEntity
  8
0
  6
Continuous
 62
     5
100
AcDbVertex
100
AcDb2dVertex
 10
449.113987
 20
4.037202
 30
0.0
  0
SEQEND
  5
20F
100
AcDbEntity
  8
0
  6
Continuous
 62
     5
  0
HATCH
  5
20A
100
AcDbEntity
  8
0
  6
Continuous
 62
     5
100
AcDbHatch
 10
0.0
 20
0.0
 30
0.0
210
0.0
220
0.0
230
1.0
  2
SOLID
 70
     1
 71
     1
 91
        1
 92
        3
 72
     0
 73
     1
 93
        3
 10
449.78065398891408
 20
0.0372023867961957
 10
450.44732065558077
 20
4.0372023867961957
 10
449.1139873222474
 20
4.0372023867961957
 97
        1
330
20B
 75
     0
 76
     0
 98
        0
  0
TEXT
  5
210
100
AcDbEntity
  8
0
  6
Continuous
 62
     5
100
AcDbText
 10
437.161052
 20
161.559427
 30
0.0
 40
10.797222
  1
333
 72
     5
 11
462.400256
 21
161.559427
 31
0.0
100
AcDbText
  0
ENDBLK
  5
211
100
AcDbEntity
  8
0
100
AcDbBlockEnd
  0
BLOCK
  5
214
100
AcDbEntity
  8
0
100
AcDbBlockBegin
  2
*D14
 70
     1
 10
0.0
 20
0.0
 30
0.0
  3
*D14
  1

  0
TEXT
  5
215
100
AcDbEntity
  8
0
  6
Continuous
 62
     5
100
AcDbText
 10
-51.525922
 20
417.832555
 30
0.0
 40
10.797222
  1
R10
 72
     5
 11
-23.775354
 21
417.832555
 31
0.0
100
AcDbText
  0
POLYLINE
  5
216
100
AcDbEntity
  8
0
370
     0
  6
Continuous
 62
     5
100
AcDb2dPolyline
 66
     1
 10
0.0
 20
0.0
 30
0.0
 70
   128
  0
VERTEX
  5
217
100
AcDbEntity
  8
0
  6
Continuous
 62
     5
100
AcDbVertex
100
AcDb2dVertex
 10
0.008982
 20
390.012444
 30
0.0
  0
VERTEX
  5
218
100
AcDbEntity
  8
0
  6
Continuous
 62
     5
100
AcDbVertex
100
AcDb2dVertex
 10
0.008982
 20
390.012444
 30
0.0
  0
VERTEX
  5
219
100
AcDbEntity
  8
0
  6
Continuous
 62
     5
100
AcDbVertex
100
AcDb2dVertex
 10
0.008982
 20
390.012444
 30
0.0
  0
VERTEX
  5
21A
100
AcDbEntity
  8
0
  6
Continuous
 62
     5
100
AcDbVertex
100
AcDb2dVertex
 10
-2.898119
 20
395.256705
 30
0.0
  0
SEQEND
  5
21B
100
AcDbEntity
  8
0
  6
Continuous
 62
     5
  0
POLYLINE
  5
21C
100
AcDbEntity
  8
0
370
     0
  6
Continuous
 62
     5
100
AcDb2dPolyline
 66
     1
 10
0.0
 20
0.0
 30
0.0
 70
   128
  0
VERTEX
  5
21D
100
AcDbEntity
  8
0
  6
Continuous
 62
     5
100
AcDbVertex
100
AcDb2dVertex
 10
-4.837439
 20
398.755138
 30
0.0
  0
VERTEX
  5
21E
100
AcDbEntity
  8
0
  6
Continuous
 62
     5
100
AcDbVertex
100
AcDb2dVertex
 10
-6.776759
 20
402.253572
 30
0.0
  0
VERTEX
  5
21F
100
AcDbEntity
  8
0
  6
Continuous
 62
     5
100
AcDbVertex
100
AcDb2dVertex
 10
-18.275354
 20
422.996444
 30
0.0
  0
VERTEX
  5
220
100
AcDbEntity
  8
0
  6
Continuous
 62
     5
100
AcDbVertex
100
AcDb2dVertex
 10
-22.275354
 20
422.996444
 30
0.0
  0
SEQEND
  5
221
100
AcDbEntity
  8
0
  6
Continuous
 62
     5
  0
LINE
  5
222
100
AcDbEntity
  8
0
370
     0
  6
Continuous
 62
     5
100
AcDbLine
 10
0.008982
 20
390.012444
 30
0.0
 11
0.008982
 21
390.012444
 31
0.0
  0
POLYLINE
  5
224
102
{ACAD_REACTORS
330
223
102
}
100
AcDbEntity
  8
0
370
     0
  6
Continuous
 62
     5
100
AcDb2dPolyline
 66
     1
 10
0.0
 20
0.0
 30
0.0
 70
   129
  0
VERTEX
  5
225
100
AcDbEntity
  8
0
  6
Continuous
 62
     5
100
AcDbVertex
100
AcDb2dVertex
 10
-4.837439
 20
398.755138
 30
0.0
  0
VERTEX
  5
226
100
AcDbEntity
  8
0
  6
Continuous
 62
     5
100
AcDbVertex
100
AcDb2dVertex
 10
-3.481191
 20
394.933485
 30
0.0
  0
VERTEX
  5
227
100
AcDbEntity
  8
0
  6
Continuous
 62
     5
100
AcDbVertex
100
AcDb2dVertex
 10
-2.315047
 20
395.579925
 30
0.0
  0
SEQEND
  5
228
100
AcDbEntity
  8
0
  6
Continuous
 62
     5
  0
HATCH
  5
223
100
AcDbEntity
  8
0
  6
Continuous
 62
     5
100
AcDbHatch
 10
0.0
 20
0.0
 30
0.0
210
0.0
220
0.0
230
1.0
  2
SOLID
 70
     1
 71
     1
 91
        1
 92
        3
 72
     0
 73
     1
 93
        3
 10
-4.8374392108621169
 20
398.75513821808568
 10
-3.48119137326881
 20
394.9334846168984
 10
-2.3150468451860777
 20
395.5799246507766
 97
        1
330
224
 75
     0
 76
     0
 98
        0
  0
ENDBLK
  5
229
100
AcDbEntity
  8
0
100
AcDbBlockEnd
  0
BLOCK
  5
22C
100
AcDbEntity
  8
0
100
AcDbBlockBegin
  2
*D15
 70
     1
 10
0.0
 20
0.0
 30
0.0
  3
*D15
  1

  0
LINE
  5
22D
100
AcDbEntity
  8
0
370
     0
  6
Continuous
 62
     5
100
AcDbLine
 10
64.792011
 20
290.105804
 30
0.0
 11
154.274784
 21
290.105804
 31
0.0
  0
LINE
  5
22E
100
AcDbEntity
  8
0
370
     0
  6
Continuous
 62
     5
100
AcDbLine
 10
63.570028
 20
269.943085
 30
0.0
 11
154.274784
 21
269.943085
 31
0.0
  0
POLYLINE
  5
22F
100
AcDbEntity
  8
0
370
     0
  6
Continuous
 62
     5
100
AcDb2dPolyline
 66
     1
 10
0.0
 20
0.0
 30
0.0
 70
   128
  0
VERTEX
  5
230
100
AcDbEntity
  8
0
  6
Continuous
 62
     5
100
AcDbVertex
100
AcDb2dVertex
 10
151.274784
 20
298.105804
 30
0.0
  0
VERTEX
  5
231
100
AcDbEntity
  8
0
  6
Continuous
 62
     5
100
AcDbVertex
100
AcDb2dVertex
 10
151.274784
 20
294.105804
 30
0.0
  0
SEQEND
  5
232
100
AcDbEntity
  8
0
  6
Continuous
 62
     5
  0
POLYLINE
  5
233
100
AcDbEntity
  8
0
370
     0
  6
Continuous
 62
     5
100
AcDb2dPolyline
 66
     1
 10
0.0
 20
0.0
 30
0.0
 70
   128
  0
VERTEX
  5
234
100
AcDbEntity
  8
0
  6
Continuous
 62
     5
100
AcDbVertex
100
AcDb2dVertex
 10
151.274784
 20
290.105804
 30
0.0
  0
VERTEX
  5
235
100
AcDbEntity
  8
0
  6
Continuous
 62
     5
100
AcDbVertex
100
AcDb2dVertex
 10
151.274784
 20
269.943085
 30
0.0
  0
SEQEND
  5
236
100
AcDbEntity
  8
0
  6
Continuous
 62
     5
  0
POLYLINE
  5
237
100
AcDbEntity
  8
0
370
     0
  6
Continuous
 62
     5
100
AcDb2dPolyline
 66
     1
 10
0.0
 20
0.0
 30
0.0
 70
   128
  0
VERTEX
  5
238
100
AcDbEntity
  8
0
  6
Continuous
 62
     5
100
AcDbVertex
100
AcDb2dVertex
 10
155.274784
 20
261.943085
 30
0.0
  0
VERTEX
  5
239
100
AcDbEntity
  8
0
  6
Continuous
 62
     5
100
AcDbVertex
100
AcDb2dVertex
 10
151.274784
 20
261.943085
 30
0.0
  0
VERTEX
  5
23A
100
AcDbEntity
  8
0
  6
Continuous
 62
     5
100
AcDbVertex
100
AcDb2dVertex
 10
151.274784
 20
265.943085
 30
0.0
  0
SEQEND
  5
23B
100
AcDbEntity
  8
0
  6
Continuous
 62
     5
  0
POLYLINE
  5
23D
102
{ACAD_REACTORS
330
23C
102
}
100
AcDbEntity
  8
0
370
     0
  6
Continuous
 62
     5
100
AcDb2dPolyline
 66
     1
 10
0.0
 20
0.0
 30
0.0
 70
   129
  0
VERTEX
  5
23E
100
AcDbEntity
  8
0
  6
Continuous
 62
     5
100
AcDbVertex
100
AcDb2dVertex
 10
151.274784
 20
269.943085
 30
0.0
  0
VERTEX
  5
23F
100
AcDbEntity
  8
0
  6
Continuous
 62
     5
100
AcDbVertex
100
AcDb2dVertex
 10
150.608117
 20
265.943085
 30
0.0
  0
VERTEX
  5
240
100
AcDbEntity
  8
0
  6
Continuous
 62
     5
100
AcDbVertex
100
AcDb2dVertex
 10
151.941451
 20
265.943085
 30
0.0
  0
SEQEND
  5
241
100
AcDbEntity
  8
0
  6
Continuous
 62
     5
  0
HATCH
  5
23C
100
AcDbEntity
  8
0
  6
Continuous
 62
     5
100
AcDbHatch
 10
0.0
 20
0.0
 30
0.0
210
0.0
220
0.0
230
1.0
  2
SOLID
 70
     1
 71
     1
 91
        1
 92
        3
 72
     0
 73
     1
 93
        3
 10
151.27478415007286
 20
269.94308520982599
 10
150.6081174834062
 20
265.94308520982599
 10
151.94145081673952
 20
265.94308520982599
 97
        1
330
23D
 75
     0
 76
     0
 98
        0
  0
POLYLINE
  5
243
102
{ACAD_REACTORS
330
242
102
}
100
AcDbEntity
  8
0
370
     0
  6
Continuous
 62
     5
100
AcDb2dPolyline
 66
     1
 10
0.0
 20
0.0
 30
0.0
 70
   129
  0
VERTEX
  5
244
100
AcDbEntity
  8
0
  6
Continuous
 62
     5
100
AcDbVertex
100
AcDb2dVertex
 10
151.274784
 20
290.105804
 30
0.0
  0
VERTEX
  5
245
100
AcDbEntity
  8
0
  6
Continuous
 62
     5
100
AcDbVertex
100
AcDb2dVertex
 10
151.941451
 20
294.105804
 30
0.0
  0
VERTEX
  5
246
100
AcDbEntity
  8
0
  6
Continuous
 62
     5
100
AcDbVertex
100
AcDb2dVertex
 10
150.608117
 20
294.105804
 30
0.0
  0
SEQEND
  5
247
100
AcDbEntity
  8
0
  6
Continuous
 62
     5
  0
HATCH
  5
242
100
AcDbEntity
  8
0
  6
Continuous
 62
     5
100
AcDbHatch
 10
0.0
 20
0.0
 30
0.0
210
0.0
220
0.0
230
1.0
  2
SOLID
 70
     1
 71
     1
 91
        1
 92
        3
 72
     0
 73
     1
 93
        3
 10
151.27478415007286
 20
290.10580404045959
 10
151.94145081673952
 20
294.10580404045959
 10
150.6081174834062
 20
294.10580404045959
 97
        1
330
243
 75
     0
 76
     0
 98
        0
  0
TEXT
  5
248
100
AcDbEntity
  8
0
  6
Continuous
 62
     5
100
AcDbText
 10
156.774784
 20
256.779196
 30
0.0
 40
10.797222
  1
20
 72
     5
 11
173.600921
 21
256.779196
 31
0.0
100
AcDbText
  0
ENDBLK
  5
249
100
AcDbEntity
  8
0
100
AcDbBlockEnd
  0
BLOCK
  5
24C
100
AcDbEntity
  8
0
100
AcDbBlockBegin
  2
*D16
 70
     1
 10
0.0
 20
0.0
 30
0.0
  3
*D16
  1

  0
LINE
  5
24D
100
AcDbEntity
  8
0
370
     0
  6
Continuous
 62
     5
100
AcDbLine
 10
-76.071946
 20
309.095071
 30
0.0
 11
-76.071946
 21
484.269393
 31
0.0
  0
LINE
  5
24E
100
AcDbEntity
  8
0
370
     0
  6
Continuous
 62
     5
100
AcDbLine
 10
76.045845
 20
309.247819
 30
0.0
 11
76.045845
 21
484.269393
 31
0.0
  0
POLYLINE
  5
24F
100
AcDbEntity
  8
0
370
     0
  6
Continuous
 62
     5
100
AcDb2dPolyline
 66
     1
 10
0.0
 20
0.0
 30
0.0
 70
   128
  0
VERTEX
  5
250
100
AcDbEntity
  8
0
  6
Continuous
 62
     5
100
AcDbVertex
100
AcDb2dVertex
 10
-72.071946
 20
481.269393
 30
0.0
  0
VERTEX
  5
251
100
AcDbEntity
  8
0
  6
Continuous
 62
     5
100
AcDbVertex
100
AcDb2dVertex
 10
-72.071946
 20
481.269393
 30
0.0
  0
VERTEX
  5
252
100
AcDbEntity
  8
0
  6
Continuous
 62
     5
100
AcDbVertex
100
AcDb2dVertex
 10
-72.071946
 20
481.269393
 30
0.0
  0
VERTEX
  5
253
100
AcDbEntity
  8
0
  6
Continuous
 62
     5
100
AcDbVertex
100
AcDb2dVertex
 10
-14.132653
 20
481.269393
 30
0.0
  0
SEQEND
  5
254
100
AcDbEntity
  8
0
  6
Continuous
 62
     5
  0
POLYLINE
  5
255
100
AcDbEntity
  8
0
370
     0
  6
Continuous
 62
     5
100
AcDb2dPolyline
 66
     1
 10
0.0
 20
0.0
 30
0.0
 70
   128
  0
VERTEX
  5
256
100
AcDbEntity
  8
0
  6
Continuous
 62
     5
100
AcDbVertex
100
AcDb2dVertex
 10
72.045845
 20
481.269393
 30
0.0
  0
VERTEX
  5
257
100
AcDbEntity
  8
0
  6
Continuous
 62
     5
100
AcDbVertex
100
AcDb2dVertex
 10
72.045845
 20
481.269393
 30
0.0
  0
VERTEX
  5
258
100
AcDbEntity
  8
0
  6
Continuous
 62
     5
100
AcDbVertex
100
AcDb2dVertex
 10
72.045845
 20
481.269393
 30
0.0
  0
VERTEX
  5
259
100
AcDbEntity
  8
0
  6
Continuous
 62
     5
100
AcDbVertex
100
AcDb2dVertex
 10
14.106552
 20
481.269393
 30
0.0
  0
SEQEND
  5
25A
100
AcDbEntity
  8
0
  6
Continuous
 62
     5
  0
POLYLINE
  5
25C
102
{ACAD_REACTORS
330
25B
102
}
100
AcDbEntity
  8
0
370
     0
  6
Continuous
 62
     5
100
AcDb2dPolyline
 66
     1
 10
0.0
 20
0.0
 30
0.0
 70
   129
  0
VERTEX
  5
25D
100
AcDbEntity
  8
0
  6
Continuous
 62
     5
100
AcDbVertex
100
AcDb2dVertex
 10
-76.071946
 20
481.269393
 30
0.0
  0
VERTEX
  5
25E
100
AcDbEntity
  8
0
  6
Continuous
 62
     5
100
AcDbVertex
100
AcDb2dVertex
 10
-72.071946
 20
480.602726
 30
0.0
  0
VERTEX
  5
25F
100
AcDbEntity
  8
0
  6
Continuous
 62
     5
100
AcDbVertex
100
AcDb2dVertex
 10
-72.071946
 20
481.93606
 30
0.0
  0
SEQEND
  5
260
100
AcDbEntity
  8
0
  6
Continuous
 62
     5
  0
HATCH
  5
25B
100
AcDbEntity
  8
0
  6
Continuous
 62
     5
100
AcDbHatch
 10
0.0
 20
0.0
 30
0.0
210
0.0
220
0.0
230
1.0
  2
SOLID
 70
     1
 71
     1
 91
        1
 92
        3
 72
     0
 73
     1
 93
        3
 10
-76.07194613859896
 20
481.26939298604088
 10
-72.07194613859896
 20
480.6027263193742
 10
-72.07194613859896
 20
481.93605965270757
 97
        1
330
25C
 75
     0
 76
     0
 98
        0
  0
POLYLINE
  5
262
102
{ACAD_REACTORS
330
261
102
}
100
AcDbEntity
  8
0
370
     0
  6
Continuous
 62
     5
100
AcDb2dPolyline
 66
     1
 10
0.0
 20
0.0
 30
0.0
 70
   129
  0
VERTEX
  5
263
100
AcDbEntity
  8
0
  6
Continuous
 62
     5
100
AcDbVertex
100
AcDb2dVertex
 10
76.045845
 20
481.269393
 30
0.0
  0
VERTEX
  5
264
100
AcDbEntity
  8
0
  6
Continuous
 62
     5
100
AcDbVertex
100
AcDb2dVertex
 10
72.045845
 20
481.93606
 30
0.0
  0
VERTEX
  5
265
100
AcDbEntity
  8
0
  6
Continuous
 62
     5
100
AcDbVertex
100
AcDb2dVertex
 10
72.045845
 20
480.602726
 30
0.0
  0
SEQEND
  5
266
100
AcDbEntity
  8
0
  6
Continuous
 62
     5
  0
HATCH
  5
261
100
AcDbEntity
  8
0
  6
Continuous
 62
     5
100
AcDbHatch
 10
0.0
 20
0.0
 30
0.0
210
0.0
220
0.0
230
1.0
  2
SOLID
 70
     1
 71
     1
 91
        1
 92
        3
 72
     0
 73
     1
 93
        3
 10
76.045845343469054
 20
481.26939298604088
 10
72.045845343469054
 20
481.93605965270757
 10
72.045845343469054
 20
480.6027263193742
 97
        1
330
262
 75
     0
 76
     0
 98
        0
  0
TEXT
  5
267
100
AcDbEntity
  8
0
  6
Continuous
 62
     5
100
AcDbText
 10
-12.632653
 20
476.105504
 30
0.0
 40
10.797222
  1
152
 72
     5
 11
12.606552
 21
476.105504
 31
0.0
100
AcDbText
  0
ENDBLK
  5
268
100
AcDbEntity
  8
0
100
AcDbBlockEnd
  0
BLOCK
  5
26B
100
AcDbEntity
  8
0
100
AcDbBlockBegin
  2
*D17
 70
     1
 10
0.0
 20
0.0
 30
0.0
  3
*D17
  1

  0
LINE
  5
26C
100
AcDbEntity
  8
0
370
     0
  6
Continuous
 62
     5
100
AcDbLine
 10
78.437983
 20
307.633869
 30
0.0
 11
416.838089
 21
307.633869
 31
0.0
  0
LINE
  5
26D
100
AcDbEntity
  8
0
370
     0
  6
Continuous
 62
     5
100
AcDbLine
 10
85.400002
 20
-0.267661
 30
0.0
 11
416.838089
 21
-0.267661
 31
0.0
  0
POLYLINE
  5
26E
100
AcDbEntity
  8
0
370
     0
  6
Continuous
 62
     5
100
AcDb2dPolyline
 66
     1
 10
0.0
 20
0.0
 30
0.0
 70
   128
  0
VERTEX
  5
26F
100
AcDbEntity
  8
0
  6
Continuous
 62
     5
100
AcDbVertex
100
AcDb2dVertex
 10
413.838089
 20
303.633869
 30
0.0
  0
VERTEX
  5
270
100
AcDbEntity
  8
0
  6
Continuous
 62
     5
100
AcDbVertex
100
AcDb2dVertex
 10
413.838089
 20
303.633869
 30
0.0
  0
VERTEX
  5
271
100
AcDbEntity
  8
0
  6
Continuous
 62
     5
100
AcDbVertex
100
AcDb2dVertex
 10
413.838089
 20
303.633869
 30
0.0
  0
VERTEX
  5
272
100
AcDbEntity
  8
0
  6
Continuous
 62
     5
100
AcDbVertex
100
AcDb2dVertex
 10
413.838089
 20
163.823104
 30
0.0
  0
SEQEND
  5
273
100
AcDbEntity
  8
0
  6
Continuous
 62
     5
  0
POLYLINE
  5
274
100
AcDbEntity
  8
0
370
     0
  6
Continuous
 62
     5
100
AcDb2dPolyline
 66
     1
 10
0.0
 20
0.0
 30
0.0
 70
   128
  0
VERTEX
  5
275
100
AcDbEntity
  8
0
  6
Continuous
 62
     5
100
AcDbVertex
100
AcDb2dVertex
 10
413.838089
 20
3.732339
 30
0.0
  0
VERTEX
  5
276
100
AcDbEntity
  8
0
  6
Continuous
 62
     5
100
AcDbVertex
100
AcDb2dVertex
 10
413.838089
 20
3.732339
 30
0.0
  0
VERTEX
  5
277
100
AcDbEntity
  8
0
  6
Continuous
 62
     5
100
AcDbVertex
100
AcDb2dVertex
 10
413.838089
 20
3.732339
 30
0.0
  0
VERTEX
  5
278
100
AcDbEntity
  8
0
  6
Continuous
 62
     5
100
AcDbVertex
100
AcDb2dVertex
 10
413.838089
 20
143.543104
 30
0.0
  0
SEQEND
  5
279
100
AcDbEntity
  8
0
  6
Continuous
 62
     5
  0
POLYLINE
  5
27B
102
{ACAD_REACTORS
330
27A
102
}
100
AcDbEntity
  8
0
370
     0
  6
Continuous
 62
     5
100
AcDb2dPolyline
 66
     1
 10
0.0
 20
0.0
 30
0.0
 70
   129
  0
VERTEX
  5
27C
100
AcDbEntity
  8
0
  6
Continuous
 62
     5
100
AcDbVertex
100
AcDb2dVertex
 10
413.838089
 20
307.633869
 30
0.0
  0
VERTEX
  5
27D
100
AcDbEntity
  8
0
  6
Continuous
 62
     5
100
AcDbVertex
100
AcDb2dVertex
 10
413.171422
 20
303.633869
 30
0.0
  0
VERTEX
  5
27E
100
AcDbEntity
  8
0
  6
Continuous
 62
     5
100
AcDbVertex
100
AcDb2dVertex
 10
414.504756
 20
303.633869
 30
0.0
  0
SEQEND
  5
27F
100
AcDbEntity
  8
0
  6
Continuous
 62
     5
  0
HATCH
  5
27A
100
AcDbEntity
  8
0
  6
Continuous
 62
     5
100
AcDbHatch
 10
0.0
 20
0.0
 30
0.0
210
0.0
220
0.0
230
1.0
  2
SOLID
 70
     1
 71
     1
 91
        1
 92
        3
 72
     0
 73
     1
 93
        3
 10
413.83808910688845
 20
307.63386865358052
 10
413.17142244022176
 20
303.63386865358052
 10
414.50475577355513
 20
303.63386865358052
 97
        1
330
27B
 75
     0
 76
     0
 98
        0
  0
POLYLINE
  5
281
102
{ACAD_REACTORS
330
280
102
}
100
AcDbEntity
  8
0
370
     0
  6
Continuous
 62
     5
100
AcDb2dPolyline
 66
     1
 10
0.0
 20
0.0
 30
0.0
 70
   129
  0
VERTEX
  5
282
100
AcDbEntity
  8
0
  6
Continuous
 62
     5
100
AcDbVertex
100
AcDb2dVertex
 10
413.838089
 20
-0.267661
 30
0.0
  0
VERTEX
  5
283
100
AcDbEntity
  8
0
  6
Continuous
 62
     5
100
AcDbVertex
100
AcDb2dVertex
 10
414.504756
 20
3.732339
 30
0.0
  0
VERTEX
  5
284
100
AcDbEntity
  8
0
  6
Continuous
 62
     5
100
AcDbVertex
100
AcDb2dVertex
 10
413.171422
 20
3.732339
 30
0.0
  0
SEQEND
  5
285
100
AcDbEntity
  8
0
  6
Continuous
 62
     5
  0
HATCH
  5
280
100
AcDbEntity
  8
0
  6
Continuous
 62
     5
100
AcDbHatch
 10
0.0
 20
0.0
 30
0.0
210
0.0
220
0.0
230
1.0
  2
SOLID
 70
     1
 71
     1
 91
        1
 92
        3
 72
     0
 73
     1
 93
        3
 10
413.83808910688845
 20
-0.2676612500063129
 10
414.50475577355513
 20
3.7323387499936871
 10
413.17142244022176
 20
3.7323387499936871
 97
        1
330
281
 75
     0
 76
     0
 98
        0
  0
TEXT
  5
286
100
AcDbEntity
  8
0
  6
Continuous
 62
     5
100
AcDbText
 10
394.910532
 20
148.519215
 30
0.0
 40
10.797222
  1
307,5
 72
     5
 11
432.765646
 21
148.519215
 31
0.0
100
AcDbText
  0
ENDBLK
  5
287
100
AcDbEntity
  8
0
100
AcDbBlockEnd
  0
ENDSEC
  0
SECTION
  2
ENTITIES
  0
LINE
  5
36
100
AcDbEntity
  8
0
370
     0
  6
Continuous
 62
     5
100
AcDbLine
 10
-0.0
 20
-28.198117
 30
0.0
 11
0.0
 21
404.66326
 31
0.0
  0
TEXT
  5
38
100
AcDbEntity
  8
0
  6
Continuous
 62
     5
100
AcDbText
 10
225.905017
 20
-39.610206
 30
0.0
 40
18.339952
  1
Csupasz-Árny I.
  7
_TCW_TXTSTY_1
 72
     5
 11
462.155963
 21
-39.610206
 31
0.0
100
AcDbText
1001
TCAD
1000
TCW40_TEXT
1002
{
1000
Times New Roman CE
1070
     0
1070
   257
1002
}
  0
TEXT
  5
39
100
AcDbEntity
  8
0
  6
Continuous
 62
     5
100
AcDbText
 10
226.588577
 20
-78.80221
 30
0.0
 40
6.485652
  1
SRY MODELL 2005
  7
_TCW_TXTSTY_1
 72
     5
 11
453.103062
 21
-78.80221
 31
0.0
100
AcDbText
1001
TCAD
1000
TCW40_TEXT
1002
{
1000
Times New Roman CE
1070
     0
1070
   257
1002
}
  0
DIMENSION
  5
58
100
AcDbEntity
  8
0
  6
Continuous
 62
     5
100
AcDbDimension
  2
*D1
 10
380.61295
 20
532.277224
 30
0.0
 11
0.436098
 21
532.277224
 31
0.0
 71
     5
 72
     1
 41
1.0
 42
0.0
  1
760
  3
STANDARD
100
AcDbAlignedDimension
 13
-379.740753
 23
502.883242
 33
0.0
 14
380.61295
 24
500.258779
 34
0.0
100
AcDbRotatedDimension
1001
ACAD
1000
DSTYLE
1002
{
1070
   176
1070
     5
1070
   177
1070
     5
1070
   178
1070
     5
1002
}
  0
DIMENSION
  5
77
100
AcDbEntity
  8
0
  6
Continuous
 62
     5
100
AcDbDimension
  2
*D2
 10
-493.996183
 20
0.013719
 30
0.0
 11
-493.996183
 21
250.095719
 31
0.0
 71
     5
 72
     1
 41
1.0
 42
0.0
  1
500
  3
STANDARD
100
AcDbAlignedDimension
 13
-387.403333
 23
500.177718
 33
0.0
 14
-1.744354
 24
0.013719
 34
0.0
 50
-90.0
100
AcDbRotatedDimension
1001
ACAD
1000
DSTYLE
1002
{
1070
   176
1070
     5
1070
   177
1070
     5
1070
   178
1070
     5
1002
}
  0
POLYLINE
  5
78
100
AcDbEntity
  8
0
370
     0
  6
Continuous
 62
     5
100
AcDb2dPolyline
 66
     1
 10
0.0
 20
0.0
 30
0.0
  0
VERTEX
  5
79
100
AcDbEntity
  8
0
  6
Continuous
 62
     5
100
AcDbVertex
100
AcDb2dVertex
 10
-114.658709
 20
424.811567
 30
0.0
  0
VERTEX
  5
7A
100
AcDbEntity
  8
0
  6
Continuous
 62
     5
100
AcDbVertex
100
AcDb2dVertex
 10
-94.658709
 20
424.811567
 30
0.0
  0
VERTEX
  5
7B
100
AcDbEntity
  8
0
  6
Continuous
 62
     5
100
AcDbVertex
100
AcDb2dVertex
 10
-104.658709
 20
424.811567
 30
0.0
  0
VERTEX
  5
7C
100
AcDbEntity
  8
0
  6
Continuous
 62
     5
100
AcDbVertex
100
AcDb2dVertex
 10
-104.658709
 20
434.811567
 30
0.0
  0
VERTEX
  5
7D
100
AcDbEntity
  8
0
  6
Continuous
 62
     5
100
AcDbVertex
100
AcDb2dVertex
 10
-104.658709
 20
414.811567
 30
0.0
  0
SEQEND
  5
7E
100
AcDbEntity
  8
0
  6
Continuous
 62
     5
  0
ARC
  5
7F
100
AcDbEntity
  8
0
370
     0
  6
Continuous
 62
     7
100
AcDbCircle
 10
-104.676664
 20
424.804252
 30
0.0
 40
100.305908
100
AcDbArc
 50
-66.142145
 51
-18.043581
  0
POLYLINE
  5
80
100
AcDbEntity
  8
0
370
     0
  6
Continuous
 62
     5
100
AcDb2dPolyline
 66
     1
 10
0.0
 20
0.0
 30
0.0
  0
VERTEX
  5
81
100
AcDbEntity
  8
0
  6
Continuous
 62
     5
100
AcDbVertex
100
AcDb2dVertex
 10
94.672704
 20
424.889445
 30
0.0
  0
VERTEX
  5
82
100
AcDbEntity
  8
0
  6
Continuous
 62
     5
100
AcDbVertex
100
AcDb2dVertex
 10
114.672704
 20
424.889445
 30
0.0
  0
VERTEX
  5
83
100
AcDbEntity
  8
0
  6
Continuous
 62
     5
100
AcDbVertex
100
AcDb2dVertex
 10
104.672704
 20
424.889445
 30
0.0
  0
VERTEX
  5
84
100
AcDbEntity
  8
0
  6
Continuous
 62
     5
100
AcDbVertex
100
AcDb2dVertex
 10
104.672704
 20
434.889445
 30
0.0
  0
VERTEX
  5
85
100
AcDbEntity
  8
0
  6
Continuous
 62
     5
100
AcDbVertex
100
AcDb2dVertex
 10
104.672704
 20
414.889445
 30
0.0
  0
SEQEND
  5
86
100
AcDbEntity
  8
0
  6
Continuous
 62
     5
  0
ARC
  5
87
100
AcDbEntity
  8
0
370
     0
  6
Continuous
 62
     7
100
AcDbCircle
 10
104.679267
 20
424.898664
 30
0.0
 40
100.344467
100
AcDbArc
 50
-161.560994
 51
-113.78992
  0
ARC
  5
88
100
AcDbEntity
  8
0
370
     0
  6
Continuous
 62
     7
100
AcDbCircle
 10
0.008982
 20
390.012444
 30
0.0
 40
9.996124
100
AcDbArc
 50
16.745751
 51
159.932909
  0
LINE
  5
89
100
AcDbEntity
  8
0
370
     0
  6
Continuous
 62
     7
100
AcDbLine
 10
-64.004062
 20
333.040167
 30
0.0
 11
-75.943028
 21
307.436972
 31
0.0
  0
POLYLINE
  5
8A
100
AcDbEntity
  8
0
370
     0
  6
Continuous
 62
     7
100
AcDb2dPolyline
 66
     1
 10
0.0
 20
0.0
 30
0.0
 70
     1
  0
VERTEX
  5
8B
100
AcDbEntity
  8
0
  6
Continuous
 62
     7
100
AcDbVertex
100
AcDb2dVertex
 10
0.0
 20
0.0
 30
0.0
  0
VERTEX
  5
8C
100
AcDbEntity
  8
0
  6
Continuous
 62
     7
100
AcDbVertex
100
AcDb2dVertex
 10
380.0
 20
319.0
 30
0.0
  0
VERTEX
  5
8D
100
AcDbEntity
  8
0
  6
Continuous
 62
     7
100
AcDbVertex
100
AcDb2dVertex
 10
380.0
 20
446.0
 30
0.0
  0
VERTEX
  5
8E
100
AcDbEntity
  8
0
  6
Continuous
 62
     7
100
AcDbVertex
100
AcDb2dVertex
 10
76.1
 20
307.6
 30
0.0
  0
VERTEX
  5
8F
100
AcDbEntity
  8
0
  6
Continuous
 62
     7
100
AcDbVertex
100
AcDb2dVertex
 10
64.0
 20
333.0
 30
0.0
  0
VERTEX
  5
90
100
AcDbEntity
  8
0
  6
Continuous
 62
     7
100
AcDbVertex
100
AcDb2dVertex
 10
63.923102
 20
333.242679
 30
0.0
  0
VERTEX
  5
91
100
AcDbEntity
  8
0
  6
Continuous
 62
     7
100
AcDbVertex
100
AcDb2dVertex
 10
62.380735
 20
333.850278
 30
0.0
  0
VERTEX
  5
92
100
AcDbEntity
  8
0
  6
Continuous
 62
     7
100
AcDbVertex
100
AcDb2dVertex
 10
61.118798
 20
334.504615
 30
0.0
  0
VERTEX
  5
93
100
AcDbEntity
  8
0
  6
Continuous
 62
     7
100
AcDbVertex
100
AcDb2dVertex
 10
58.735141
 20
335.766552
 30
0.0
  0
VERTEX
  5
94
100
AcDbEntity
  8
0
  6
Continuous
 62
     7
100
AcDbVertex
100
AcDb2dVertex
 10
57.052559
 20
336.561105
 30
0.0
  0
VERTEX
  5
95
100
AcDbEntity
  8
0
  6
Continuous
 62
     7
100
AcDbVertex
100
AcDb2dVertex
 10
54.294994
 20
338.15021
 30
0.0
  0
VERTEX
  5
96
100
AcDbEntity
  8
0
  6
Continuous
 62
     7
100
AcDbVertex
100
AcDb2dVertex
 10
51.397214
 20
339.87953
 30
0.0
  0
VERTEX
  5
97
100
AcDbEntity
  8
0
  6
Continuous
 62
     7
100
AcDbVertex
100
AcDb2dVertex
 10
49.667893
 20
341.001251
 30
0.0
  0
VERTEX
  5
98
100
AcDbEntity
  8
0
  6
Continuous
 62
     7
100
AcDbVertex
100
AcDb2dVertex
 10
47.646458
 20
342.286557
 30
0.0
  0
VERTEX
  5
99
100
AcDbEntity
  8
0
  6
Continuous
 62
     7
100
AcDbVertex
100
AcDb2dVertex
 10
46.197568
 20
343.408278
 30
0.0
  0
VERTEX
  5
9A
100
AcDbEntity
  8
0
  6
Continuous
 62
     7
100
AcDbVertex
100
AcDb2dVertex
 10
43.767172
 20
345.137599
 30
0.0
  0
VERTEX
  5
9B
100
AcDbEntity
  8
0
  6
Continuous
 62
     7
100
AcDbVertex
100
AcDb2dVertex
 10
40.91613
 20
347.42778
 30
0.0
  0
VERTEX
  5
9C
100
AcDbEntity
  8
0
  6
Continuous
 62
     7
100
AcDbVertex
100
AcDb2dVertex
 10
39.373763
 20
348.736455
 30
0.0
  0
VERTEX
  5
9D
100
AcDbEntity
  8
0
  6
Continuous
 62
     7
100
AcDbVertex
100
AcDb2dVertex
 10
35.027093
 20
352.592372
 30
0.0
  0
VERTEX
  5
9E
100
AcDbEntity
  8
0
  6
Continuous
 62
     7
100
AcDbVertex
100
AcDb2dVertex
 10
32.549959
 20
355.116245
 30
0.0
  0
VERTEX
  5
9F
100
AcDbEntity
  8
0
  6
Continuous
 62
     7
100
AcDbVertex
100
AcDb2dVertex
 10
30.166301
 20
357.640118
 30
0.0
  0
VERTEX
  5
A0
100
AcDbEntity
  8
0
  6
Continuous
 62
     7
100
AcDbVertex
100
AcDb2dVertex
 10
26.731029
 20
361.706358
 30
0.0
  0
VERTEX
  5
A1
100
AcDbEntity
  8
0
  6
Continuous
 62
     7
100
AcDbVertex
100
AcDb2dVertex
 10
24.440848
 20
364.697614
 30
0.0
  0
VERTEX
  5
A2
100
AcDbEntity
  8
0
  6
Continuous
 62
     7
100
AcDbVertex
100
AcDb2dVertex
 10
21.823498
 20
368.273101
 30
0.0
  0
VERTEX
  5
A3
100
AcDbEntity
  8
0
  6
Continuous
 62
     7
100
AcDbVertex
100
AcDb2dVertex
 10
18.843926
 20
372.876832
 30
0.0
  0
VERTEX
  5
A4
100
AcDbEntity
  8
0
  6
Continuous
 62
     7
100
AcDbVertex
100
AcDb2dVertex
 10
16.226576
 20
377.457195
 30
0.0
  0
VERTEX
  5
A5
100
AcDbEntity
  8
0
  6
Continuous
 62
     7
100
AcDbVertex
100
AcDb2dVertex
 10
14.123349
 20
381.710388
 30
0.0
  0
VERTEX
  5
A6
100
AcDbEntity
  8
0
  6
Continuous
 62
     7
100
AcDbVertex
100
AcDb2dVertex
 10
12.580982
 20
385.12229
 30
0.0
  0
VERTEX
  5
A7
100
AcDbEntity
  8
0
  6
Continuous
 62
     7
100
AcDbVertex
100
AcDb2dVertex
 10
11.085353
 20
388.721146
 30
0.0
  0
VERTEX
  5
A8
100
AcDbEntity
  8
0
  6
Continuous
 62
     7
100
AcDbVertex
100
AcDb2dVertex
 10
9.776679
 20
392.320002
 30
0.0
  0
VERTEX
  5
A9
100
AcDbEntity
  8
0
  6
Continuous
 62
     7
100
AcDbVertex
100
AcDb2dVertex
 10
9.320979
 20
393.605308
 30
0.0
  0
VERTEX
  5
AA
100
AcDbEntity
  8
0
  6
Continuous
 62
     7
100
AcDbVertex
100
AcDb2dVertex
 10
8.619903
 20
395.194413
 30
0.0
  0
VERTEX
  5
AB
100
AcDbEntity
  8
0
  6
Continuous
 62
     7
100
AcDbVertex
100
AcDb2dVertex
 10
7.685135
 20
396.456349
 30
0.0
  0
VERTEX
  5
AC
100
AcDbEntity
  8
0
  6
Continuous
 62
     7
100
AcDbVertex
100
AcDb2dVertex
 10
5.862338
 20
398.18567
 30
0.0
  0
VERTEX
  5
AD
100
AcDbEntity
  8
0
  6
Continuous
 62
     7
100
AcDbVertex
100
AcDb2dVertex
 10
4.039541
 20
399.167176
 30
0.0
  0
VERTEX
  5
AE
100
AcDbEntity
  8
0
  6
Continuous
 62
     7
100
AcDbVertex
100
AcDb2dVertex
 10
2.590651
 20
399.728037
 30
0.0
  0
VERTEX
  5
AF
100
AcDbEntity
  8
0
  6
Continuous
 62
     7
100
AcDbVertex
100
AcDb2dVertex
 10
0.861331
 20
400.008467
 30
0.0
  0
VERTEX
  5
B0
100
AcDbEntity
  8
0
  6
Continuous
 62
     7
100
AcDbVertex
100
AcDb2dVertex
 10
-0.634298
 20
400.008467
 30
0.0
  0
VERTEX
  5
B1
100
AcDbEntity
  8
0
  6
Continuous
 62
     7
100
AcDbVertex
100
AcDb2dVertex
 10
-1.989711
 20
399.821513
 30
0.0
  0
VERTEX
  5
B2
100
AcDbEntity
  8
0
  6
Continuous
 62
     7
100
AcDbVertex
100
AcDb2dVertex
 10
-3.485339
 20
399.447606
 30
0.0
  0
VERTEX
  5
B3
100
AcDbEntity
  8
0
  6
Continuous
 62
     7
100
AcDbVertex
100
AcDb2dVertex
 10
-4.642115
 20
398.886746
 30
0.0
  0
VERTEX
  5
B4
100
AcDbEntity
  8
0
  6
Continuous
 62
     7
100
AcDbVertex
100
AcDb2dVertex
 10
-5.717098
 20
398.232408
 30
0.0
  0
VERTEX
  5
B5
100
AcDbEntity
  8
0
  6
Continuous
 62
     7
100
AcDbVertex
100
AcDb2dVertex
 10
-7.212726
 20
396.970472
 30
0.0
  0
VERTEX
  5
B6
100
AcDbEntity
  8
0
  6
Continuous
 62
     7
100
AcDbVertex
100
AcDb2dVertex
 10
-8.147494
 20
395.802012
 30
0.0
  0
VERTEX
  5
B7
100
AcDbEntity
  8
0
  6
Continuous
 62
     7
100
AcDbVertex
100
AcDb2dVertex
 10
-8.755093
 20
394.820506
 30
0.0
  0
VERTEX
  5
B8
100
AcDbEntity
  8
0
  6
Continuous
 62
     7
100
AcDbVertex
100
AcDb2dVertex
 10
-9.549646
 20
393.137924
 30
0.0
  0
VERTEX
  5
B9
100
AcDbEntity
  8
0
  6
Continuous
 62
     7
100
AcDbVertex
100
AcDb2dVertex
 10
-11.138751
 20
388.6043
 30
0.0
  0
VERTEX
  5
BA
100
AcDbEntity
  8
0
  6
Continuous
 62
     7
100
AcDbVertex
100
AcDb2dVertex
 10
-12.821333
 20
384.514691
 30
0.0
  0
VERTEX
  5
BB
100
AcDbEntity
  8
0
  6
Continuous
 62
     7
100
AcDbVertex
100
AcDb2dVertex
 10
-14.130008
 20
381.710388
 30
0.0
  0
VERTEX
  5
BC
100
AcDbEntity
  8
0
  6
Continuous
 62
     7
100
AcDbVertex
100
AcDb2dVertex
 10
-15.859328
 20
378.205009
 30
0.0
  0
VERTEX
  5
BD
100
AcDbEntity
  8
0
  6
Continuous
 62
     7
100
AcDbVertex
100
AcDb2dVertex
 10
-17.810656
 20
374.629522
 30
0.0
  0
VERTEX
  5
BE
100
AcDbEntity
  8
0
  6
Continuous
 62
     7
100
AcDbVertex
100
AcDb2dVertex
 10
-19.4465
 20
371.918695
 30
0.0
  0
VERTEX
  5
BF
100
AcDbEntity
  8
0
  6
Continuous
 62
     7
100
AcDbVertex
100
AcDb2dVertex
 10
-21.876896
 20
368.179624
 30
0.0
  0
VERTEX
  5
C0
100
AcDbEntity
  8
0
  6
Continuous
 62
     7
100
AcDbVertex
100
AcDb2dVertex
 10
-24.435823
 20
364.650876
 30
0.0
  0
VERTEX
  5
C1
100
AcDbEntity
  8
0
  6
Continuous
 62
     7
100
AcDbVertex
100
AcDb2dVertex
 10
-26.726004
 20
361.612881
 30
0.0
  0
VERTEX
  5
C2
100
AcDbEntity
  8
0
  6
Continuous
 62
     7
100
AcDbVertex
100
AcDb2dVertex
 10
-29.109662
 20
358.855316
 30
0.0
  0
VERTEX
  5
C3
100
AcDbEntity
  8
0
  6
Continuous
 62
     7
100
AcDbVertex
100
AcDb2dVertex
 10
-31.960703
 20
355.677105
 30
0.0
  0
VERTEX
  5
C4
100
AcDbEntity
  8
0
  6
Continuous
 62
     7
100
AcDbVertex
100
AcDb2dVertex
 10
-34.344361
 20
353.293448
 30
0.0
  0
VERTEX
  5
C5
100
AcDbEntity
  8
0
  6
Continuous
 62
     7
100
AcDbVertex
100
AcDb2dVertex
 10
-37.826371
 20
350.02176
 30
0.0
  0
VERTEX
  5
C6
100
AcDbEntity
  8
0
  6
Continuous
 62
     7
100
AcDbVertex
100
AcDb2dVertex
 10
-40.630675
 20
347.638103
 30
0.0
  0
VERTEX
  5
C7
100
AcDbEntity
  8
0
  6
Continuous
 62
     7
100
AcDbVertex
100
AcDb2dVertex
 10
-43.434978
 20
345.39466
 30
0.0
  0
VERTEX
  5
C8
100
AcDbEntity
  8
0
  6
Continuous
 62
     7
100
AcDbVertex
100
AcDb2dVertex
 10
-46.56645
 20
343.05774
 30
0.0
  0
VERTEX
  5
C9
100
AcDbEntity
  8
0
  6
Continuous
 62
     7
100
AcDbVertex
100
AcDb2dVertex
 10
-51.754411
 20
339.575731
 30
0.0
  0
VERTEX
  5
CA
100
AcDbEntity
  8
0
  6
Continuous
 62
     7
100
AcDbVertex
100
AcDb2dVertex
 10
-56.334773
 20
336.911642
 30
0.0
  0
VERTEX
  5
CB
100
AcDbEntity
  8
0
  6
Continuous
 62
     7
100
AcDbVertex
100
AcDb2dVertex
 10
-60.821659
 20
334.574723
 30
0.0
  0
VERTEX
  5
CC
100
AcDbEntity
  8
0
  6
Continuous
 62
     7
100
AcDbVertex
100
AcDb2dVertex
 10
-63.953131
 20
333.172571
 30
0.0
  0
VERTEX
  5
CD
100
AcDbEntity
  8
0
  6
Continuous
 62
     7
100
AcDbVertex
100
AcDb2dVertex
 10
-63.999869
 20
333.020672
 30
0.0
  0
VERTEX
  5
CE
100
AcDbEntity
  8
0
  6
Continuous
 62
     7
100
AcDbVertex
100
AcDb2dVertex
 10
-64.0
 20
333.0
 30
0.0
  0
VERTEX
  5
CF
100
AcDbEntity
  8
0
  6
Continuous
 62
     7
100
AcDbVertex
100
AcDb2dVertex
 10
-76.1
 20
307.6
 30
0.0
  0
VERTEX
  5
D0
100
AcDbEntity
  8
0
  6
Continuous
 62
     7
100
AcDbVertex
100
AcDb2dVertex
 10
-380.0
 20
446.0
 30
0.0
  0
VERTEX
  5
D1
100
AcDbEntity
  8
0
  6
Continuous
 62
     7
100
AcDbVertex
100
AcDb2dVertex
 10
-380.0
 20
319.0
 30
0.0
  0
VERTEX
  5
D2
100
AcDbEntity
  8
0
  6
Continuous
 62
     7
100
AcDbVertex
100
AcDb2dVertex
 10
0.0
 20
0.0
 30
0.0
  0
SEQEND
  5
D3
100
AcDbEntity
  8
0
  6
Continuous
 62
     7
  0
POLYLINE
  5
D4
100
AcDbEntity
  8
0
370
     0
  6
Continuous
 62
     7
100
AcDb2dPolyline
 66
     1
 10
0.0
 20
0.0
 30
0.0
 70
     1
  0
VERTEX
  5
D5
100
AcDbEntity
  8
0
  6
Continuous
 62
     7
100
AcDbVertex
100
AcDb2dVertex
 10
-380.0
 20
446.0
 30
0.0
  0
VERTEX
  5
D6
100
AcDbEntity
  8
0
  6
Continuous
 62
     7
100
AcDbVertex
100
AcDb2dVertex
 10
-380.0
 20
500.0
 30
0.0
  0
VERTEX
  5
D7
100
AcDbEntity
  8
0
  6
Continuous
 62
     7
100
AcDbVertex
100
AcDb2dVertex
 10
-64.0
 20
333.0
 30
0.0
  0
VERTEX
  5
D8
100
AcDbEntity
  8
0
  6
Continuous
 62
     7
100
AcDbVertex
100
AcDb2dVertex
 10
-76.1
 20
307.6
 30
0.0
  0
SEQEND
  5
D9
100
AcDbEntity
  8
0
  6
Continuous
 62
     7
  0
POLYLINE
  5
DA
100
AcDbEntity
  8
0
370
     0
  6
Continuous
 62
     7
100
AcDb2dPolyline
 66
     1
 10
0.0
 20
0.0
 30
0.0
 70
     1
  0
VERTEX
  5
DB
100
AcDbEntity
  8
0
  6
Continuous
 62
     7
100
AcDbVertex
100
AcDb2dVertex
 10
380.0
 20
446.0
 30
0.0
  0
VERTEX
  5
DC
100
AcDbEntity
  8
0
  6
Continuous
 62
     7
100
AcDbVertex
100
AcDb2dVertex
 10
380.0
 20
500.0
 30
0.0
  0
VERTEX
  5
DD
100
AcDbEntity
  8
0
  6
Continuous
 62
     7
100
AcDbVertex
100
AcDb2dVertex
 10
64.0
 20
333.0
 30
0.0
  0
VERTEX
  5
DE
100
AcDbEntity
  8
0
  6
Continuous
 62
     7
100
AcDbVertex
100
AcDb2dVertex
 10
76.1
 20
307.6
 30
0.0
  0
SEQEND
  5
DF
100
AcDbEntity
  8
0
  6
Continuous
 62
     7
  0
DIMENSION
  5
FE
100
AcDbEntity
  8
0
  6
Continuous
 62
     5
100
AcDbDimension
  2
*D3
 10
-420.844676
 20
319.168652
 30
0.0
 11
-420.844676
 21
159.572705
 31
0.0
 71
     5
 72
     1
 41
1.0
 42
0.0
  1
319
  3
STANDARD
100
AcDbAlignedDimension
 13
-0.416343
 23
-0.023242
 33
0.0
 14
-376.075987
 24
319.168652
 34
0.0
 50
90.0
100
AcDbRotatedDimension
1001
ACAD
1000
DSTYLE
1002
{
1070
   176
1070
     5
1070
   177
1070
     5
1070
   178
1070
     5
1002
}
  0
DIMENSION
  5
11D
100
AcDbEntity
  8
0
  6
Continuous
 62
     5
100
AcDbDimension
  2
*D4
 10
-459.423051
 20
443.614146
 30
0.0
 11
-459.423051
 21
221.794317
 31
0.0
 71
     5
 72
     1
 41
1.0
 42
0.0
  1
446
  3
STANDARD
100
AcDbAlignedDimension
 13
-1.72451
 23
-0.025512
 33
0.0
 14
-379.555198
 24
443.614146
 34
0.0
 50
90.0
100
AcDbRotatedDimension
1001
ACAD
1000
DSTYLE
1002
{
1070
   176
1070
     5
1070
   177
1070
     5
1070
   178
1070
     5
1002
}
  0
DIMENSION
  5
132
100
AcDbEntity
  8
0
  6
Continuous
 62
     5
100
AcDbDimension
  2
*D5
 10
0.0
 20
0.0
 30
0.0
 11
0.0
 21
-103.745015
 31
0.0
 70
     2
 71
     5
 72
     1
 41
1.0
 42
0.0
  1
100°
  3
STANDARD
100
AcDb2LineAngularDimension
 13
-380.0
 23
319.0
 33
0.0
 14
0.0
 24
0.0
 34
0.0
 15
380.0
 25
319.0
 35
0.0
 16
5.335148
 26
-103.607743
 36
0.0
1001
ACAD
1000
DSTYLE
1002
{
1070
   176
1070
     5
1070
   177
1070
     5
1070
   178
1070
     5
1002
}
  0
DIMENSION
  5
151
100
AcDbEntity
  8
0
  6
Continuous
 62
     5
100
AcDbDimension
  2
*D6
 10
478.195015
 20
399.988391
 30
0.0
 11
478.195015
 21
200.022336
 31
0.0
 71
     5
 72
     1
 41
1.0
 42
0.0
  1
400
  3
STANDARD
100
AcDbAlignedDimension
 13
3.277014
 23
0.05628
 33
0.0
 14
1.69688
 24
399.988391
 34
0.0
 50
90.0
100
AcDbRotatedDimension
1001
ACAD
1000
DSTYLE
1002
{
1070
   176
1070
     5
1070
   177
1070
     5
1070
   178
1070
     5
1002
}
  0
ARC
  5
152
100
AcDbEntity
  8
0
370
     0
  6
Continuous
 62
     7
100
AcDbCircle
 10
-56.0
 20
280.0
 30
0.0
 40
10.0
100
AcDbArc
 50
90.000003
 51
269.999997
  0
ARC
  5
153
100
AcDbEntity
  8
0
370
     0
  6
Continuous
 62
     7
100
AcDbCircle
 10
56.0
 20
280.0
 30
0.0
 40
10.0
100
AcDbArc
 50
-90.000003
 51
90.000003
  0
LINE
  5
154
100
AcDbEntity
  8
0
370
     0
  6
Continuous
 62
     7
100
AcDbLine
 10
-56.0
 20
270.0
 30
0.0
 11
56.0
 21
270.0
 31
0.0
  0
LINE
  5
155
100
AcDbEntity
  8
0
370
     0
  6
Continuous
 62
     7
100
AcDbLine
 10
-56.0
 20
290.0
 30
0.0
 11
56.0
 21
290.0
 31
0.0
  0
DIMENSION
  5
174
100
AcDbEntity
  8
0
  6
Continuous
 62
     5
100
AcDbDimension
  2
*D7
 10
376.397201
 20
0.03719
 30
0.0
 11
376.397201
 21
135.085388
 31
0.0
 71
     5
 72
     1
 41
1.0
 42
0.0
  1
270
  3
STANDARD
100
AcDbAlignedDimension
 13
59.903648
 23
270.133586
 33
0.0
 14
1.553967
 24
0.03719
 34
0.0
 50
90.0
100
AcDbRotatedDimension
1001
ACAD
1000
DSTYLE
1002
{
1070
   176
1070
     5
1070
   177
1070
     5
1070
   178
1070
     5
1002
}
  0
DIMENSION
  5
193
100
AcDbEntity
  8
0
  6
Continuous
 62
     5
100
AcDbDimension
  2
*D8
 10
65.913104
 20
227.341889
 30
0.0
 11
-0.066339
 21
227.341889
 31
0.0
 71
     5
 72
     1
 41
1.0
 42
0.0
  1
132
  3
STANDARD
100
AcDbAlignedDimension
 13
-66.045782
 23
277.543639
 33
0.0
 14
65.913104
 24
277.304583
 34
0.0
100
AcDbRotatedDimension
1001
ACAD
1000
DSTYLE
1002
{
1070
   176
1070
     5
1070
   177
1070
     5
1070
   178
1070
     5
1002
}
  0
DIMENSION
  5
1AB
100
AcDbEntity
  8
0
  6
Continuous
 62
     5
100
AcDbDimension
  2
*D9
 10
-56.0
 20
280.0
 30
0.0
 11
-92.181152
 21
257.646496
 31
0.0
 70
     4
 71
     5
 72
     1
 41
1.0
 42
0.0
  1
R10
  3
STANDARD
100
AcDbRadialDimension
 15
-62.009319
 25
272.006998
 35
0.0
 40
17.966343
1001
ACAD
1000
DSTYLE
1002
{
1070
   176
1070
     5
1070
   177
1070
     5
1070
   178
1070
     5
1002
}
  0
DIMENSION
  5
1C3
100
AcDbEntity
  8
0
  6
Continuous
 62
     5
100
AcDbDimension
  2
*D10
 10
56.0
 20
280.0
 30
0.0
 11
91.985389
 21
256.424513
 31
0.0
 70
     4
 71
     5
 72
     1
 41
1.0
 42
0.0
  1
R10
  3
STANDARD
100
AcDbRadialDimension
 15
61.759559
 25
271.825192
 35
0.0
 40
18.839195
1001
ACAD
1000
DSTYLE
1002
{
1070
   176
1070
     5
1070
   177
1070
     5
1070
   178
1070
     5
1002
}
  0
DIMENSION
  5
1D4
100
AcDbEntity
  8
0
  6
Continuous
 62
     5
100
AcDbDimension
  2
*D11
 10
-104.676664
 20
424.804252
 30
0.0
 11
-157.486834
 21
445.831872
 31
0.0
 70
     4
 71
     5
 72
     1
 41
1.0
 42
0.0
  1
R100
  3
STANDARD
100
AcDbRadialDimension
 15
-23.252797
 25
366.225851
 35
0.0
 40
-136.31226
1001
ACAD
1000
DSTYLE
1002
{
1070
   176
1070
     5
1070
   177
1070
     5
1070
   178
1070
     5
1002
}
  0
DIMENSION
  5
1F3
100
AcDbEntity
  8
0
  6
Continuous
 62
     5
100
AcDbDimension
  2
*D12
 10
64.361706
 20
448.123083
 30
0.0
 11
0.207601
 21
448.123083
 31
0.0
 71
     5
 72
     1
 41
1.0
 42
0.0
  1
128
  3
STANDARD
100
AcDbAlignedDimension
 13
-63.946504
 23
333.256698
 33
0.0
 14
64.361706
 24
333.256698
 34
0.0
 50
180.0
100
AcDbRotatedDimension
1001
ACAD
1000
DSTYLE
1002
{
1070
   176
1070
     5
1070
   177
1070
     5
1070
   178
1070
     5
1002
}
  0
DIMENSION
  5
212
100
AcDbEntity
  8
0
  6
Continuous
 62
     5
100
AcDbDimension
  2
*D13
 10
449.780654
 20
0.037202
 30
0.0
 11
449.780654
 21
166.723316
 31
0.0
 71
     5
 72
     1
 41
1.0
 42
0.0
  1
333
  3
STANDARD
100
AcDbAlignedDimension
 13
63.885212
 23
333.409429
 33
0.0
 14
61.764889
 24
0.037202
 34
0.0
 50
-90.0
100
AcDbRotatedDimension
1001
ACAD
1000
DSTYLE
1002
{
1070
   176
1070
     5
1070
   177
1070
     5
1070
   178
1070
     5
1002
}
  0
DIMENSION
  5
22A
100
AcDbEntity
  8
0
  6
Continuous
 62
     5
100
AcDbDimension
  2
*D14
 10
0.008982
 20
390.012444
 30
0.0
 11
-37.650638
 21
422.996444
 31
0.0
 70
     4
 71
     5
 72
     1
 41
1.0
 42
0.0
  1
R10
  3
STANDARD
100
AcDbRadialDimension
 15
-4.837439
 25
398.755138
 35
0.0
 40
27.716754
1001
ACAD
1000
DSTYLE
1002
{
1070
   176
1070
     5
1070
   177
1070
     5
1070
   178
1070
     5
1002
}
  0
DIMENSION
  5
24A
100
AcDbEntity
  8
0
  6
Continuous
 62
     5
100
AcDbDimension
  2
*D15
 10
151.274784
 20
269.943085
 30
0.0
 11
165.187852
 21
261.943085
 31
0.0
 71
     5
 72
     1
 41
1.0
 42
0.0
  1
20
  3
STANDARD
100
AcDbAlignedDimension
 13
63.292011
 23
290.105804
 33
0.0
 14
62.070028
 24
269.943085
 34
0.0
 50
90.0
100
AcDbRotatedDimension
1001
ACAD
1000
DSTYLE
1002
{
1070
   176
1070
     5
1070
   177
1070
     5
1070
   178
1070
     5
1002
}
  0
DIMENSION
  5
269
100
AcDbEntity
  8
0
  6
Continuous
 62
     5
100
AcDbDimension
  2
*D16
 10
76.045845
 20
481.269393
 30
0.0
 11
-0.01305
 21
481.269393
 31
0.0
 71
     5
 72
     1
 41
1.0
 42
0.0
  1
152
  3
STANDARD
100
AcDbAlignedDimension
 13
-76.071946
 23
307.595071
 33
0.0
 14
76.045845
 24
307.747819
 34
0.0
100
AcDbRotatedDimension
1001
ACAD
1000
DSTYLE
1002
{
1070
   176
1070
     5
1070
   177
1070
     5
1070
   178
1070
     5
1002
}
  0
DIMENSION
  5
288
100
AcDbEntity
  8
0
  6
Continuous
 62
     5
100
AcDbDimension
  2
*D17
 10
413.838089
 20
-0.267661
 30
0.0
 11
413.838089
 21
153.683104
 31
0.0
 71
     5
 72
     1
 41
1.0
 42
0.0
  1
307,5
  3
STANDARD
100
AcDbAlignedDimension
 13
76.937983
 23
307.633869
 33
0.0
 14
83.900002
 24
-0.267661
 34
0.0
 50
-90.0
100
AcDbRotatedDimension
1001
ACAD
1000
DSTYLE
1002
{
1070
   176
1070
     5
1070
   177
1070
     5
1070
   178
1070
     5
1002
}
  0
TEXT
  5
289
100
AcDbEntity
  8
0
  6
Continuous
 62
     5
100
AcDbText
 10
15.20552
 20
130.555705
 30
0.0
 40
9.785007
  1
Anyaga #6mm depron
  7
_TCW_TXTSTY_1
 72
     5
 11
117.983599
 21
130.555705
 31
0.0
100
AcDbText
1001
TCAD
1000
TCW40_TEXT
1002
{
1000
Times New Roman CE
1070
     0
1070
   257
1002
}
  0
TEXT
  5
28A
100
AcDbEntity
  8
0
  6
Continuous
 62
     5
100
AcDbText
 10
226.007658
 20
-59.899161
 30
0.0
 40
10.038547
  1
Rajz: 1/3
  7
_TCW_TXTSTY_1
 72
     5
 11
328.857183
 21
-59.899161
 31
0.0
100
AcDbText
1001
TCAD
1000
TCW40_TEXT
1002
{
1000
Times New Roman CE
1070
     0
1070
   257
1002
}
  0
POLYLINE
  5
28B
100
AcDbEntity
  8
0
370
     0
  6
Continuous
 62
     5
100
AcDb2dPolyline
 66
     1
 10
0.0
 20
0.0
 30
0.0
 70
     1
  0
VERTEX
  5
28C
100
AcDbEntity
  8
0
  6
Continuous
 62
     5
100
AcDbVertex
100
AcDb2dVertex
 10
219.999221
 20
-15.16544
 30
0.0
  0
VERTEX
  5
28D
100
AcDbEntity
  8
0
  6
Continuous
 62
     5
100
AcDbVertex
100
AcDb2dVertex
 10
469.852091
 20
-15.16544
 30
0.0
  0
VERTEX
  5
28E
100
AcDbEntity
  8
0
  6
Continuous
 62
     5
100
AcDbVertex
100
AcDb2dVertex
 10
469.852091
 20
-82.985495
 30
0.0
  0
VERTEX
  5
28F
100
AcDbEntity
  8
0
  6
Continuous
 62
     5
100
AcDbVertex
100
AcDb2dVertex
 10
219.999221
 20
-82.985495
 30
0.0
  0
SEQEND
  5
290
100
AcDbEntity
  8
0
  6
Continuous
 62
     5
  0
TEXT
  5
291
100
AcDbEntity
  8
0
  6
Continuous
 62
     5
100
AcDbText
 10
387.674692
 20
-60.523839
 30
0.0
 40
10.038547
  1
M 1:1
  7
_TCW_TXTSTY_1
 72
     5
 11
456.001782
 21
-60.523839
 31
0.0
100
AcDbText
1001
TCAD
1000
TCW40_TEXT
1002
{
1000
Times New Roman CE
1070
     0
1070
   257
1002
}
  0
ENDSEC
  0
SECTION
  2
OBJECTS
  0
DICTIONARY
  5
19
100
AcDbDictionary
280
     0
281
     1
  3
ACAD_GROUP
350
1A
  3
ACAD_MLINESTYLE
350
1B
  3
ACAD_LAYOUT
350
1E
  3
ACAD_PLOTSETTINGS
350
22
  3
ACAD_PLOTSTYLENAME
350
1F
  3
ACAD_WIPEOUT_VARS
350
23
  0
DICTIONARY
  5
1A
102
{ACAD_REACTORS
330
19
102
}
100
AcDbDictionary
280
     0
281
     1
  0
DICTIONARY
  5
1B
102
{ACAD_REACTORS
330
19
102
}
100
AcDbDictionary
280
     0
281
     1
  3
Standard
350
1C
  0
MLINESTYLE
  5
1C
100
AcDbMlineStyle
  2
STANDARD
 70
     0
  3

 62
   256
 51
90.0
 52
90.0
 71
     3
 49
5.0
 62
     7
  6
Continuous
 49
0.0
 62
     7
  6
Continuous
 49
-5.0
 62
     7
  6
Continuous
  0
ACDBDICTIONARYWDFLT
  5
1F
102
{ACAD_REACTORS
330
19
102
}
100
AcDbDictionary
281
     1
  3
Normal
350
1D
100
AcDbDictionaryWithDefault
340
1D
  0
ACDBPLACEHOLDER
  5
1D
102
{ACAD_REACTORS
330
1F
102
}
  0
LAYOUT
  5
20
102
{ACAD_REACTORS
330
1E
102
}
100
AcDbPlotSettings
  1

  2

  4

  6

 40
0.0
 41
0.0
 42
0.0
 43
0.0
 44
0.0
 45
0.0
 46
0.0
 47
0.0
 48
0.0
 49
0.0
140
0.0
141
0.0
142
1.0
143
1.0
 70
  1024
 72
     0
 73
     0
 74
     0
  7

 75
     0
147
1.0
148
0.0
149
0.0
100
AcDbLayout
  1
Model
 70
     0
 71
     0
 10
0.0
 20
0.0
 11
0.0
 21
0.0
 12
0.0
 22
0.0
 32
0.0
 14
0.0
 24
0.0
 34
0.0
 15
0.0
 25
0.0
 35
0.0
146
0.0
 13
0.0
 23
0.0
 33
0.0
 16
0.0
 26
0.0
 36
0.0
 17
0.0
 27
0.0
 37
0.0
 76
     0
330
A
331
0
345
0
346
0
  0
LAYOUT
  5
21
102
{ACAD_REACTORS
330
1E
102
}
100
AcDbPlotSettings
  1

  2

  4

  6

 40
0.0
 41
0.0
 42
0.0
 43
0.0
 44
0.0
 45
0.0
 46
0.0
 47
0.0
 48
0.0
 49
0.0
140
0.0
141
0.0
142
1.0
143
1.0
 70
     0
 72
     0
 73
     0
 74
     0
  7

 75
     0
147
1.0
148
0.0
149
0.0
100
AcDbLayout
  1
Layout1
 70
     0
 71
     0
 10
0.0
 20
0.0
 11
0.0
 21
0.0
 12
0.0
 22
0.0
 32
0.0
 14
0.0
 24
0.0
 34
0.0
 15
0.0
 25
0.0
 35
0.0
146
0.0
 13
0.0
 23
0.0
 33
0.0
 16
0.0
 26
0.0
 36
0.0
 17
0.0
 27
0.0
 37
0.0
 76
     0
330
B
331
0
345
0
346
0
  0
DICTIONARY
  5
1E
102
{ACAD_REACTORS
330
19
102
}
100
AcDbDictionary
280
     0
281
     1
  3
Layout1
350
21
  3
Model
350
20
  0
DICTIONARY
  5
22
102
{ACAD_REACTORS
330
19
102
}
100
AcDbDictionary
280
     0
281
     1
  0
WIPEOUTVARIABLES
  5
23
100
AcDbWipeoutVariables
 70
     1
  0
ENDSEC
  0
EOF
