  0
SECTION
  2
HEADER
  9
$ACADVER
  1
AC1015
  9
$ACADMAINTVER
 70
     6
  9
$DWGCODEPAGE
  3
ANSI_1250
  9
$INSBASE
 10
0.0
 20
0.0
 30
0.0
  9
$EXTMIN
 10
-435.94519
 20
-82.985497
 30
0.0
  9
$EXTMAX
 10
591.040466
 20
505.469086
 30
0.0
  9
$LIMMIN
 10
-664.947338
 20
-313.754653
  9
$LIMMAX
 10
820.042614
 20
736.238242
  9
$ORTHOMODE
 70
     0
  9
$REGENMODE
 70
     1
  9
$FILLMODE
 70
     1
  9
$QTEXTMODE
 70
     0
  9
$MIRRTEXT
 70
     1
  9
$LTSCALE
 40
1.0
  9
$ATTMODE
 70
     0
  9
$TEXTSIZE
 40
5.044092
  9
$TRACEWID
 40
1.0
  9
$TEXTSTYLE
  7
STANDARD
  9
$CLAYER
  8
0
  9
$CELTYPE
  6
Continuous
  9
$CECOLOR
 62
     7
  9
$CELTSCALE
 40
1.0
  9
$DISPSILH
 70
     0
  9
$DIMSCALE
 40
1.0
  9
$DIMASZ
 40
4.0
  9
$DIMEXO
 40
1.5
  9
$DIMDLI
 40
10.0
  9
$DIMRND
 40
0.1
  9
$DIMDLE
 40
0.0
  9
$DIMEXE
 40
3.0
  9
$DIMTP
 40
0.0
  9
$DIMTM
 40
0.0
  9
$DIMTXT
 40
10.797222
  9
$DIMCEN
 40
0.09
  9
$DIMTSZ
 40
0.0
  9
$DIMTOL
 70
     0
  9
$DIMLIM
 70
     0
  9
$DIMTIH
 70
     1
  9
$DIMTOH
 70
     1
  9
$DIMSE1
 70
     0
  9
$DIMSE2
 70
     0
  9
$DIMTAD
 70
     0
  9
$DIMZIN
 70
     8
  9
$DIMBLK
  1
TC_DIMARROW_FILLED30
  9
$DIMASO
 70
     1
  9
$DIMSHO
 70
     1
  9
$DIMPOST
  1

  9
$DIMAPOST
  1

  9
$DIMALT
 70
     0
  9
$DIMALTD
 70
     2
  9
$DIMALTF
 40
25.4
  9
$DIMLFAC
 40
1.0
  9
$DIMTOFL
 70
     1
  9
$DIMTVP
 40
0.0
  9
$DIMTIX
 70
     0
  9
$DIMSOXD
 70
     0
  9
$DIMSAH
 70
     0
  9
$DIMBLK1
  1

  9
$DIMBLK2
  1

  9
$DIMSTYLE
  2
STANDARD
  9
$DIMCLRD
 70
     7
  9
$DIMCLRE
 70
     7
  9
$DIMCLRT
 70
     7
  9
$DIMTFAC
 40
1.0
  9
$DIMGAP
 40
1.5
  9
$DIMJUST
 70
     0
  9
$DIMSD1
 70
     0
  9
$DIMSD2
 70
     0
  9
$DIMTOLJ
 70
     1
  9
$DIMTZIN
 70
     0
  9
$DIMALTZ
 70
     0
  9
$DIMALTTZ
 70
     0
  9
$DIMUPT
 70
     0
  9
$DIMDEC
 70
     4
  9
$DIMTDEC
 70
     4
  9
$DIMALTU
 70
     2
  9
$DIMALTTD
 70
     2
  9
$DIMTXSTY
  7
STANDARD
  9
$DIMAUNIT
 70
     0
  9
$DIMADEC
 70
     0
  9
$DIMALTRND
 40
0.0
  9
$DIMAZIN
 70
     0
  9
$DIMDSEP
 70
     0
  9
$DIMATFIT
 70
     0
  9
$DIMFRAC
 70
     0
  9
$DIMLDRBLK
  1

  9
$DIMLUNIT
 70
     2
  9
$DIMLWD
 70
     0
  9
$DIMLWE
 70
     0
  9
$DIMTMOVE
 70
     0
  9
$LUNITS
 70
     2
  9
$LUPREC
 70
     1
  9
$SKETCHINC
 40
1.0
  9
$FILLETRAD
 40
1.0
  9
$AUNITS
 70
     0
  9
$AUPREC
 70
     2
  9
$MENU
  1
acad
  9
$ELEVATION
 40
0.0
  9
$PELEVATION
 40
0.0
  9
$THICKNESS
 40
0.0
  9
$LIMCHECK
 70
     0
  9
$CHAMFERA
 40
0.0
  9
$CHAMFERB
 40
0.0
  9
$CHAMFERC
 40
0.0
  9
$CHAMFERD
 40
0.0
  9
$SKPOLY
 70
     0
  9
$TDCREATE
 40
0.000000000
  9
$TDUCREATE
 40
0.000000000
  9
$TDUPDATE
 40
2449702.667959363
  9
$TDUUPDATE
 40
0.000000000
  9
$TDINDWG
 40
0.0000000000
  9
$TDUSRTIMER
 40
0.0000000000
  9
$USRTIMER
 70
     1
  9
$ANGBASE
 50
0.0
  9
$ANGDIR
 70
     0
  9
$PDMODE
 70
     0
  9
$PDSIZE
 40
0.0
  9
$PLINEWID
 40
0.0
  9
$SPLFRAME
 70
     0
  9
$SPLINETYPE
 70
     6
  9
$SPLINESEGS
 70
    20
  9
$HANDSEED
  5
4FC
  9
$SURFTAB1
 70
     6
  9
$SURFTAB2
 70
     6
  9
$SURFTYPE
 70
     6
  9
$SURFU
 70
     6
  9
$SURFV
 70
     6
  9
$UCSBASE
  2

  9
$UCSNAME
  2

  9
$UCSORG
 10
0.0
 20
0.0
 30
0.0
  9
$UCSXDIR
 10
1.0
 20
0.0
 30
0.0
  9
$UCSYDIR
 10
0.0
 20
1.0
 30
0.0
  9
$UCSORTHOREF
  2

  9
$UCSORTHOVIEW
 70
     0
  9
$UCSORGTOP
 10
0.0
 20
0.0
 30
0.0
  9
$UCSORGBOTTOM
 10
0.0
 20
0.0
 30
0.0
  9
$UCSORGLEFT
 10
0.0
 20
0.0
 30
0.0
  9
$UCSORGRIGHT
 10
0.0
 20
0.0
 30
0.0
  9
$UCSORGFRONT
 10
0.0
 20
0.0
 30
0.0
  9
$UCSORGBACK
 10
0.0
 20
0.0
 30
0.0
  9
$PUCSBASE
  2

  9
$PUCSNAME
  2

  9
$PUCSORG
 10
0.0
 20
0.0
 30
0.0
  9
$PUCSXDIR
 10
1.0
 20
0.0
 30
0.0
  9
$PUCSYDIR
 10
0.0
 20
1.0
 30
0.0
  9
$PUCSORTHOREF
  2

  9
$PUCSORTHOVIEW
 70
     0
  9
$PUCSORGTOP
 10
0.0
 20
0.0
 30
0.0
  9
$PUCSORGBOTTOM
 10
0.0
 20
0.0
 30
0.0
  9
$PUCSORGLEFT
 10
0.0
 20
0.0
 30
0.0
  9
$PUCSORGRIGHT
 10
0.0
 20
0.0
 30
0.0
  9
$PUCSORGFRONT
 10
0.0
 20
0.0
 30
0.0
  9
$PUCSORGBACK
 10
0.0
 20
0.0
 30
0.0
  9
$USERI1
 70
     0
  9
$USERI2
 70
     0
  9
$USERI3
 70
     0
  9
$USERI4
 70
     0
  9
$USERI5
 70
     0
  9
$USERR1
 40
0.0
  9
$USERR2
 40
0.0
  9
$USERR3
 40
0.0
  9
$USERR4
 40
0.0
  9
$USERR5
 40
0.0
  9
$WORLDVIEW
 70
     1
  9
$SHADEDGE
 70
     3
  9
$SHADEDIF
 70
    70
  9
$TILEMODE
 70
     1
  9
$MAXACTVP
 70
    16
  9
$PINSBASE
 10
0.0
 20
0.0
 30
0.0
  9
$PLIMCHECK
 70
     0
  9
$PEXTMIN
 10
0.0
 20
0.0
 30
0.0
  9
$PEXTMAX
 10
297.0
 20
210.0
 30
0.0
  9
$PLIMMIN
 10
0.0
 20
0.0
  9
$PLIMMAX
 10
297.0
 20
210.0
  9
$UNITMODE
 70
     0
  9
$VISRETAIN
 70
     0
  9
$PLINEGEN
 70
     1
  9
$PSLTSCALE
 70
     1
  9
$TREEDEPTH
 70
  3020
  9
$CMLSTYLE
  2
STANDARD
  9
$CMLJUST
 70
     0
  9
$CMLSCALE
 40
1.0
  9
$PROXYGRAPHICS
 70
     0
  9
$MEASUREMENT
 70
     0
  9
$CELWEIGHT
370
     0
  9
$ENDCAPS
280
     0
  9
$JOINSTYLE
280
     0
  9
$LWDISPLAY
290
     0
  9
$INSUNITS
 70
     0
  9
$HYPERLINKBASE
  1

  9
$XEDIT
290
     1
  9
$CEPSNTYPE
380
     0
  9
$PSTYLEMODE
290
     1
  9
$FINGERPRINTGUID
  2

  9
$VERSIONGUID
  2

  9
$EXTNAMES
290
     1
  9
$PSVPSCALE
 40
0.0
  0
ENDSEC
  0
SECTION
  2
CLASSES
  0
CLASS
  1
LWPOLYLINE
  2
AcDbPolyline
  3
"AutoCAD"
 90
        0
280
     0
281
     1
  0
CLASS
  1
IMAGE
  2
AcDbRasterImage
  3
ISM
 90
      127
280
     0
281
     1
  0
CLASS
  1
OLE2FRAME
  2
AcDbOle2Frame
  3
""
 90
        0
280
     0
281
     1
  0
CLASS
  1
HATCH
  2
AcDbHatch
  3
"ACAD_SEDONA"
 90
        0
280
     0
281
     1
  0
CLASS
  1
DICTIONARYVAR
  2
AcDbDictionaryVar
  3
"AutoCAD"
 90
        0
280
     0
281
     0
  0
CLASS
  1
RASTERVARIABLES
  2
AcDbRasterVariables
  3
ISM
 90
        0
280
     0
281
     0
  0
CLASS
  1
IMAGEDEF
  2
AcDbRasterImageDef
  3
ISM
 90
        0
280
     0
281
     0
  0
CLASS
  1
IMAGEDEF_REACTOR
  2
AcDbRasterImageDefReactor
  3
ISM
 90
        1
280
     0
281
     0
  0
CLASS
  1
IDBUFFER
  2
AcDbIdBuffer
  3
"Acad"
 90
        0
280
     0
281
     0
  0
CLASS
  1
SPATIAL_FILTER
  2
AcDbSpatialFilter
  3
"Acad"
 90
        0
280
     0
281
     0
  0
CLASS
  1
XRECORD
  2
AcDbXrecord
  3
"<Built In>"
 90
        0
280
     0
281
     0
  0
CLASS
  1
SORTENTSTABLE
  2
AcDbSortentsTable
  3
"AutoCAD"
 90
        0
280
     0
281
     0
  0
CLASS
  1
LAYER_INDEX
  2
AcDbLayerIndex
  3
"Acad"
 90
        0
280
     0
281
     0
  0
CLASS
  1
SPATIAL_INDEX
  2
AcDbSpatialIndex
  3
"Acad"
 90
        0
280
     0
281
     0
  0
CLASS
  1
OBJECT_PTR
  2
CAseDLPNTableRecord
  3
"ASE-LPNTableRecord"
 90
        1
280
     0
281
     0
  0
CLASS
  1
LAYOUT
  2
AcDbLayout
  3
"AutoCAD 2000"
 90
        1
280
     0
281
     0
  0
CLASS
  1
PLOTSETTINGS
  2
AcDbPlotSettings
  3
"AutoCAD 2000"
 90
        1
280
     0
281
     0
  0
CLASS
  1
ACDBDICTIONARYWDFLT
  2
AcDbDictionaryWithDefault
  3
"AutoCAD 2000"
 90
        1
280
     0
281
     0
  0
CLASS
  1
ACDBPLACEHOLDER
  2
AcDbPlaceHolder
  3
"AutoCAD 2000"
 90
        1
280
     0
281
     0
  0
CLASS
  1
VBA_PROJECT
  2
AcDbVbaProject
  3
"acadvba"
 90
        1
280
     0
281
     0
  0
CLASS
  1
WIPEOUT
  2
AcDbWipeout
  3
WipeOut|AutoCAD Express Tool|expresstools@autodesk.com
 90
      127
280
     0
281
     1
  0
CLASS
  1
WIPEOUTVARIABLES
  2
AcDbWipeoutVariables
  3
WipeOut|AutoCAD Express Tool|expresstools@autodesk.com
 90
        0
280
     0
281
     0
  0
CLASS
  1
RTEXT
  2
RText
  3
RText|AutoCAD Express Tool|expresstools@autodesk.com
 90
        0
280
     0
281
     1
  0
CLASS
  1
ARCALIGNEDTEXT
  2
AcDbArcAlignedText
  3
ATEXT|AutoCAD Express Tool|expresstools@autodesk.com
 90
        0
280
     0
281
     1
  0
ENDSEC
  0
SECTION
  2
TABLES
  0
TABLE
  2
VPORT
  5
7
100
AcDbSymbolTable
 70
     1
  0
VPORT
  5
15
100
AcDbSymbolTableRecord
100
AcDbViewportTableRecord
  2
*ACTIVE
 70
     0
 10
0.0
 20
0.0
 11
1.0
 21
1.0
 12
0.0
 22
0.0
 13
0.0
 23
0.0
 14
5.0
 24
5.0
 15
5.0
 25
5.0
 16
0.0
 26
0.0
 36
1.0
 17
77.547593
 27
211.241792
 37
1.0
 40
600.223694
 41
1.95723
 42
50.0
 43
0.0
 44
0.0
 50
0.0
 51
0.0
 71
     0
 72
   100
 73
     1
 74
     1
 75
     0
 76
     1
 77
     0
 78
     0
281
     0
 65
     0
110
0.0
120
0.0
130
0.0
111
1.0
121
0.0
131
0.0
112
0.0
122
1.0
132
0.0
345
0
346
0
 79
     0
146
0.0
  0
ENDTAB
  0
TABLE
  2
LTYPE
  5
4
100
AcDbSymbolTable
 70
    15
  0
LTYPE
  5
11
100
AcDbSymbolTableRecord
100
AcDbLinetypeTableRecord
  2
ByBlock
 70
    64
  3

 72
    65
 73
     0
 40
0.0
  0
LTYPE
  5
12
100
AcDbSymbolTableRecord
100
AcDbLinetypeTableRecord
  2
ByLayer
 70
    64
  3

 72
    65
 73
     0
 40
0.0
  0
LTYPE
  5
13
100
AcDbSymbolTableRecord
100
AcDbLinetypeTableRecord
  2
Continuous
 70
    64
  3
Solid line
 72
    65
 73
     0
 40
0.0
  0
LTYPE
  5
25
100
AcDbSymbolTableRecord
100
AcDbLinetypeTableRecord
  2
BORDER
 70
     0
  3
BORDER
 72
    65
 73
     6
 40
1.75
 49
0.5
 74
     0
 49
-0.25
 74
     0
 49
0.5
 74
     0
 49
-0.25
 74
     0
 49
0.0
 74
     0
 49
-0.25
 74
     0
  0
LTYPE
  5
26
100
AcDbSymbolTableRecord
100
AcDbLinetypeTableRecord
  2
CENTER
 70
     0
  3
CENTER
 72
    65
 73
     4
 40
2.0
 49
1.25
 74
     0
 49
-0.25
 74
     0
 49
0.25
 74
     0
 49
-0.25
 74
     0
  0
LTYPE
  5
27
100
AcDbSymbolTableRecord
100
AcDbLinetypeTableRecord
  2
DASHDOT
 70
     0
  3
DASHDOT
 72
    65
 73
     4
 40
1.0
 49
0.5
 74
     0
 49
-0.25
 74
     0
 49
0.0
 74
     0
 49
-0.25
 74
     0
  0
LTYPE
  5
28
100
AcDbSymbolTableRecord
100
AcDbLinetypeTableRecord
  2
DASHED
 70
     0
  3
DASHED
 72
    65
 73
     2
 40
0.75
 49
0.5
 74
     0
 49
-0.25
 74
     0
  0
LTYPE
  5
29
100
AcDbSymbolTableRecord
100
AcDbLinetypeTableRecord
  2
DIVIDE
 70
     0
  3
DIVIDE
 72
    65
 73
     6
 40
1.25
 49
0.5
 74
     0
 49
-0.25
 74
     0
 49
0.0
 74
     0
 49
-0.25
 74
     0
 49
0.0
 74
     0
 49
-0.25
 74
     0
  0
LTYPE
  5
2A
100
AcDbSymbolTableRecord
100
AcDbLinetypeTableRecord
  2
DOT
 70
     0
  3
DOT
 72
    65
 73
     2
 40
0.25
 49
0.0
 74
     0
 49
-0.25
 74
     0
  0
LTYPE
  5
2B
100
AcDbSymbolTableRecord
100
AcDbLinetypeTableRecord
  2
HIDDEN
 70
     0
  3
HIDDEN
 72
    65
 73
     2
 40
0.375
 49
0.25
 74
     0
 49
-0.125
 74
     0
  0
LTYPE
  5
2C
100
AcDbSymbolTableRecord
100
AcDbLinetypeTableRecord
  2
PHANTOM
 70
     0
  3
PHANTOM
 72
    65
 73
     6
 40
2.5
 49
1.25
 74
     0
 49
-0.25
 74
     0
 49
0.25
 74
     0
 49
-0.25
 74
     0
 49
0.25
 74
     0
 49
-0.25
 74
     0
  0
LTYPE
  5
2D
100
AcDbSymbolTableRecord
100
AcDbLinetypeTableRecord
  2
$INVISIBLE
 70
     0
  3
$INVISIBLE
 72
    65
 73
     2
 40
200.0
 49
-100.0
 74
     0
 49
-100.0
 74
     0
  0
LTYPE
  5
2E
100
AcDbSymbolTableRecord
100
AcDbLinetypeTableRecord
  2
$AUXILIARY
 70
     0
  3
$AUXILIARY
 72
    65
 73
     2
 40
0.1
 49
0.05
 74
     0
 49
-0.05
 74
     0
  0
LTYPE
  5
2F
100
AcDbSymbolTableRecord
100
AcDbLinetypeTableRecord
  2
$CONSTRUCTION
 70
     0
  3
$CONSTRUCTION
 72
    65
 73
     4
 40
0.3
 49
0.2
 74
     0
 49
-0.05
 74
     0
 49
0.0
 74
     0
 49
-0.05
 74
     0
  0
LTYPE
  5
30
100
AcDbSymbolTableRecord
100
AcDbLinetypeTableRecord
  2
$SNAPEXT
 70
     0
  3
$SNAPEXT
 72
    65
 73
     2
 40
0.04
 49
0.02
 74
     0
 49
-0.02
 74
     0
  0
ENDTAB
  0
TABLE
  2
LAYER
  5
2
100
AcDbSymbolTable
 70
     1
  0
LAYER
  5
14
100
AcDbSymbolTableRecord
100
AcDbLayerTableRecord
  2
0
 70
     0
 62
     7
  6
Continuous
290
     1
370
    -3
390
1F
1001
TCAD
1000
TCW_LAYER_ORDER
1002
{
1071
        0
1002
}
  0
ENDTAB
  0
TABLE
  2
STYLE
  5
3
100
AcDbSymbolTable
 70
     2
  0
STYLE
  5
17
100
AcDbSymbolTableRecord
100
AcDbTextStyleTableRecord
  2
STANDARD
 70
     0
 40
0.0
 41
1.0
 50
0.0
 71
     0
 42
3.222614
  3
ARIAL.TTF
  4

1001
ACAD
1000
Arial
1071
       34
  0
STYLE
  5
37
100
AcDbSymbolTableRecord
100
AcDbTextStyleTableRecord
  2
_TCW_TXTSTY_1
 70
     0
 40
0.0
 41
1.0
 50
0.0
 71
     0
 42
18.339952
  3

  4

1001
ACAD
1000
Times New Roman CE
1071
    60962
  0
ENDTAB
  0
TABLE
  2
VIEW
  5
5
100
AcDbSymbolTable
 70
     1
  0
VIEW
  5
31
100
AcDbSymbolTableRecord
100
AcDbViewTableRecord
  2
View_0
 70
     0
 40
210.0
 10
148.5
 20
105.0
 41
297.0
 11
0.0
 21
0.0
 31
1.0
 12
0.0
 22
0.0
 32
0.0
 42
50.0
 43
0.0
 44
0.0
 50
0.0
 71
     0
281
     0
 72
     0
110
0.0
120
0.0
130
0.0
111
1.0
121
0.0
131
0.0
112
0.0
122
1.0
132
0.0
  0
ENDTAB
  0
TABLE
  2
UCS
  5
6
100
AcDbSymbolTable
 70
     0
  0
ENDTAB
  0
TABLE
  2
APPID
  5
8
100
AcDbSymbolTable
 70
     2
  0
APPID
  5
16
100
AcDbSymbolTableRecord
100
AcDbRegAppTableRecord
  2
ACAD
 70
     0
  0
APPID
  5
24
100
AcDbSymbolTableRecord
100
AcDbRegAppTableRecord
  2
TCAD
 70
     0
  0
ENDTAB
  0
TABLE
  2
DIMSTYLE
  5
9
100
AcDbSymbolTable
 70
     1
100
AcDbDimStyleTable
 71
     0
  0
DIMSTYLE
105
18
100
AcDbSymbolTableRecord
100
AcDbDimStyleTableRecord
  2
STANDARD
 70
     0
  3

  4

 40
1.0
 41
4.0
 42
1.5
 43
10.0
 44
3.0
 45
0.1
 46
0.0
 47
0.0
 48
0.0
 71
     0
 72
     0
 73
     1
 74
     1
 75
     0
 76
     0
 77
     0
 78
     8
 79
     0
140
10.797222
141
0.09
142
0.0
143
25.4
144
1.0
145
0.0
146
1.0
147
1.5
148
0.0
170
     0
171
     2
172
     1
173
     0
174
     0
175
     0
176
     7
177
     7
178
     7
179
     0
271
     4
272
     4
273
     2
274
     2
275
     0
276
     0
277
     2
278
    46
279
     0
280
     0
281
     0
282
     0
283
     1
284
     0
285
     0
286
     0
288
     0
340
17
341
0
342
32
343
0
344
0
371
    -2
372
    -2
  0
ENDTAB
  0
TABLE
  2
BLOCK_RECORD
  5
1
100
AcDbSymbolTable
 70
    27
  0
BLOCK_RECORD
  5
A
100
AcDbSymbolTableRecord
100
AcDbBlockTableRecord
  2
*MODEL_SPACE
340
20
  0
BLOCK_RECORD
  5
B
100
AcDbSymbolTableRecord
100
AcDbBlockTableRecord
  2
*PAPER_SPACE
340
21
  0
BLOCK_RECORD
  5
32
100
AcDbSymbolTableRecord
100
AcDbBlockTableRecord
  2
TC_DIMARROW_FILLED30
340
0
  0
BLOCK_RECORD
  5
CA
100
AcDbSymbolTableRecord
100
AcDbBlockTableRecord
  2
*E1
340
0
  0
BLOCK_RECORD
  5
127
100
AcDbSymbolTableRecord
100
AcDbBlockTableRecord
  2
*D2
340
0
  0
BLOCK_RECORD
  5
146
100
AcDbSymbolTableRecord
100
AcDbBlockTableRecord
  2
*D3
340
0
  0
BLOCK_RECORD
  5
17A
100
AcDbSymbolTableRecord
100
AcDbBlockTableRecord
  2
*D4
340
0
  0
BLOCK_RECORD
  5
199
100
AcDbSymbolTableRecord
100
AcDbBlockTableRecord
  2
*D5
340
0
  0
BLOCK_RECORD
  5
1B8
100
AcDbSymbolTableRecord
100
AcDbBlockTableRecord
  2
*D6
340
0
  0
BLOCK_RECORD
  5
1D8
100
AcDbSymbolTableRecord
100
AcDbBlockTableRecord
  2
*E7
340
0
  0
BLOCK_RECORD
  5
236
100
AcDbSymbolTableRecord
100
AcDbBlockTableRecord
  2
*D8
340
0
  0
BLOCK_RECORD
  5
255
100
AcDbSymbolTableRecord
100
AcDbBlockTableRecord
  2
*D9
340
0
  0
BLOCK_RECORD
  5
28B
100
AcDbSymbolTableRecord
100
AcDbBlockTableRecord
  2
*D10
340
0
  0
BLOCK_RECORD
  5
2AA
100
AcDbSymbolTableRecord
100
AcDbBlockTableRecord
  2
*D11
340
0
  0
BLOCK_RECORD
  5
2CA
100
AcDbSymbolTableRecord
100
AcDbBlockTableRecord
  2
*D12
340
0
  0
BLOCK_RECORD
  5
2EA
100
AcDbSymbolTableRecord
100
AcDbBlockTableRecord
  2
*D13
340
0
  0
BLOCK_RECORD
  5
312
100
AcDbSymbolTableRecord
100
AcDbBlockTableRecord
  2
*E14
340
0
  0
BLOCK_RECORD
  5
346
100
AcDbSymbolTableRecord
100
AcDbBlockTableRecord
  2
*D15
340
0
  0
BLOCK_RECORD
  5
365
100
AcDbSymbolTableRecord
100
AcDbBlockTableRecord
  2
*D16
340
0
  0
BLOCK_RECORD
  5
38C
100
AcDbSymbolTableRecord
100
AcDbBlockTableRecord
  2
*D17
340
0
  0
BLOCK_RECORD
  5
3AC
100
AcDbSymbolTableRecord
100
AcDbBlockTableRecord
  2
*D18
340
0
  0
BLOCK_RECORD
  5
3CB
100
AcDbSymbolTableRecord
100
AcDbBlockTableRecord
  2
*D19
340
0
  0
BLOCK_RECORD
  5
3EA
100
AcDbSymbolTableRecord
100
AcDbBlockTableRecord
  2
*D20
340
0
  0
BLOCK_RECORD
  5
417
100
AcDbSymbolTableRecord
100
AcDbBlockTableRecord
  2
*D21
340
0
  0
BLOCK_RECORD
  5
436
100
AcDbSymbolTableRecord
100
AcDbBlockTableRecord
  2
*D22
340
0
  0
BLOCK_RECORD
  5
467
100
AcDbSymbolTableRecord
100
AcDbBlockTableRecord
  2
*D23
340
0
  0
BLOCK_RECORD
  5
494
100
AcDbSymbolTableRecord
100
AcDbBlockTableRecord
  2
*D24
340
0
  0
BLOCK_RECORD
  5
4B4
100
AcDbSymbolTableRecord
100
AcDbBlockTableRecord
  2
*D25
340
0
  0
BLOCK_RECORD
  5
4DB
100
AcDbSymbolTableRecord
100
AcDbBlockTableRecord
  2
*D26
340
0
  0
ENDTAB
  0
ENDSEC
  0
SECTION
  2
BLOCKS
  0
BLOCK
  5
D
100
AcDbEntity
  8
0
100
AcDbBlockBegin
  2
*MODEL_SPACE
 70
     0
 10
0.0
 20
0.0
 30
0.0
  3
*MODEL_SPACE
  1

  0
ENDBLK
  5
E
100
AcDbEntity
  8
0
100
AcDbBlockEnd
  0
BLOCK
  5
F
100
AcDbEntity
 67
     1
  8
0
100
AcDbBlockBegin
  2
*PAPER_SPACE
 70
     0
 10
0.0
 20
0.0
 30
0.0
  3
*PAPER_SPACE
  1

  0
ENDBLK
  5
10
100
AcDbEntity
 67
     1
  8
0
100
AcDbBlockEnd
  0
BLOCK
  5
33
100
AcDbEntity
  8
0
100
AcDbBlockBegin
  2
TC_DIMARROW_FILLED30
 70
     0
 10
0.0
 20
0.0
 30
0.0
  3
TC_DIMARROW_FILLED30
  1

  0
SOLID
  5
34
100
AcDbEntity
  8
0
  6
ByBlock
 62
     0
100
AcDbTrace
 10
0.0
 20
0.0
 30
0.0
 11
-1.0
 21
0.267949
 31
0.0
 12
-1.0
 22
-0.267949
 32
0.0
 13
-1.0
 23
-0.267949
 33
0.0
  0
ENDBLK
  5
35
100
AcDbEntity
  8
0
100
AcDbBlockEnd
  0
BLOCK
  5
CB
100
AcDbEntity
  8
0
100
AcDbBlockBegin
  2
*E1
 70
     1
 10
0.0
 20
0.0
 30
0.0
  3
*E1
  1

  0
POLYLINE
  5
CC
100
AcDbEntity
  8
0
370
     0
  6
Continuous
 62
     7
100
AcDb2dPolyline
 66
     1
 10
0.0
 20
0.0
 30
0.0
  0
VERTEX
  5
CD
100
AcDbEntity
  8
0
  6
Continuous
 62
     7
100
AcDbVertex
100
AcDb2dVertex
 10
0.976563
 20
263.648401
 30
0.0
  0
VERTEX
  5
CE
100
AcDbEntity
  8
0
  6
Continuous
 62
     7
100
AcDbVertex
100
AcDb2dVertex
 10
1.093545
 20
263.758175
 30
0.0
  0
VERTEX
  5
CF
100
AcDbEntity
  8
0
  6
Continuous
 62
     7
100
AcDbVertex
100
AcDb2dVertex
 10
1.18654
 20
263.891412
 30
0.0
  0
VERTEX
  5
D0
100
AcDbEntity
  8
0
  6
Continuous
 62
     7
100
AcDbVertex
100
AcDb2dVertex
 10
1.256597
 20
264.044968
 30
0.0
  0
VERTEX
  5
D1
100
AcDbEntity
  8
0
  6
Continuous
 62
     7
100
AcDbVertex
100
AcDb2dVertex
 10
1.304765
 20
264.215694
 30
0.0
  0
VERTEX
  5
D2
100
AcDbEntity
  8
0
  6
Continuous
 62
     7
100
AcDbVertex
100
AcDb2dVertex
 10
1.332091
 20
264.400447
 30
0.0
  0
VERTEX
  5
D3
100
AcDbEntity
  8
0
  6
Continuous
 62
     7
100
AcDbVertex
100
AcDb2dVertex
 10
1.339626
 20
264.596079
 30
0.0
  0
VERTEX
  5
D4
100
AcDbEntity
  8
0
  6
Continuous
 62
     7
100
AcDbVertex
100
AcDb2dVertex
 10
1.328417
 20
264.799446
 30
0.0
  0
VERTEX
  5
D5
100
AcDbEntity
  8
0
  6
Continuous
 62
     7
100
AcDbVertex
100
AcDb2dVertex
 10
1.299513
 20
265.0074
 30
0.0
  0
VERTEX
  5
D6
100
AcDbEntity
  8
0
  6
Continuous
 62
     7
100
AcDbVertex
100
AcDb2dVertex
 10
1.253962
 20
265.216797
 30
0.0
  0
VERTEX
  5
D7
100
AcDbEntity
  8
0
  6
Continuous
 62
     7
100
AcDbVertex
100
AcDb2dVertex
 10
1.192814
 20
265.42449
 30
0.0
  0
VERTEX
  5
D8
100
AcDbEntity
  8
0
  6
Continuous
 62
     7
100
AcDbVertex
100
AcDb2dVertex
 10
1.117117
 20
265.627333
 30
0.0
  0
VERTEX
  5
D9
100
AcDbEntity
  8
0
  6
Continuous
 62
     7
100
AcDbVertex
100
AcDb2dVertex
 10
1.027919
 20
265.822181
 30
0.0
  0
VERTEX
  5
DA
100
AcDbEntity
  8
0
  6
Continuous
 62
     7
100
AcDbVertex
100
AcDb2dVertex
 10
0.92627
 20
266.005887
 30
0.0
  0
VERTEX
  5
DB
100
AcDbEntity
  8
0
  6
Continuous
 62
     7
100
AcDbVertex
100
AcDb2dVertex
 10
0.813217
 20
266.175305
 30
0.0
  0
VERTEX
  5
DC
100
AcDbEntity
  8
0
  6
Continuous
 62
     7
100
AcDbVertex
100
AcDb2dVertex
 10
0.68981
 20
266.327291
 30
0.0
  0
VERTEX
  5
DD
100
AcDbEntity
  8
0
  6
Continuous
 62
     7
100
AcDbVertex
100
AcDb2dVertex
 10
0.557097
 20
266.458697
 30
0.0
  0
VERTEX
  5
DE
100
AcDbEntity
  8
0
  6
Continuous
 62
     7
100
AcDbVertex
100
AcDb2dVertex
 10
0.416127
 20
266.566378
 30
0.0
  0
VERTEX
  5
DF
100
AcDbEntity
  8
0
  6
Continuous
 62
     7
100
AcDbVertex
100
AcDb2dVertex
 10
0.267948
 20
266.647187
 30
0.0
  0
VERTEX
  5
E0
100
AcDbEntity
  8
0
  6
Continuous
 62
     7
100
AcDbVertex
100
AcDb2dVertex
 10
0.11361
 20
266.69798
 30
0.0
  0
VERTEX
  5
E1
100
AcDbEntity
  8
0
  6
Continuous
 62
     7
100
AcDbVertex
100
AcDb2dVertex
 10
-0.04584
 20
266.71561
 30
0.0
  0
VERTEX
  5
E2
100
AcDbEntity
  8
0
  6
Continuous
 62
     7
100
AcDbVertex
100
AcDb2dVertex
 10
-0.206737
 20
266.698273
 30
0.0
  0
VERTEX
  5
E3
100
AcDbEntity
  8
0
  6
Continuous
 62
     7
100
AcDbVertex
100
AcDb2dVertex
 10
-0.363006
 20
266.648298
 30
0.0
  0
VERTEX
  5
E4
100
AcDbEntity
  8
0
  6
Continuous
 62
     7
100
AcDbVertex
100
AcDb2dVertex
 10
-0.513557
 20
266.568737
 30
0.0
  0
VERTEX
  5
E5
100
AcDbEntity
  8
0
  6
Continuous
 62
     7
100
AcDbVertex
100
AcDb2dVertex
 10
-0.657298
 20
266.462644
 30
0.0
  0
VERTEX
  5
E6
100
AcDbEntity
  8
0
  6
Continuous
 62
     7
100
AcDbVertex
100
AcDb2dVertex
 10
-0.79314
 20
266.333073
 30
0.0
  0
VERTEX
  5
E7
100
AcDbEntity
  8
0
  6
Continuous
 62
     7
100
AcDbVertex
100
AcDb2dVertex
 10
-0.919991
 20
266.183077
 30
0.0
  0
VERTEX
  5
E8
100
AcDbEntity
  8
0
  6
Continuous
 62
     7
100
AcDbVertex
100
AcDb2dVertex
 10
-1.036762
 20
266.015709
 30
0.0
  0
VERTEX
  5
E9
100
AcDbEntity
  8
0
  6
Continuous
 62
     7
100
AcDbVertex
100
AcDb2dVertex
 10
-1.142362
 20
265.834023
 30
0.0
  0
VERTEX
  5
EA
100
AcDbEntity
  8
0
  6
Continuous
 62
     7
100
AcDbVertex
100
AcDb2dVertex
 10
-1.2357
 20
265.641072
 30
0.0
  0
VERTEX
  5
EB
100
AcDbEntity
  8
0
  6
Continuous
 62
     7
100
AcDbVertex
100
AcDb2dVertex
 10
-1.315686
 20
265.439909
 30
0.0
  0
VERTEX
  5
EC
100
AcDbEntity
  8
0
  6
Continuous
 62
     7
100
AcDbVertex
100
AcDb2dVertex
 10
-1.38123
 20
265.233589
 30
0.0
  0
VERTEX
  5
ED
100
AcDbEntity
  8
0
  6
Continuous
 62
     7
100
AcDbVertex
100
AcDb2dVertex
 10
-1.43124
 20
265.025163
 30
0.0
  0
VERTEX
  5
EE
100
AcDbEntity
  8
0
  6
Continuous
 62
     7
100
AcDbVertex
100
AcDb2dVertex
 10
-1.464627
 20
264.817687
 30
0.0
  0
VERTEX
  5
EF
100
AcDbEntity
  8
0
  6
Continuous
 62
     7
100
AcDbVertex
100
AcDb2dVertex
 10
-1.4803
 20
264.614213
 30
0.0
  0
VERTEX
  5
F0
100
AcDbEntity
  8
0
  6
Continuous
 62
     7
100
AcDbVertex
100
AcDb2dVertex
 10
-1.477168
 20
264.417794
 30
0.0
  0
VERTEX
  5
F1
100
AcDbEntity
  8
0
  6
Continuous
 62
     7
100
AcDbVertex
100
AcDb2dVertex
 10
-1.454141
 20
264.231484
 30
0.0
  0
VERTEX
  5
F2
100
AcDbEntity
  8
0
  6
Continuous
 62
     7
100
AcDbVertex
100
AcDb2dVertex
 10
-1.410128
 20
264.058336
 30
0.0
  0
VERTEX
  5
F3
100
AcDbEntity
  8
0
  6
Continuous
 62
     7
100
AcDbVertex
100
AcDb2dVertex
 10
-1.34404
 20
263.901404
 30
0.0
  0
VERTEX
  5
F4
100
AcDbEntity
  8
0
  6
Continuous
 62
     7
100
AcDbVertex
100
AcDb2dVertex
 10
-1.254785
 20
263.763741
 30
0.0
  0
VERTEX
  5
F5
100
AcDbEntity
  8
0
  6
Continuous
 62
     7
100
AcDbVertex
100
AcDb2dVertex
 10
-1.141272
 20
263.648401
 30
0.0
  0
SEQEND
  5
F6
100
AcDbEntity
  8
0
  6
Continuous
 62
     7
  0
ENDBLK
  5
F7
100
AcDbEntity
  8
0
100
AcDbBlockEnd
  0
BLOCK
  5
128
100
AcDbEntity
  8
0
100
AcDbBlockBegin
  2
*D2
 70
     1
 10
0.0
 20
0.0
 30
0.0
  3
*D2
  1

  0
LINE
  5
129
100
AcDbEntity
  8
0
370
     0
  6
Continuous
 62
     5
100
AcDbLine
 10
5.237295
 20
-0.164109
 30
0.0
 11
229.456477
 21
-0.164109
 31
0.0
  0
LINE
  5
12A
100
AcDbEntity
  8
0
370
     0
  6
Continuous
 62
     5
100
AcDbLine
 10
133.031463
 20
175.160755
 30
0.0
 11
229.456477
 21
175.160755
 31
0.0
  0
POLYLINE
  5
12B
100
AcDbEntity
  8
0
370
     0
  6
Continuous
 62
     5
100
AcDb2dPolyline
 66
     1
 10
0.0
 20
0.0
 30
0.0
 70
   128
  0
VERTEX
  5
12C
100
AcDbEntity
  8
0
  6
Continuous
 62
     5
100
AcDbVertex
100
AcDb2dVertex
 10
226.456477
 20
3.835891
 30
0.0
  0
VERTEX
  5
12D
100
AcDbEntity
  8
0
  6
Continuous
 62
     5
100
AcDbVertex
100
AcDb2dVertex
 10
226.456477
 20
3.835891
 30
0.0
  0
VERTEX
  5
12E
100
AcDbEntity
  8
0
  6
Continuous
 62
     5
100
AcDbVertex
100
AcDb2dVertex
 10
226.456477
 20
3.835891
 30
0.0
  0
VERTEX
  5
12F
100
AcDbEntity
  8
0
  6
Continuous
 62
     5
100
AcDbVertex
100
AcDb2dVertex
 10
226.456477
 20
77.358323
 30
0.0
  0
SEQEND
  5
130
100
AcDbEntity
  8
0
  6
Continuous
 62
     5
  0
POLYLINE
  5
131
100
AcDbEntity
  8
0
370
     0
  6
Continuous
 62
     5
100
AcDb2dPolyline
 66
     1
 10
0.0
 20
0.0
 30
0.0
 70
   128
  0
VERTEX
  5
132
100
AcDbEntity
  8
0
  6
Continuous
 62
     5
100
AcDbVertex
100
AcDb2dVertex
 10
226.456477
 20
171.160755
 30
0.0
  0
VERTEX
  5
133
100
AcDbEntity
  8
0
  6
Continuous
 62
     5
100
AcDbVertex
100
AcDb2dVertex
 10
226.456477
 20
171.160755
 30
0.0
  0
VERTEX
  5
134
100
AcDbEntity
  8
0
  6
Continuous
 62
     5
100
AcDbVertex
100
AcDb2dVertex
 10
226.456477
 20
171.160755
 30
0.0
  0
VERTEX
  5
135
100
AcDbEntity
  8
0
  6
Continuous
 62
     5
100
AcDbVertex
100
AcDb2dVertex
 10
226.456477
 20
97.638323
 30
0.0
  0
SEQEND
  5
136
100
AcDbEntity
  8
0
  6
Continuous
 62
     5
  0
POLYLINE
  5
138
102
{ACAD_REACTORS
330
137
102
}
100
AcDbEntity
  8
0
370
     0
  6
Continuous
 62
     5
100
AcDb2dPolyline
 66
     1
 10
0.0
 20
0.0
 30
0.0
 70
   129
  0
VERTEX
  5
139
100
AcDbEntity
  8
0
  6
Continuous
 62
     5
100
AcDbVertex
100
AcDb2dVertex
 10
226.456477
 20
-0.164109
 30
0.0
  0
VERTEX
  5
13A
100
AcDbEntity
  8
0
  6
Continuous
 62
     5
100
AcDbVertex
100
AcDb2dVertex
 10
227.123143
 20
3.835891
 30
0.0
  0
VERTEX
  5
13B
100
AcDbEntity
  8
0
  6
Continuous
 62
     5
100
AcDbVertex
100
AcDb2dVertex
 10
225.78981
 20
3.835891
 30
0.0
  0
SEQEND
  5
13C
100
AcDbEntity
  8
0
  6
Continuous
 62
     5
  0
HATCH
  5
137
100
AcDbEntity
  8
0
  6
Continuous
 62
     5
100
AcDbHatch
 10
0.0
 20
0.0
 30
0.0
210
0.0
220
0.0
230
1.0
  2
SOLID
 70
     1
 71
     1
 91
        1
 92
        3
 72
     0
 73
     1
 93
        3
 10
226.45647651164109
 20
-0.164108795722683
 10
227.12314317830774
 20
3.835891204277317
 10
225.78980984497443
 20
3.835891204277317
 97
        1
330
138
 75
     0
 76
     0
 98
        0
  0
POLYLINE
  5
13E
102
{ACAD_REACTORS
330
13D
102
}
100
AcDbEntity
  8
0
370
     0
  6
Continuous
 62
     5
100
AcDb2dPolyline
 66
     1
 10
0.0
 20
0.0
 30
0.0
 70
   129
  0
VERTEX
  5
13F
100
AcDbEntity
  8
0
  6
Continuous
 62
     5
100
AcDbVertex
100
AcDb2dVertex
 10
226.456477
 20
175.160755
 30
0.0
  0
VERTEX
  5
140
100
AcDbEntity
  8
0
  6
Continuous
 62
     5
100
AcDbVertex
100
AcDb2dVertex
 10
225.78981
 20
171.160755
 30
0.0
  0
VERTEX
  5
141
100
AcDbEntity
  8
0
  6
Continuous
 62
     5
100
AcDbVertex
100
AcDb2dVertex
 10
227.123143
 20
171.160755
 30
0.0
  0
SEQEND
  5
142
100
AcDbEntity
  8
0
  6
Continuous
 62
     5
  0
HATCH
  5
13D
100
AcDbEntity
  8
0
  6
Continuous
 62
     5
100
AcDbHatch
 10
0.0
 20
0.0
 30
0.0
210
0.0
220
0.0
230
1.0
  2
SOLID
 70
     1
 71
     1
 91
        1
 92
        3
 72
     0
 73
     1
 93
        3
 10
226.45647651164109
 20
175.160755422053
 10
225.78980984497443
 20
171.160755422053
 10
227.12314317830774
 20
171.160755422053
 97
        1
330
13E
 75
     0
 76
     0
 98
        0
  0
TEXT
  5
143
100
AcDbEntity
  8
0
  6
Continuous
 62
     5
100
AcDbText
 10
213.836874
 20
82.334434
 30
0.0
 40
10.797222
  1
175
 72
     5
 11
239.076079
 21
82.334434
 31
0.0
100
AcDbText
  0
ENDBLK
  5
144
100
AcDbEntity
  8
0
100
AcDbBlockEnd
  0
BLOCK
  5
147
100
AcDbEntity
  8
0
100
AcDbBlockBegin
  2
*D3
 70
     1
 10
0.0
 20
0.0
 30
0.0
  3
*D3
  1

  0
LINE
  5
148
100
AcDbEntity
  8
0
370
     0
  6
Continuous
 62
     5
100
AcDbLine
 10
-120.10166
 20
167.114203
 30
0.0
 11
-120.10166
 21
-51.103969
 31
0.0
  0
LINE
  5
149
100
AcDbEntity
  8
0
370
     0
  6
Continuous
 62
     5
100
AcDbLine
 10
120.484151
 20
166.568657
 30
0.0
 11
120.484151
 21
-51.103969
 31
0.0
  0
POLYLINE
  5
14A
100
AcDbEntity
  8
0
370
     0
  6
Continuous
 62
     5
100
AcDb2dPolyline
 66
     1
 10
0.0
 20
0.0
 30
0.0
 70
   128
  0
VERTEX
  5
14B
100
AcDbEntity
  8
0
  6
Continuous
 62
     5
100
AcDbVertex
100
AcDb2dVertex
 10
-116.10166
 20
-48.103969
 30
0.0
  0
VERTEX
  5
14C
100
AcDbEntity
  8
0
  6
Continuous
 62
     5
100
AcDbVertex
100
AcDb2dVertex
 10
-116.10166
 20
-48.103969
 30
0.0
  0
VERTEX
  5
14D
100
AcDbEntity
  8
0
  6
Continuous
 62
     5
100
AcDbVertex
100
AcDb2dVertex
 10
-116.10166
 20
-48.103969
 30
0.0
  0
VERTEX
  5
14E
100
AcDbEntity
  8
0
  6
Continuous
 62
     5
100
AcDbVertex
100
AcDb2dVertex
 10
-13.928357
 20
-48.103969
 30
0.0
  0
SEQEND
  5
14F
100
AcDbEntity
  8
0
  6
Continuous
 62
     5
  0
POLYLINE
  5
150
100
AcDbEntity
  8
0
370
     0
  6
Continuous
 62
     5
100
AcDb2dPolyline
 66
     1
 10
0.0
 20
0.0
 30
0.0
 70
   128
  0
VERTEX
  5
151
100
AcDbEntity
  8
0
  6
Continuous
 62
     5
100
AcDbVertex
100
AcDb2dVertex
 10
116.484151
 20
-48.103969
 30
0.0
  0
VERTEX
  5
152
100
AcDbEntity
  8
0
  6
Continuous
 62
     5
100
AcDbVertex
100
AcDb2dVertex
 10
116.484151
 20
-48.103969
 30
0.0
  0
VERTEX
  5
153
100
AcDbEntity
  8
0
  6
Continuous
 62
     5
100
AcDbVertex
100
AcDb2dVertex
 10
116.484151
 20
-48.103969
 30
0.0
  0
VERTEX
  5
154
100
AcDbEntity
  8
0
  6
Continuous
 62
     5
100
AcDbVertex
100
AcDb2dVertex
 10
14.310848
 20
-48.103969
 30
0.0
  0
SEQEND
  5
155
100
AcDbEntity
  8
0
  6
Continuous
 62
     5
  0
POLYLINE
  5
157
102
{ACAD_REACTORS
330
156
102
}
100
AcDbEntity
  8
0
370
     0
  6
Continuous
 62
     5
100
AcDb2dPolyline
 66
     1
 10
0.0
 20
0.0
 30
0.0
 70
   129
  0
VERTEX
  5
158
100
AcDbEntity
  8
0
  6
Continuous
 62
     5
100
AcDbVertex
100
AcDb2dVertex
 10
-120.10166
 20
-48.103969
 30
0.0
  0
VERTEX
  5
159
100
AcDbEntity
  8
0
  6
Continuous
 62
     5
100
AcDbVertex
100
AcDb2dVertex
 10
-116.10166
 20
-48.770635
 30
0.0
  0
VERTEX
  5
15A
100
AcDbEntity
  8
0
  6
Continuous
 62
     5
100
AcDbVertex
100
AcDb2dVertex
 10
-116.10166
 20
-47.437302
 30
0.0
  0
SEQEND
  5
15B
100
AcDbEntity
  8
0
  6
Continuous
 62
     5
  0
HATCH
  5
156
100
AcDbEntity
  8
0
  6
Continuous
 62
     5
100
AcDbHatch
 10
0.0
 20
0.0
 30
0.0
210
0.0
220
0.0
230
1.0
  2
SOLID
 70
     1
 71
     1
 91
        1
 92
        3
 72
     0
 73
     1
 93
        3
 10
-120.10166003464263
 20
-48.103968595448976
 10
-116.10166003464263
 20
-48.77063526211564
 10
-116.10166003464263
 20
-47.437301928782311
 97
        1
330
157
 75
     0
 76
     0
 98
        0
  0
POLYLINE
  5
15D
102
{ACAD_REACTORS
330
15C
102
}
100
AcDbEntity
  8
0
370
     0
  6
Continuous
 62
     5
100
AcDb2dPolyline
 66
     1
 10
0.0
 20
0.0
 30
0.0
 70
   129
  0
VERTEX
  5
15E
100
AcDbEntity
  8
0
  6
Continuous
 62
     5
100
AcDbVertex
100
AcDb2dVertex
 10
120.484151
 20
-48.103969
 30
0.0
  0
VERTEX
  5
15F
100
AcDbEntity
  8
0
  6
Continuous
 62
     5
100
AcDbVertex
100
AcDb2dVertex
 10
116.484151
 20
-47.437302
 30
0.0
  0
VERTEX
  5
160
100
AcDbEntity
  8
0
  6
Continuous
 62
     5
100
AcDbVertex
100
AcDb2dVertex
 10
116.484151
 20
-48.770635
 30
0.0
  0
SEQEND
  5
161
100
AcDbEntity
  8
0
  6
Continuous
 62
     5
  0
HATCH
  5
15C
100
AcDbEntity
  8
0
  6
Continuous
 62
     5
100
AcDbHatch
 10
0.0
 20
0.0
 30
0.0
210
0.0
220
0.0
230
1.0
  2
SOLID
 70
     1
 71
     1
 91
        1
 92
        3
 72
     0
 73
     1
 93
        3
 10
120.4841513073693
 20
-48.103968595448976
 10
116.4841513073693
 20
-47.437301928782311
 10
116.4841513073693
 20
-48.77063526211564
 97
        1
330
15D
 75
     0
 76
     0
 98
        0
  0
TEXT
  5
162
100
AcDbEntity
  8
0
  6
Continuous
 62
     5
100
AcDbText
 10
-12.428357
 20
-53.267858
 30
0.0
 40
10.797222
  1
240
 72
     5
 11
12.810848
 21
-53.267858
 31
0.0
100
AcDbText
  0
ENDBLK
  5
163
100
AcDbEntity
  8
0
100
AcDbBlockEnd
  0
BLOCK
  5
17B
100
AcDbEntity
  8
0
100
AcDbBlockBegin
  2
*D4
 70
     1
 10
0.0
 20
0.0
 30
0.0
  3
*D4
  1

  0
LINE
  5
17C
100
AcDbEntity
  8
0
370
     0
  6
Continuous
 62
     5
100
AcDbLine
 10
350.916788
 20
57.252021
 30
0.0
 11
350.916788
 21
30.111356
 31
0.0
  0
LINE
  5
17D
100
AcDbEntity
  8
0
370
     0
  6
Continuous
 62
     5
100
AcDbLine
 10
532.583625
 20
57.252021
 30
0.0
 11
532.583625
 21
30.111356
 31
0.0
  0
POLYLINE
  5
17E
100
AcDbEntity
  8
0
370
     0
  6
Continuous
 62
     5
100
AcDb2dPolyline
 66
     1
 10
0.0
 20
0.0
 30
0.0
 70
   128
  0
VERTEX
  5
17F
100
AcDbEntity
  8
0
  6
Continuous
 62
     5
100
AcDbVertex
100
AcDb2dVertex
 10
354.916788
 20
33.111356
 30
0.0
  0
VERTEX
  5
180
100
AcDbEntity
  8
0
  6
Continuous
 62
     5
100
AcDbVertex
100
AcDb2dVertex
 10
354.916788
 20
33.111356
 30
0.0
  0
VERTEX
  5
181
100
AcDbEntity
  8
0
  6
Continuous
 62
     5
100
AcDbVertex
100
AcDb2dVertex
 10
354.916788
 20
33.111356
 30
0.0
  0
VERTEX
  5
182
100
AcDbEntity
  8
0
  6
Continuous
 62
     5
100
AcDbVertex
100
AcDb2dVertex
 10
427.630604
 20
33.111356
 30
0.0
  0
SEQEND
  5
183
100
AcDbEntity
  8
0
  6
Continuous
 62
     5
  0
POLYLINE
  5
184
100
AcDbEntity
  8
0
370
     0
  6
Continuous
 62
     5
100
AcDb2dPolyline
 66
     1
 10
0.0
 20
0.0
 30
0.0
 70
   128
  0
VERTEX
  5
185
100
AcDbEntity
  8
0
  6
Continuous
 62
     5
100
AcDbVertex
100
AcDb2dVertex
 10
528.583625
 20
33.111356
 30
0.0
  0
VERTEX
  5
186
100
AcDbEntity
  8
0
  6
Continuous
 62
     5
100
AcDbVertex
100
AcDb2dVertex
 10
528.583625
 20
33.111356
 30
0.0
  0
VERTEX
  5
187
100
AcDbEntity
  8
0
  6
Continuous
 62
     5
100
AcDbVertex
100
AcDb2dVertex
 10
528.583625
 20
33.111356
 30
0.0
  0
VERTEX
  5
188
100
AcDbEntity
  8
0
  6
Continuous
 62
     5
100
AcDbVertex
100
AcDb2dVertex
 10
455.869809
 20
33.111356
 30
0.0
  0
SEQEND
  5
189
100
AcDbEntity
  8
0
  6
Continuous
 62
     5
  0
POLYLINE
  5
18B
102
{ACAD_REACTORS
330
18A
102
}
100
AcDbEntity
  8
0
370
     0
  6
Continuous
 62
     5
100
AcDb2dPolyline
 66
     1
 10
0.0
 20
0.0
 30
0.0
 70
   129
  0
VERTEX
  5
18C
100
AcDbEntity
  8
0
  6
Continuous
 62
     5
100
AcDbVertex
100
AcDb2dVertex
 10
350.916788
 20
33.111356
 30
0.0
  0
VERTEX
  5
18D
100
AcDbEntity
  8
0
  6
Continuous
 62
     5
100
AcDbVertex
100
AcDb2dVertex
 10
354.916788
 20
32.444689
 30
0.0
  0
VERTEX
  5
18E
100
AcDbEntity
  8
0
  6
Continuous
 62
     5
100
AcDbVertex
100
AcDb2dVertex
 10
354.916788
 20
33.778023
 30
0.0
  0
SEQEND
  5
18F
100
AcDbEntity
  8
0
  6
Continuous
 62
     5
  0
HATCH
  5
18A
100
AcDbEntity
  8
0
  6
Continuous
 62
     5
100
AcDbHatch
 10
0.0
 20
0.0
 30
0.0
210
0.0
220
0.0
230
1.0
  2
SOLID
 70
     1
 71
     1
 91
        1
 92
        3
 72
     0
 73
     1
 93
        3
 10
350.91678816334911
 20
33.111355854849762
 10
354.91678816334911
 20
32.444689188183098
 10
354.91678816334911
 20
33.778022521516426
 97
        1
330
18B
 75
     0
 76
     0
 98
        0
  0
POLYLINE
  5
191
102
{ACAD_REACTORS
330
190
102
}
100
AcDbEntity
  8
0
370
     0
  6
Continuous
 62
     5
100
AcDb2dPolyline
 66
     1
 10
0.0
 20
0.0
 30
0.0
 70
   129
  0
VERTEX
  5
192
100
AcDbEntity
  8
0
  6
Continuous
 62
     5
100
AcDbVertex
100
AcDb2dVertex
 10
532.583625
 20
33.111356
 30
0.0
  0
VERTEX
  5
193
100
AcDbEntity
  8
0
  6
Continuous
 62
     5
100
AcDbVertex
100
AcDb2dVertex
 10
528.583625
 20
33.778023
 30
0.0
  0
VERTEX
  5
194
100
AcDbEntity
  8
0
  6
Continuous
 62
     5
100
AcDbVertex
100
AcDb2dVertex
 10
528.583625
 20
32.444689
 30
0.0
  0
SEQEND
  5
195
100
AcDbEntity
  8
0
  6
Continuous
 62
     5
  0
HATCH
  5
190
100
AcDbEntity
  8
0
  6
Continuous
 62
     5
100
AcDbHatch
 10
0.0
 20
0.0
 30
0.0
210
0.0
220
0.0
230
1.0
  2
SOLID
 70
     1
 71
     1
 91
        1
 92
        3
 72
     0
 73
     1
 93
        3
 10
532.58362529915394
 20
33.111355854849705
 10
528.58362529915394
 20
33.77802252151637
 10
528.58362529915394
 20
32.444689188183041
 97
        1
330
191
 75
     0
 76
     0
 98
        0
  0
TEXT
  5
196
100
AcDbEntity
  8
0
  6
Continuous
 62
     5
100
AcDbText
 10
429.130604
 20
27.947467
 30
0.0
 40
10.797222
  1
181
 72
     5
 11
454.369809
 21
27.947467
 31
0.0
100
AcDbText
  0
ENDBLK
  5
197
100
AcDbEntity
  8
0
100
AcDbBlockEnd
  0
BLOCK
  5
19A
100
AcDbEntity
  8
0
100
AcDbBlockBegin
  2
*D5
 70
     1
 10
0.0
 20
0.0
 30
0.0
  3
*D5
  1

  0
LINE
  5
19B
100
AcDbEntity
  8
0
370
     0
  6
Continuous
 62
     5
100
AcDbLine
 10
348.325696
 20
59.843113
 30
0.0
 11
318.457301
 21
59.843113
 31
0.0
  0
LINE
  5
19C
100
AcDbEntity
  8
0
370
     0
  6
Continuous
 62
     5
100
AcDbLine
 10
348.325696
 20
149.858212
 30
0.0
 11
318.457301
 21
149.858212
 31
0.0
  0
POLYLINE
  5
19D
100
AcDbEntity
  8
0
370
     0
  6
Continuous
 62
     5
100
AcDb2dPolyline
 66
     1
 10
0.0
 20
0.0
 30
0.0
 70
   128
  0
VERTEX
  5
19E
100
AcDbEntity
  8
0
  6
Continuous
 62
     5
100
AcDbVertex
100
AcDb2dVertex
 10
321.457301
 20
63.843113
 30
0.0
  0
VERTEX
  5
19F
100
AcDbEntity
  8
0
  6
Continuous
 62
     5
100
AcDbVertex
100
AcDb2dVertex
 10
321.457301
 20
63.843113
 30
0.0
  0
VERTEX
  5
1A0
100
AcDbEntity
  8
0
  6
Continuous
 62
     5
100
AcDbVertex
100
AcDb2dVertex
 10
321.457301
 20
63.843113
 30
0.0
  0
VERTEX
  5
1A1
100
AcDbEntity
  8
0
  6
Continuous
 62
     5
100
AcDbVertex
100
AcDb2dVertex
 10
321.457301
 20
94.710662
 30
0.0
  0
SEQEND
  5
1A2
100
AcDbEntity
  8
0
  6
Continuous
 62
     5
  0
POLYLINE
  5
1A3
100
AcDbEntity
  8
0
370
     0
  6
Continuous
 62
     5
100
AcDb2dPolyline
 66
     1
 10
0.0
 20
0.0
 30
0.0
 70
   128
  0
VERTEX
  5
1A4
100
AcDbEntity
  8
0
  6
Continuous
 62
     5
100
AcDbVertex
100
AcDb2dVertex
 10
321.457301
 20
145.858212
 30
0.0
  0
VERTEX
  5
1A5
100
AcDbEntity
  8
0
  6
Continuous
 62
     5
100
AcDbVertex
100
AcDb2dVertex
 10
321.457301
 20
145.858212
 30
0.0
  0
VERTEX
  5
1A6
100
AcDbEntity
  8
0
  6
Continuous
 62
     5
100
AcDbVertex
100
AcDb2dVertex
 10
321.457301
 20
145.858212
 30
0.0
  0
VERTEX
  5
1A7
100
AcDbEntity
  8
0
  6
Continuous
 62
     5
100
AcDbVertex
100
AcDb2dVertex
 10
321.457301
 20
114.990662
 30
0.0
  0
SEQEND
  5
1A8
100
AcDbEntity
  8
0
  6
Continuous
 62
     5
  0
POLYLINE
  5
1AA
102
{ACAD_REACTORS
330
1A9
102
}
100
AcDbEntity
  8
0
370
     0
  6
Continuous
 62
     5
100
AcDb2dPolyline
 66
     1
 10
0.0
 20
0.0
 30
0.0
 70
   129
  0
VERTEX
  5
1AB
100
AcDbEntity
  8
0
  6
Continuous
 62
     5
100
AcDbVertex
100
AcDb2dVertex
 10
321.457301
 20
59.843113
 30
0.0
  0
VERTEX
  5
1AC
100
AcDbEntity
  8
0
  6
Continuous
 62
     5
100
AcDbVertex
100
AcDb2dVertex
 10
322.123968
 20
63.843113
 30
0.0
  0
VERTEX
  5
1AD
100
AcDbEntity
  8
0
  6
Continuous
 62
     5
100
AcDbVertex
100
AcDb2dVertex
 10
320.790634
 20
63.843113
 30
0.0
  0
SEQEND
  5
1AE
100
AcDbEntity
  8
0
  6
Continuous
 62
     5
  0
HATCH
  5
1A9
100
AcDbEntity
  8
0
  6
Continuous
 62
     5
100
AcDbHatch
 10
0.0
 20
0.0
 30
0.0
210
0.0
220
0.0
230
1.0
  2
SOLID
 70
     1
 71
     1
 91
        1
 92
        3
 72
     0
 73
     1
 93
        3
 10
321.4573010602457
 20
59.843112670628798
 10
322.12396772691238
 20
63.843112670628798
 10
320.79063439357901
 20
63.843112670628798
 97
        1
330
1AA
 75
     0
 76
     0
 98
        0
  0
POLYLINE
  5
1B0
102
{ACAD_REACTORS
330
1AF
102
}
100
AcDbEntity
  8
0
370
     0
  6
Continuous
 62
     5
100
AcDb2dPolyline
 66
     1
 10
0.0
 20
0.0
 30
0.0
 70
   129
  0
VERTEX
  5
1B1
100
AcDbEntity
  8
0
  6
Continuous
 62
     5
100
AcDbVertex
100
AcDb2dVertex
 10
321.457301
 20
149.858212
 30
0.0
  0
VERTEX
  5
1B2
100
AcDbEntity
  8
0
  6
Continuous
 62
     5
100
AcDbVertex
100
AcDb2dVertex
 10
320.790634
 20
145.858212
 30
0.0
  0
VERTEX
  5
1B3
100
AcDbEntity
  8
0
  6
Continuous
 62
     5
100
AcDbVertex
100
AcDb2dVertex
 10
322.123968
 20
145.858212
 30
0.0
  0
SEQEND
  5
1B4
100
AcDbEntity
  8
0
  6
Continuous
 62
     5
  0
HATCH
  5
1AF
100
AcDbEntity
  8
0
  6
Continuous
 62
     5
100
AcDbHatch
 10
0.0
 20
0.0
 30
0.0
210
0.0
220
0.0
230
1.0
  2
SOLID
 70
     1
 71
     1
 91
        1
 92
        3
 72
     0
 73
     1
 93
        3
 10
321.45730106024564
 20
149.85821215233395
 10
320.79063439357896
 20
145.85821215233395
 10
322.12396772691233
 20
145.85821215233395
 97
        1
330
1B0
 75
     0
 76
     0
 98
        0
  0
TEXT
  5
1B5
100
AcDbEntity
  8
0
  6
Continuous
 62
     5
100
AcDbText
 10
313.044233
 20
99.686773
 30
0.0
 40
10.797222
  1
90
 72
     5
 11
329.870369
 21
99.686773
 31
0.0
100
AcDbText
  0
ENDBLK
  5
1B6
100
AcDbEntity
  8
0
100
AcDbBlockEnd
  0
BLOCK
  5
1B9
100
AcDbEntity
  8
0
100
AcDbBlockBegin
  2
*D6
 70
     1
 10
0.0
 20
0.0
 30
0.0
  3
*D6
  1

  0
LINE
  5
1BA
100
AcDbEntity
  8
0
370
     0
  6
Continuous
 62
     5
100
AcDbLine
 10
350.916788
 20
153.540396
 30
0.0
 11
350.916788
 21
174.680054
 31
0.0
  0
LINE
  5
1BB
100
AcDbEntity
  8
0
370
     0
  6
Continuous
 62
     5
100
AcDbLine
 10
430.566513
 20
153.540396
 30
0.0
 11
430.566513
 21
174.680054
 31
0.0
  0
POLYLINE
  5
1BC
100
AcDbEntity
  8
0
370
     0
  6
Continuous
 62
     5
100
AcDb2dPolyline
 66
     1
 10
0.0
 20
0.0
 30
0.0
 70
   128
  0
VERTEX
  5
1BD
100
AcDbEntity
  8
0
  6
Continuous
 62
     5
100
AcDbVertex
100
AcDb2dVertex
 10
354.916788
 20
171.680054
 30
0.0
  0
VERTEX
  5
1BE
100
AcDbEntity
  8
0
  6
Continuous
 62
     5
100
AcDbVertex
100
AcDb2dVertex
 10
354.916788
 20
171.680054
 30
0.0
  0
VERTEX
  5
1BF
100
AcDbEntity
  8
0
  6
Continuous
 62
     5
100
AcDbVertex
100
AcDb2dVertex
 10
354.916788
 20
171.680054
 30
0.0
  0
VERTEX
  5
1C0
100
AcDbEntity
  8
0
  6
Continuous
 62
     5
100
AcDbVertex
100
AcDb2dVertex
 10
380.828582
 20
171.680054
 30
0.0
  0
SEQEND
  5
1C1
100
AcDbEntity
  8
0
  6
Continuous
 62
     5
  0
POLYLINE
  5
1C2
100
AcDbEntity
  8
0
370
     0
  6
Continuous
 62
     5
100
AcDb2dPolyline
 66
     1
 10
0.0
 20
0.0
 30
0.0
 70
   128
  0
VERTEX
  5
1C3
100
AcDbEntity
  8
0
  6
Continuous
 62
     5
100
AcDbVertex
100
AcDb2dVertex
 10
426.566513
 20
171.680054
 30
0.0
  0
VERTEX
  5
1C4
100
AcDbEntity
  8
0
  6
Continuous
 62
     5
100
AcDbVertex
100
AcDb2dVertex
 10
426.566513
 20
171.680054
 30
0.0
  0
VERTEX
  5
1C5
100
AcDbEntity
  8
0
  6
Continuous
 62
     5
100
AcDbVertex
100
AcDb2dVertex
 10
426.566513
 20
171.680054
 30
0.0
  0
VERTEX
  5
1C6
100
AcDbEntity
  8
0
  6
Continuous
 62
     5
100
AcDbVertex
100
AcDb2dVertex
 10
400.654719
 20
171.680054
 30
0.0
  0
SEQEND
  5
1C7
100
AcDbEntity
  8
0
  6
Continuous
 62
     5
  0
POLYLINE
  5
1C9
102
{ACAD_REACTORS
330
1C8
102
}
100
AcDbEntity
  8
0
370
     0
  6
Continuous
 62
     5
100
AcDb2dPolyline
 66
     1
 10
0.0
 20
0.0
 30
0.0
 70
   129
  0
VERTEX
  5
1CA
100
AcDbEntity
  8
0
  6
Continuous
 62
     5
100
AcDbVertex
100
AcDb2dVertex
 10
350.916788
 20
171.680054
 30
0.0
  0
VERTEX
  5
1CB
100
AcDbEntity
  8
0
  6
Continuous
 62
     5
100
AcDbVertex
100
AcDb2dVertex
 10
354.916788
 20
171.013388
 30
0.0
  0
VERTEX
  5
1CC
100
AcDbEntity
  8
0
  6
Continuous
 62
     5
100
AcDbVertex
100
AcDb2dVertex
 10
354.916788
 20
172.346721
 30
0.0
  0
SEQEND
  5
1CD
100
AcDbEntity
  8
0
  6
Continuous
 62
     5
  0
HATCH
  5
1C8
100
AcDbEntity
  8
0
  6
Continuous
 62
     5
100
AcDbHatch
 10
0.0
 20
0.0
 30
0.0
210
0.0
220
0.0
230
1.0
  2
SOLID
 70
     1
 71
     1
 91
        1
 92
        3
 72
     0
 73
     1
 93
        3
 10
350.91678816334911
 20
171.68005445092902
 10
354.91678816334911
 20
171.01338778426236
 10
354.91678816334911
 20
172.34672111759568
 97
        1
330
1C9
 75
     0
 76
     0
 98
        0
  0
POLYLINE
  5
1CF
102
{ACAD_REACTORS
330
1CE
102
}
100
AcDbEntity
  8
0
370
     0
  6
Continuous
 62
     5
100
AcDb2dPolyline
 66
     1
 10
0.0
 20
0.0
 30
0.0
 70
   129
  0
VERTEX
  5
1D0
100
AcDbEntity
  8
0
  6
Continuous
 62
     5
100
AcDbVertex
100
AcDb2dVertex
 10
430.566513
 20
171.680054
 30
0.0
  0
VERTEX
  5
1D1
100
AcDbEntity
  8
0
  6
Continuous
 62
     5
100
AcDbVertex
100
AcDb2dVertex
 10
426.566513
 20
172.346721
 30
0.0
  0
VERTEX
  5
1D2
100
AcDbEntity
  8
0
  6
Continuous
 62
     5
100
AcDbVertex
100
AcDb2dVertex
 10
426.566513
 20
171.013388
 30
0.0
  0
SEQEND
  5
1D3
100
AcDbEntity
  8
0
  6
Continuous
 62
     5
  0
HATCH
  5
1CE
100
AcDbEntity
  8
0
  6
Continuous
 62
     5
100
AcDbHatch
 10
0.0
 20
0.0
 30
0.0
210
0.0
220
0.0
230
1.0
  2
SOLID
 70
     1
 71
     1
 91
        1
 92
        3
 72
     0
 73
     1
 93
        3
 10
430.56651255322151
 20
171.68005445092913
 10
426.56651255322151
 20
172.34672111759579
 10
426.56651255322151
 20
171.01338778426248
 97
        1
330
1CF
 75
     0
 76
     0
 98
        0
  0
TEXT
  5
1D4
100
AcDbEntity
  8
0
  6
Continuous
 62
     5
100
AcDbText
 10
382.328582
 20
166.516165
 30
0.0
 40
10.797222
  1
80
 72
     5
 11
399.154719
 21
166.516165
 31
0.0
100
AcDbText
  0
ENDBLK
  5
1D5
100
AcDbEntity
  8
0
100
AcDbBlockEnd
  0
BLOCK
  5
1D9
100
AcDbEntity
  8
0
100
AcDbBlockBegin
  2
*E7
 70
     1
 10
0.0
 20
0.0
 30
0.0
  3
*E7
  1

  0
POLYLINE
  5
1DA
100
AcDbEntity
  8
0
370
     0
  6
Continuous
 62
     7
100
AcDb2dPolyline
 66
     1
 10
0.0
 20
0.0
 30
0.0
  0
VERTEX
  5
1DB
100
AcDbEntity
  8
0
  6
Continuous
 62
     7
100
AcDbVertex
100
AcDb2dVertex
 10
-98.086389
 20
505.403888
 30
0.0
  0
VERTEX
  5
1DC
100
AcDbEntity
  8
0
  6
Continuous
 62
     7
100
AcDbVertex
100
AcDb2dVertex
 10
-95.284845
 20
505.43241
 30
0.0
  0
VERTEX
  5
1DD
100
AcDbEntity
  8
0
  6
Continuous
 62
     7
100
AcDbVertex
100
AcDb2dVertex
 10
-92.482898
 20
505.447293
 30
0.0
  0
VERTEX
  5
1DE
100
AcDbEntity
  8
0
  6
Continuous
 62
     7
100
AcDbVertex
100
AcDb2dVertex
 10
-89.680647
 20
505.44854
 30
0.0
  0
VERTEX
  5
1DF
100
AcDbEntity
  8
0
  6
Continuous
 62
     7
100
AcDbVertex
100
AcDb2dVertex
 10
-86.878191
 20
505.436155
 30
0.0
  0
VERTEX
  5
1E0
100
AcDbEntity
  8
0
  6
Continuous
 62
     7
100
AcDbVertex
100
AcDb2dVertex
 10
-84.07563
 20
505.410141
 30
0.0
  0
VERTEX
  5
1E1
100
AcDbEntity
  8
0
  6
Continuous
 62
     7
100
AcDbVertex
100
AcDb2dVertex
 10
-81.273063
 20
505.370501
 30
0.0
  0
VERTEX
  5
1E2
100
AcDbEntity
  8
0
  6
Continuous
 62
     7
100
AcDbVertex
100
AcDb2dVertex
 10
-78.470589
 20
505.31724
 30
0.0
  0
VERTEX
  5
1E3
100
AcDbEntity
  8
0
  6
Continuous
 62
     7
100
AcDbVertex
100
AcDb2dVertex
 10
-75.668307
 20
505.250361
 30
0.0
  0
VERTEX
  5
1E4
100
AcDbEntity
  8
0
  6
Continuous
 62
     7
100
AcDbVertex
100
AcDb2dVertex
 10
-72.866316
 20
505.169867
 30
0.0
  0
VERTEX
  5
1E5
100
AcDbEntity
  8
0
  6
Continuous
 62
     7
100
AcDbVertex
100
AcDb2dVertex
 10
-70.064717
 20
505.075762
 30
0.0
  0
VERTEX
  5
1E6
100
AcDbEntity
  8
0
  6
Continuous
 62
     7
100
AcDbVertex
100
AcDb2dVertex
 10
-67.263608
 20
504.96805
 30
0.0
  0
VERTEX
  5
1E7
100
AcDbEntity
  8
0
  6
Continuous
 62
     7
100
AcDbVertex
100
AcDb2dVertex
 10
-64.463088
 20
504.846734
 30
0.0
  0
VERTEX
  5
1E8
100
AcDbEntity
  8
0
  6
Continuous
 62
     7
100
AcDbVertex
100
AcDb2dVertex
 10
-61.663257
 20
504.711818
 30
0.0
  0
VERTEX
  5
1E9
100
AcDbEntity
  8
0
  6
Continuous
 62
     7
100
AcDbVertex
100
AcDb2dVertex
 10
-58.864214
 20
504.563306
 30
0.0
  0
VERTEX
  5
1EA
100
AcDbEntity
  8
0
  6
Continuous
 62
     7
100
AcDbVertex
100
AcDb2dVertex
 10
-56.066058
 20
504.4012
 30
0.0
  0
VERTEX
  5
1EB
100
AcDbEntity
  8
0
  6
Continuous
 62
     7
100
AcDbVertex
100
AcDb2dVertex
 10
-53.268888
 20
504.225505
 30
0.0
  0
VERTEX
  5
1EC
100
AcDbEntity
  8
0
  6
Continuous
 62
     7
100
AcDbVertex
100
AcDb2dVertex
 10
-50.472805
 20
504.036223
 30
0.0
  0
VERTEX
  5
1ED
100
AcDbEntity
  8
0
  6
Continuous
 62
     7
100
AcDbVertex
100
AcDb2dVertex
 10
-47.677906
 20
503.83336
 30
0.0
  0
VERTEX
  5
1EE
100
AcDbEntity
  8
0
  6
Continuous
 62
     7
100
AcDbVertex
100
AcDb2dVertex
 10
-44.884291
 20
503.616918
 30
0.0
  0
VERTEX
  5
1EF
100
AcDbEntity
  8
0
  6
Continuous
 62
     7
100
AcDbVertex
100
AcDb2dVertex
 10
-42.09206
 20
503.3869
 30
0.0
  0
VERTEX
  5
1F0
100
AcDbEntity
  8
0
  6
Continuous
 62
     7
100
AcDbVertex
100
AcDb2dVertex
 10
-39.581383
 20
503.166492
 30
0.0
  0
VERTEX
  5
1F1
100
AcDbEntity
  8
0
  6
Continuous
 62
     7
100
AcDbVertex
100
AcDb2dVertex
 10
-37.071798
 20
502.931446
 30
0.0
  0
VERTEX
  5
1F2
100
AcDbEntity
  8
0
  6
Continuous
 62
     7
100
AcDbVertex
100
AcDb2dVertex
 10
-34.563382
 20
502.681958
 30
0.0
  0
VERTEX
  5
1F3
100
AcDbEntity
  8
0
  6
Continuous
 62
     7
100
AcDbVertex
100
AcDb2dVertex
 10
-32.056209
 20
502.418222
 30
0.0
  0
VERTEX
  5
1F4
100
AcDbEntity
  8
0
  6
Continuous
 62
     7
100
AcDbVertex
100
AcDb2dVertex
 10
-29.550354
 20
502.140431
 30
0.0
  0
VERTEX
  5
1F5
100
AcDbEntity
  8
0
  6
Continuous
 62
     7
100
AcDbVertex
100
AcDb2dVertex
 10
-27.045892
 20
501.84878
 30
0.0
  0
VERTEX
  5
1F6
100
AcDbEntity
  8
0
  6
Continuous
 62
     7
100
AcDbVertex
100
AcDb2dVertex
 10
-24.542898
 20
501.543463
 30
0.0
  0
VERTEX
  5
1F7
100
AcDbEntity
  8
0
  6
Continuous
 62
     7
100
AcDbVertex
100
AcDb2dVertex
 10
-22.041446
 20
501.224675
 30
0.0
  0
VERTEX
  5
1F8
100
AcDbEntity
  8
0
  6
Continuous
 62
     7
100
AcDbVertex
100
AcDb2dVertex
 10
-19.541612
 20
500.892609
 30
0.0
  0
VERTEX
  5
1F9
100
AcDbEntity
  8
0
  6
Continuous
 62
     7
100
AcDbVertex
100
AcDb2dVertex
 10
-17.04347
 20
500.54746
 30
0.0
  0
VERTEX
  5
1FA
100
AcDbEntity
  8
0
  6
Continuous
 62
     7
100
AcDbVertex
100
AcDb2dVertex
 10
-14.547096
 20
500.189422
 30
0.0
  0
VERTEX
  5
1FB
100
AcDbEntity
  8
0
  6
Continuous
 62
     7
100
AcDbVertex
100
AcDb2dVertex
 10
-12.052564
 20
499.818689
 30
0.0
  0
VERTEX
  5
1FC
100
AcDbEntity
  8
0
  6
Continuous
 62
     7
100
AcDbVertex
100
AcDb2dVertex
 10
-9.559949
 20
499.435456
 30
0.0
  0
VERTEX
  5
1FD
100
AcDbEntity
  8
0
  6
Continuous
 62
     7
100
AcDbVertex
100
AcDb2dVertex
 10
-7.069326
 20
499.039917
 30
0.0
  0
VERTEX
  5
1FE
100
AcDbEntity
  8
0
  6
Continuous
 62
     7
100
AcDbVertex
100
AcDb2dVertex
 10
-4.58077
 20
498.632265
 30
0.0
  0
VERTEX
  5
1FF
100
AcDbEntity
  8
0
  6
Continuous
 62
     7
100
AcDbVertex
100
AcDb2dVertex
 10
-2.094356
 20
498.212696
 30
0.0
  0
VERTEX
  5
200
100
AcDbEntity
  8
0
  6
Continuous
 62
     7
100
AcDbVertex
100
AcDb2dVertex
 10
0.389842
 20
497.781403
 30
0.0
  0
VERTEX
  5
201
100
AcDbEntity
  8
0
  6
Continuous
 62
     7
100
AcDbVertex
100
AcDb2dVertex
 10
2.871748
 20
497.338581
 30
0.0
  0
VERTEX
  5
202
100
AcDbEntity
  8
0
  6
Continuous
 62
     7
100
AcDbVertex
100
AcDb2dVertex
 10
5.351287
 20
496.884423
 30
0.0
  0
VERTEX
  5
203
100
AcDbEntity
  8
0
  6
Continuous
 62
     7
100
AcDbVertex
100
AcDb2dVertex
 10
7.828385
 20
496.419125
 30
0.0
  0
VERTEX
  5
204
100
AcDbEntity
  8
0
  6
Continuous
 62
     7
100
AcDbVertex
100
AcDb2dVertex
 10
10.854456
 20
495.841817
 30
0.0
  0
VERTEX
  5
205
100
AcDbEntity
  8
0
  6
Continuous
 62
     7
100
AcDbVertex
100
AcDb2dVertex
 10
13.880575
 20
495.259817
 30
0.0
  0
VERTEX
  5
206
100
AcDbEntity
  8
0
  6
Continuous
 62
     7
100
AcDbVertex
100
AcDb2dVertex
 10
16.906282
 20
494.67181
 30
0.0
  0
VERTEX
  5
207
100
AcDbEntity
  8
0
  6
Continuous
 62
     7
100
AcDbVertex
100
AcDb2dVertex
 10
19.931115
 20
494.076484
 30
0.0
  0
VERTEX
  5
208
100
AcDbEntity
  8
0
  6
Continuous
 62
     7
100
AcDbVertex
100
AcDb2dVertex
 10
22.954615
 20
493.472523
 30
0.0
  0
VERTEX
  5
209
100
AcDbEntity
  8
0
  6
Continuous
 62
     7
100
AcDbVertex
100
AcDb2dVertex
 10
25.97632
 20
492.858613
 30
0.0
  0
VERTEX
  5
20A
100
AcDbEntity
  8
0
  6
Continuous
 62
     7
100
AcDbVertex
100
AcDb2dVertex
 10
28.99577
 20
492.233442
 30
0.0
  0
VERTEX
  5
20B
100
AcDbEntity
  8
0
  6
Continuous
 62
     7
100
AcDbVertex
100
AcDb2dVertex
 10
32.012503
 20
491.595696
 30
0.0
  0
VERTEX
  5
20C
100
AcDbEntity
  8
0
  6
Continuous
 62
     7
100
AcDbVertex
100
AcDb2dVertex
 10
35.02606
 20
490.944059
 30
0.0
  0
VERTEX
  5
20D
100
AcDbEntity
  8
0
  6
Continuous
 62
     7
100
AcDbVertex
100
AcDb2dVertex
 10
38.03598
 20
490.277219
 30
0.0
  0
VERTEX
  5
20E
100
AcDbEntity
  8
0
  6
Continuous
 62
     7
100
AcDbVertex
100
AcDb2dVertex
 10
41.041802
 20
489.593862
 30
0.0
  0
VERTEX
  5
20F
100
AcDbEntity
  8
0
  6
Continuous
 62
     7
100
AcDbVertex
100
AcDb2dVertex
 10
44.043065
 20
488.892673
 30
0.0
  0
VERTEX
  5
210
100
AcDbEntity
  8
0
  6
Continuous
 62
     7
100
AcDbVertex
100
AcDb2dVertex
 10
47.039308
 20
488.172339
 30
0.0
  0
VERTEX
  5
211
100
AcDbEntity
  8
0
  6
Continuous
 62
     7
100
AcDbVertex
100
AcDb2dVertex
 10
50.030071
 20
487.431546
 30
0.0
  0
VERTEX
  5
212
100
AcDbEntity
  8
0
  6
Continuous
 62
     7
100
AcDbVertex
100
AcDb2dVertex
 10
53.014894
 20
486.668981
 30
0.0
  0
VERTEX
  5
213
100
AcDbEntity
  8
0
  6
Continuous
 62
     7
100
AcDbVertex
100
AcDb2dVertex
 10
55.993315
 20
485.883328
 30
0.0
  0
VERTEX
  5
214
100
AcDbEntity
  8
0
  6
Continuous
 62
     7
100
AcDbVertex
100
AcDb2dVertex
 10
58.964873
 20
485.073275
 30
0.0
  0
VERTEX
  5
215
100
AcDbEntity
  8
0
  6
Continuous
 62
     7
100
AcDbVertex
100
AcDb2dVertex
 10
61.929109
 20
484.237508
 30
0.0
  0
VERTEX
  5
216
100
AcDbEntity
  8
0
  6
Continuous
 62
     7
100
AcDbVertex
100
AcDb2dVertex
 10
64.885561
 20
483.374712
 30
0.0
  0
VERTEX
  5
217
100
AcDbEntity
  8
0
  6
Continuous
 62
     7
100
AcDbVertex
100
AcDb2dVertex
 10
67.833769
 20
482.483573
 30
0.0
  0
VERTEX
  5
218
100
AcDbEntity
  8
0
  6
Continuous
 62
     7
100
AcDbVertex
100
AcDb2dVertex
 10
71.552541
 20
481.328086
 30
0.0
  0
VERTEX
  5
219
100
AcDbEntity
  8
0
  6
Continuous
 62
     7
100
AcDbVertex
100
AcDb2dVertex
 10
75.265336
 20
480.151748
 30
0.0
  0
VERTEX
  5
21A
100
AcDbEntity
  8
0
  6
Continuous
 62
     7
100
AcDbVertex
100
AcDb2dVertex
 10
78.971985
 20
478.954622
 30
0.0
  0
VERTEX
  5
21B
100
AcDbEntity
  8
0
  6
Continuous
 62
     7
100
AcDbVertex
100
AcDb2dVertex
 10
82.67232
 20
477.73677
 30
0.0
  0
VERTEX
  5
21C
100
AcDbEntity
  8
0
  6
Continuous
 62
     7
100
AcDbVertex
100
AcDb2dVertex
 10
86.36617
 20
476.498254
 30
0.0
  0
VERTEX
  5
21D
100
AcDbEntity
  8
0
  6
Continuous
 62
     7
100
AcDbVertex
100
AcDb2dVertex
 10
90.053368
 20
475.239138
 30
0.0
  0
VERTEX
  5
21E
100
AcDbEntity
  8
0
  6
Continuous
 62
     7
100
AcDbVertex
100
AcDb2dVertex
 10
93.733743
 20
473.959483
 30
0.0
  0
VERTEX
  5
21F
100
AcDbEntity
  8
0
  6
Continuous
 62
     7
100
AcDbVertex
100
AcDb2dVertex
 10
97.407126
 20
472.659352
 30
0.0
  0
VERTEX
  5
220
100
AcDbEntity
  8
0
  6
Continuous
 62
     7
100
AcDbVertex
100
AcDb2dVertex
 10
101.073349
 20
471.338809
 30
0.0
  0
VERTEX
  5
221
100
AcDbEntity
  8
0
  6
Continuous
 62
     7
100
AcDbVertex
100
AcDb2dVertex
 10
104.732242
 20
469.997915
 30
0.0
  0
VERTEX
  5
222
100
AcDbEntity
  8
0
  6
Continuous
 62
     7
100
AcDbVertex
100
AcDb2dVertex
 10
108.383636
 20
468.636732
 30
0.0
  0
VERTEX
  5
223
100
AcDbEntity
  8
0
  6
Continuous
 62
     7
100
AcDbVertex
100
AcDb2dVertex
 10
112.027362
 20
467.255324
 30
0.0
  0
VERTEX
  5
224
100
AcDbEntity
  8
0
  6
Continuous
 62
     7
100
AcDbVertex
100
AcDb2dVertex
 10
115.663251
 20
465.853753
 30
0.0
  0
VERTEX
  5
225
100
AcDbEntity
  8
0
  6
Continuous
 62
     7
100
AcDbVertex
100
AcDb2dVertex
 10
119.291133
 20
464.432082
 30
0.0
  0
VERTEX
  5
226
100
AcDbEntity
  8
0
  6
Continuous
 62
     7
100
AcDbVertex
100
AcDb2dVertex
 10
122.910839
 20
462.990372
 30
0.0
  0
VERTEX
  5
227
100
AcDbEntity
  8
0
  6
Continuous
 62
     7
100
AcDbVertex
100
AcDb2dVertex
 10
126.5222
 20
461.528687
 30
0.0
  0
VERTEX
  5
228
100
AcDbEntity
  8
0
  6
Continuous
 62
     7
100
AcDbVertex
100
AcDb2dVertex
 10
130.125047
 20
460.047089
 30
0.0
  0
VERTEX
  5
229
100
AcDbEntity
  8
0
  6
Continuous
 62
     7
100
AcDbVertex
100
AcDb2dVertex
 10
133.719211
 20
458.545641
 30
0.0
  0
VERTEX
  5
22A
100
AcDbEntity
  8
0
  6
Continuous
 62
     7
100
AcDbVertex
100
AcDb2dVertex
 10
137.304522
 20
457.024405
 30
0.0
  0
VERTEX
  5
22B
100
AcDbEntity
  8
0
  6
Continuous
 62
     7
100
AcDbVertex
100
AcDb2dVertex
 10
140.880812
 20
455.483443
 30
0.0
  0
SEQEND
  5
22C
100
AcDbEntity
  8
0
  6
Continuous
 62
     7
  0
ENDBLK
  5
22D
100
AcDbEntity
  8
0
100
AcDbBlockEnd
  0
BLOCK
  5
237
100
AcDbEntity
  8
0
100
AcDbBlockBegin
  2
*D8
 70
     1
 10
0.0
 20
0.0
 30
0.0
  3
*D8
  1

  0
LINE
  5
238
100
AcDbEntity
  8
0
370
     0
  6
Continuous
 62
     5
100
AcDbLine
 10
-102.13971
 20
444.502801
 30
0.0
 11
-102.13971
 21
435.115824
 31
0.0
  0
LINE
  5
239
100
AcDbEntity
  8
0
370
     0
  6
Continuous
 62
     5
100
AcDbLine
 10
142.939435
 20
443.785803
 30
0.0
 11
142.939435
 21
435.115824
 31
0.0
  0
POLYLINE
  5
23A
100
AcDbEntity
  8
0
370
     0
  6
Continuous
 62
     5
100
AcDb2dPolyline
 66
     1
 10
0.0
 20
0.0
 30
0.0
 70
   128
  0
VERTEX
  5
23B
100
AcDbEntity
  8
0
  6
Continuous
 62
     5
100
AcDbVertex
100
AcDb2dVertex
 10
-98.13971
 20
438.115824
 30
0.0
  0
VERTEX
  5
23C
100
AcDbEntity
  8
0
  6
Continuous
 62
     5
100
AcDbVertex
100
AcDb2dVertex
 10
-98.13971
 20
438.115824
 30
0.0
  0
VERTEX
  5
23D
100
AcDbEntity
  8
0
  6
Continuous
 62
     5
100
AcDbVertex
100
AcDb2dVertex
 10
-98.13971
 20
438.115824
 30
0.0
  0
VERTEX
  5
23E
100
AcDbEntity
  8
0
  6
Continuous
 62
     5
100
AcDbVertex
100
AcDb2dVertex
 10
6.28026
 20
438.115824
 30
0.0
  0
SEQEND
  5
23F
100
AcDbEntity
  8
0
  6
Continuous
 62
     5
  0
POLYLINE
  5
240
100
AcDbEntity
  8
0
370
     0
  6
Continuous
 62
     5
100
AcDb2dPolyline
 66
     1
 10
0.0
 20
0.0
 30
0.0
 70
   128
  0
VERTEX
  5
241
100
AcDbEntity
  8
0
  6
Continuous
 62
     5
100
AcDbVertex
100
AcDb2dVertex
 10
138.939435
 20
438.115824
 30
0.0
  0
VERTEX
  5
242
100
AcDbEntity
  8
0
  6
Continuous
 62
     5
100
AcDbVertex
100
AcDb2dVertex
 10
138.939435
 20
438.115824
 30
0.0
  0
VERTEX
  5
243
100
AcDbEntity
  8
0
  6
Continuous
 62
     5
100
AcDbVertex
100
AcDb2dVertex
 10
138.939435
 20
438.115824
 30
0.0
  0
VERTEX
  5
244
100
AcDbEntity
  8
0
  6
Continuous
 62
     5
100
AcDbVertex
100
AcDb2dVertex
 10
34.519465
 20
438.115824
 30
0.0
  0
SEQEND
  5
245
100
AcDbEntity
  8
0
  6
Continuous
 62
     5
  0
POLYLINE
  5
247
102
{ACAD_REACTORS
330
246
102
}
100
AcDbEntity
  8
0
370
     0
  6
Continuous
 62
     5
100
AcDb2dPolyline
 66
     1
 10
0.0
 20
0.0
 30
0.0
 70
   129
  0
VERTEX
  5
248
100
AcDbEntity
  8
0
  6
Continuous
 62
     5
100
AcDbVertex
100
AcDb2dVertex
 10
-102.13971
 20
438.115824
 30
0.0
  0
VERTEX
  5
249
100
AcDbEntity
  8
0
  6
Continuous
 62
     5
100
AcDbVertex
100
AcDb2dVertex
 10
-98.13971
 20
437.449157
 30
0.0
  0
VERTEX
  5
24A
100
AcDbEntity
  8
0
  6
Continuous
 62
     5
100
AcDbVertex
100
AcDb2dVertex
 10
-98.13971
 20
438.782491
 30
0.0
  0
SEQEND
  5
24B
100
AcDbEntity
  8
0
  6
Continuous
 62
     5
  0
HATCH
  5
246
100
AcDbEntity
  8
0
  6
Continuous
 62
     5
100
AcDbHatch
 10
0.0
 20
0.0
 30
0.0
210
0.0
220
0.0
230
1.0
  2
SOLID
 70
     1
 71
     1
 91
        1
 92
        3
 72
     0
 73
     1
 93
        3
 10
-102.13970976338004
 20
438.11582388552438
 10
-98.13970976338004
 20
437.44915721885769
 10
-98.13970976338004
 20
438.78249055219106
 97
        1
330
247
 75
     0
 76
     0
 98
        0
  0
POLYLINE
  5
24D
102
{ACAD_REACTORS
330
24C
102
}
100
AcDbEntity
  8
0
370
     0
  6
Continuous
 62
     5
100
AcDb2dPolyline
 66
     1
 10
0.0
 20
0.0
 30
0.0
 70
   129
  0
VERTEX
  5
24E
100
AcDbEntity
  8
0
  6
Continuous
 62
     5
100
AcDbVertex
100
AcDb2dVertex
 10
142.939435
 20
438.115824
 30
0.0
  0
VERTEX
  5
24F
100
AcDbEntity
  8
0
  6
Continuous
 62
     5
100
AcDbVertex
100
AcDb2dVertex
 10
138.939435
 20
438.782491
 30
0.0
  0
VERTEX
  5
250
100
AcDbEntity
  8
0
  6
Continuous
 62
     5
100
AcDbVertex
100
AcDb2dVertex
 10
138.939435
 20
437.449157
 30
0.0
  0
SEQEND
  5
251
100
AcDbEntity
  8
0
  6
Continuous
 62
     5
  0
HATCH
  5
24C
100
AcDbEntity
  8
0
  6
Continuous
 62
     5
100
AcDbHatch
 10
0.0
 20
0.0
 30
0.0
210
0.0
220
0.0
230
1.0
  2
SOLID
 70
     1
 71
     1
 91
        1
 92
        3
 72
     0
 73
     1
 93
        3
 10
142.93943467213944
 20
438.11582388552438
 10
138.93943467213944
 20
438.78249055219106
 10
138.93943467213944
 20
437.44915721885769
 97
        1
330
24D
 75
     0
 76
     0
 98
        0
  0
TEXT
  5
252
100
AcDbEntity
  8
0
  6
Continuous
 62
     5
100
AcDbText
 10
7.78026
 20
432.951935
 30
0.0
 40
10.797222
  1
245
 72
     5
 11
33.019465
 21
432.951935
 31
0.0
100
AcDbText
  0
ENDBLK
  5
253
100
AcDbEntity
  8
0
100
AcDbBlockEnd
  0
BLOCK
  5
256
100
AcDbEntity
  8
0
100
AcDbBlockBegin
  2
*D9
 70
     1
 10
0.0
 20
0.0
 30
0.0
  3
*D9
  1

  0
LINE
  5
257
100
AcDbEntity
  8
0
370
     0
  6
Continuous
 62
     5
100
AcDbLine
 10
-103.256993
 20
450.457796
 30
0.0
 11
-123.606103
 21
450.457796
 31
0.0
  0
LINE
  5
258
100
AcDbEntity
  8
0
370
     0
  6
Continuous
 62
     5
100
AcDbLine
 10
-100.694978
 20
505.469074
 30
0.0
 11
-123.606103
 21
505.469074
 31
0.0
  0
POLYLINE
  5
259
100
AcDbEntity
  8
0
370
     0
  6
Continuous
 62
     5
100
AcDb2dPolyline
 66
     1
 10
0.0
 20
0.0
 30
0.0
 70
   128
  0
VERTEX
  5
25A
100
AcDbEntity
  8
0
  6
Continuous
 62
     5
100
AcDbVertex
100
AcDb2dVertex
 10
-120.606103
 20
454.457796
 30
0.0
  0
VERTEX
  5
25B
100
AcDbEntity
  8
0
  6
Continuous
 62
     5
100
AcDbVertex
100
AcDb2dVertex
 10
-120.606103
 20
454.457796
 30
0.0
  0
VERTEX
  5
25C
100
AcDbEntity
  8
0
  6
Continuous
 62
     5
100
AcDbVertex
100
AcDb2dVertex
 10
-120.606103
 20
454.457796
 30
0.0
  0
VERTEX
  5
25D
100
AcDbEntity
  8
0
  6
Continuous
 62
     5
100
AcDbVertex
100
AcDb2dVertex
 10
-120.606103
 20
467.823435
 30
0.0
  0
SEQEND
  5
25E
100
AcDbEntity
  8
0
  6
Continuous
 62
     5
  0
POLYLINE
  5
25F
100
AcDbEntity
  8
0
370
     0
  6
Continuous
 62
     5
100
AcDb2dPolyline
 66
     1
 10
0.0
 20
0.0
 30
0.0
 70
   128
  0
VERTEX
  5
260
100
AcDbEntity
  8
0
  6
Continuous
 62
     5
100
AcDbVertex
100
AcDb2dVertex
 10
-120.606103
 20
501.469074
 30
0.0
  0
VERTEX
  5
261
100
AcDbEntity
  8
0
  6
Continuous
 62
     5
100
AcDbVertex
100
AcDb2dVertex
 10
-120.606103
 20
501.469074
 30
0.0
  0
VERTEX
  5
262
100
AcDbEntity
  8
0
  6
Continuous
 62
     5
100
AcDbVertex
100
AcDb2dVertex
 10
-120.606103
 20
501.469074
 30
0.0
  0
VERTEX
  5
263
100
AcDbEntity
  8
0
  6
Continuous
 62
     5
100
AcDbVertex
100
AcDb2dVertex
 10
-120.606103
 20
488.103435
 30
0.0
  0
SEQEND
  5
264
100
AcDbEntity
  8
0
  6
Continuous
 62
     5
  0
POLYLINE
  5
266
102
{ACAD_REACTORS
330
265
102
}
100
AcDbEntity
  8
0
370
     0
  6
Continuous
 62
     5
100
AcDb2dPolyline
 66
     1
 10
0.0
 20
0.0
 30
0.0
 70
   129
  0
VERTEX
  5
267
100
AcDbEntity
  8
0
  6
Continuous
 62
     5
100
AcDbVertex
100
AcDb2dVertex
 10
-120.606103
 20
450.457796
 30
0.0
  0
VERTEX
  5
268
100
AcDbEntity
  8
0
  6
Continuous
 62
     5
100
AcDbVertex
100
AcDb2dVertex
 10
-119.939436
 20
454.457796
 30
0.0
  0
VERTEX
  5
269
100
AcDbEntity
  8
0
  6
Continuous
 62
     5
100
AcDbVertex
100
AcDb2dVertex
 10
-121.272769
 20
454.457796
 30
0.0
  0
SEQEND
  5
26A
100
AcDbEntity
  8
0
  6
Continuous
 62
     5
  0
HATCH
  5
265
100
AcDbEntity
  8
0
  6
Continuous
 62
     5
100
AcDbHatch
 10
0.0
 20
0.0
 30
0.0
210
0.0
220
0.0
230
1.0
  2
SOLID
 70
     1
 71
     1
 91
        1
 92
        3
 72
     0
 73
     1
 93
        3
 10
-120.60610264412412
 20
450.45779567267289
 10
-119.93943597745745
 20
454.45779567267289
 10
-121.27276931079079
 20
454.45779567267289
 97
        1
330
266
 75
     0
 76
     0
 98
        0
  0
POLYLINE
  5
26C
102
{ACAD_REACTORS
330
26B
102
}
100
AcDbEntity
  8
0
370
     0
  6
Continuous
 62
     5
100
AcDb2dPolyline
 66
     1
 10
0.0
 20
0.0
 30
0.0
 70
   129
  0
VERTEX
  5
26D
100
AcDbEntity
  8
0
  6
Continuous
 62
     5
100
AcDbVertex
100
AcDb2dVertex
 10
-120.606103
 20
505.469074
 30
0.0
  0
VERTEX
  5
26E
100
AcDbEntity
  8
0
  6
Continuous
 62
     5
100
AcDbVertex
100
AcDb2dVertex
 10
-121.272769
 20
501.469074
 30
0.0
  0
VERTEX
  5
26F
100
AcDbEntity
  8
0
  6
Continuous
 62
     5
100
AcDbVertex
100
AcDb2dVertex
 10
-119.939436
 20
501.469074
 30
0.0
  0
SEQEND
  5
270
100
AcDbEntity
  8
0
  6
Continuous
 62
     5
  0
HATCH
  5
26B
100
AcDbEntity
  8
0
  6
Continuous
 62
     5
100
AcDbHatch
 10
0.0
 20
0.0
 30
0.0
210
0.0
220
0.0
230
1.0
  2
SOLID
 70
     1
 71
     1
 91
        1
 92
        3
 72
     0
 73
     1
 93
        3
 10
-120.60610264412412
 20
505.46907374027052
 10
-121.27276931079079
 20
501.46907374027052
 10
-119.93943597745745
 20
501.46907374027052
 97
        1
330
26C
 75
     0
 76
     0
 98
        0
  0
TEXT
  5
271
100
AcDbEntity
  8
0
  6
Continuous
 62
     5
100
AcDbText
 10
-129.019171
 20
472.799546
 30
0.0
 40
10.797222
  1
55
 72
     5
 11
-112.193034
 21
472.799546
 31
0.0
100
AcDbText
  0
ENDBLK
  5
272
100
AcDbEntity
  8
0
100
AcDbBlockEnd
  0
BLOCK
  5
28C
100
AcDbEntity
  8
0
100
AcDbBlockBegin
  2
*D10
 70
     1
 10
0.0
 20
0.0
 30
0.0
  3
*D10
  1

  0
LINE
  5
28D
100
AcDbEntity
  8
0
370
     0
  6
Continuous
 62
     5
100
AcDbLine
 10
464.878707
 20
296.724852
 30
0.0
 11
464.878707
 21
315.489563
 31
0.0
  0
LINE
  5
28E
100
AcDbEntity
  8
0
370
     0
  6
Continuous
 62
     5
100
AcDbLine
 10
434.9992
 20
296.02017
 30
0.0
 11
434.9992
 21
315.489563
 31
0.0
  0
POLYLINE
  5
28F
100
AcDbEntity
  8
0
370
     0
  6
Continuous
 62
     5
100
AcDb2dPolyline
 66
     1
 10
0.0
 20
0.0
 30
0.0
 70
   128
  0
VERTEX
  5
290
100
AcDbEntity
  8
0
  6
Continuous
 62
     5
100
AcDbVertex
100
AcDb2dVertex
 10
460.878707
 20
312.489563
 30
0.0
  0
VERTEX
  5
291
100
AcDbEntity
  8
0
  6
Continuous
 62
     5
100
AcDbVertex
100
AcDb2dVertex
 10
460.878707
 20
312.489563
 30
0.0
  0
VERTEX
  5
292
100
AcDbEntity
  8
0
  6
Continuous
 62
     5
100
AcDbVertex
100
AcDb2dVertex
 10
460.878707
 20
312.489563
 30
0.0
  0
VERTEX
  5
293
100
AcDbEntity
  8
0
  6
Continuous
 62
     5
100
AcDbVertex
100
AcDb2dVertex
 10
459.852022
 20
312.489563
 30
0.0
  0
SEQEND
  5
294
100
AcDbEntity
  8
0
  6
Continuous
 62
     5
  0
POLYLINE
  5
295
100
AcDbEntity
  8
0
370
     0
  6
Continuous
 62
     5
100
AcDb2dPolyline
 66
     1
 10
0.0
 20
0.0
 30
0.0
 70
   128
  0
VERTEX
  5
296
100
AcDbEntity
  8
0
  6
Continuous
 62
     5
100
AcDbVertex
100
AcDb2dVertex
 10
438.9992
 20
312.489563
 30
0.0
  0
VERTEX
  5
297
100
AcDbEntity
  8
0
  6
Continuous
 62
     5
100
AcDbVertex
100
AcDb2dVertex
 10
438.9992
 20
312.489563
 30
0.0
  0
VERTEX
  5
298
100
AcDbEntity
  8
0
  6
Continuous
 62
     5
100
AcDbVertex
100
AcDb2dVertex
 10
438.9992
 20
312.489563
 30
0.0
  0
VERTEX
  5
299
100
AcDbEntity
  8
0
  6
Continuous
 62
     5
100
AcDbVertex
100
AcDb2dVertex
 10
440.025885
 20
312.489563
 30
0.0
  0
SEQEND
  5
29A
100
AcDbEntity
  8
0
  6
Continuous
 62
     5
  0
POLYLINE
  5
29C
102
{ACAD_REACTORS
330
29B
102
}
100
AcDbEntity
  8
0
370
     0
  6
Continuous
 62
     5
100
AcDb2dPolyline
 66
     1
 10
0.0
 20
0.0
 30
0.0
 70
   129
  0
VERTEX
  5
29D
100
AcDbEntity
  8
0
  6
Continuous
 62
     5
100
AcDbVertex
100
AcDb2dVertex
 10
464.878707
 20
312.489563
 30
0.0
  0
VERTEX
  5
29E
100
AcDbEntity
  8
0
  6
Continuous
 62
     5
100
AcDbVertex
100
AcDb2dVertex
 10
460.878707
 20
313.15623
 30
0.0
  0
VERTEX
  5
29F
100
AcDbEntity
  8
0
  6
Continuous
 62
     5
100
AcDbVertex
100
AcDb2dVertex
 10
460.878707
 20
311.822897
 30
0.0
  0
SEQEND
  5
2A0
100
AcDbEntity
  8
0
  6
Continuous
 62
     5
  0
HATCH
  5
29B
100
AcDbEntity
  8
0
  6
Continuous
 62
     5
100
AcDbHatch
 10
0.0
 20
0.0
 30
0.0
210
0.0
220
0.0
230
1.0
  2
SOLID
 70
     1
 71
     1
 91
        1
 92
        3
 72
     0
 73
     1
 93
        3
 10
464.87870739010077
 20
312.48956322674132
 10
460.87870739010077
 20
313.15622989340801
 10
460.87870739010077
 20
311.82289656007464
 97
        1
330
29C
 75
     0
 76
     0
 98
        0
  0
POLYLINE
  5
2A2
102
{ACAD_REACTORS
330
2A1
102
}
100
AcDbEntity
  8
0
370
     0
  6
Continuous
 62
     5
100
AcDb2dPolyline
 66
     1
 10
0.0
 20
0.0
 30
0.0
 70
   129
  0
VERTEX
  5
2A3
100
AcDbEntity
  8
0
  6
Continuous
 62
     5
100
AcDbVertex
100
AcDb2dVertex
 10
434.9992
 20
312.489563
 30
0.0
  0
VERTEX
  5
2A4
100
AcDbEntity
  8
0
  6
Continuous
 62
     5
100
AcDbVertex
100
AcDb2dVertex
 10
438.9992
 20
311.822897
 30
0.0
  0
VERTEX
  5
2A5
100
AcDbEntity
  8
0
  6
Continuous
 62
     5
100
AcDbVertex
100
AcDb2dVertex
 10
438.9992
 20
313.15623
 30
0.0
  0
SEQEND
  5
2A6
100
AcDbEntity
  8
0
  6
Continuous
 62
     5
  0
HATCH
  5
2A1
100
AcDbEntity
  8
0
  6
Continuous
 62
     5
100
AcDbHatch
 10
0.0
 20
0.0
 30
0.0
210
0.0
220
0.0
230
1.0
  2
SOLID
 70
     1
 71
     1
 91
        1
 92
        3
 72
     0
 73
     1
 93
        3
 10
434.99919994381162
 20
312.48956322674132
 10
438.99919994381162
 20
311.82289656007464
 10
438.99919994381162
 20
313.15622989340801
 97
        1
330
2A2
 75
     0
 76
     0
 98
        0
  0
TEXT
  5
2A7
100
AcDbEntity
  8
0
  6
Continuous
 62
     5
100
AcDbText
 10
441.525885
 20
307.325674
 30
0.0
 40
10.797222
  1
30
 72
     5
 11
458.352022
 21
307.325674
 31
0.0
100
AcDbText
  0
ENDBLK
  5
2A8
100
AcDbEntity
  8
0
100
AcDbBlockEnd
  0
BLOCK
  5
2AB
100
AcDbEntity
  8
0
100
AcDbBlockBegin
  2
*D11
 70
     1
 10
0.0
 20
0.0
 30
0.0
  3
*D11
  1

  0
LINE
  5
2AC
100
AcDbEntity
  8
0
370
     0
  6
Continuous
 62
     5
100
AcDbLine
 10
464.878707
 20
274.105616
 30
0.0
 11
464.878707
 21
243.411418
 31
0.0
  0
LINE
  5
2AD
100
AcDbEntity
  8
0
370
     0
  6
Continuous
 62
     5
100
AcDbLine
 10
459.944477
 20
276.161545
 30
0.0
 11
459.944477
 21
243.411418
 31
0.0
  0
POLYLINE
  5
2AE
100
AcDbEntity
  8
0
370
     0
  6
Continuous
 62
     5
100
AcDb2dPolyline
 66
     1
 10
0.0
 20
0.0
 30
0.0
 70
   128
  0
VERTEX
  5
2AF
100
AcDbEntity
  8
0
  6
Continuous
 62
     5
100
AcDbVertex
100
AcDb2dVertex
 10
472.878707
 20
246.411418
 30
0.0
  0
VERTEX
  5
2B0
100
AcDbEntity
  8
0
  6
Continuous
 62
     5
100
AcDbVertex
100
AcDb2dVertex
 10
468.878707
 20
246.411418
 30
0.0
  0
SEQEND
  5
2B1
100
AcDbEntity
  8
0
  6
Continuous
 62
     5
  0
POLYLINE
  5
2B2
100
AcDbEntity
  8
0
370
     0
  6
Continuous
 62
     5
100
AcDb2dPolyline
 66
     1
 10
0.0
 20
0.0
 30
0.0
 70
   128
  0
VERTEX
  5
2B3
100
AcDbEntity
  8
0
  6
Continuous
 62
     5
100
AcDbVertex
100
AcDb2dVertex
 10
464.878707
 20
246.411418
 30
0.0
  0
VERTEX
  5
2B4
100
AcDbEntity
  8
0
  6
Continuous
 62
     5
100
AcDbVertex
100
AcDb2dVertex
 10
459.944477
 20
246.411418
 30
0.0
  0
SEQEND
  5
2B5
100
AcDbEntity
  8
0
  6
Continuous
 62
     5
  0
POLYLINE
  5
2B6
100
AcDbEntity
  8
0
370
     0
  6
Continuous
 62
     5
100
AcDb2dPolyline
 66
     1
 10
0.0
 20
0.0
 30
0.0
 70
   128
  0
VERTEX
  5
2B7
100
AcDbEntity
  8
0
  6
Continuous
 62
     5
100
AcDbVertex
100
AcDb2dVertex
 10
447.944477
 20
246.411418
 30
0.0
  0
VERTEX
  5
2B8
100
AcDbEntity
  8
0
  6
Continuous
 62
     5
100
AcDbVertex
100
AcDb2dVertex
 10
451.944477
 20
246.411418
 30
0.0
  0
VERTEX
  5
2B9
100
AcDbEntity
  8
0
  6
Continuous
 62
     5
100
AcDbVertex
100
AcDb2dVertex
 10
455.944477
 20
246.411418
 30
0.0
  0
SEQEND
  5
2BA
100
AcDbEntity
  8
0
  6
Continuous
 62
     5
  0
POLYLINE
  5
2BC
102
{ACAD_REACTORS
330
2BB
102
}
100
AcDbEntity
  8
0
370
     0
  6
Continuous
 62
     5
100
AcDb2dPolyline
 66
     1
 10
0.0
 20
0.0
 30
0.0
 70
   129
  0
VERTEX
  5
2BD
100
AcDbEntity
  8
0
  6
Continuous
 62
     5
100
AcDbVertex
100
AcDb2dVertex
 10
459.944477
 20
246.411418
 30
0.0
  0
VERTEX
  5
2BE
100
AcDbEntity
  8
0
  6
Continuous
 62
     5
100
AcDbVertex
100
AcDb2dVertex
 10
455.944477
 20
247.078085
 30
0.0
  0
VERTEX
  5
2BF
100
AcDbEntity
  8
0
  6
Continuous
 62
     5
100
AcDbVertex
100
AcDb2dVertex
 10
455.944477
 20
245.744752
 30
0.0
  0
SEQEND
  5
2C0
100
AcDbEntity
  8
0
  6
Continuous
 62
     5
  0
HATCH
  5
2BB
100
AcDbEntity
  8
0
  6
Continuous
 62
     5
100
AcDbHatch
 10
0.0
 20
0.0
 30
0.0
210
0.0
220
0.0
230
1.0
  2
SOLID
 70
     1
 71
     1
 91
        1
 92
        3
 72
     0
 73
     1
 93
        3
 10
459.94447680264011
 20
246.41141839047873
 10
455.94447680264011
 20
247.07808505714539
 10
455.94447680264011
 20
245.74475172381207
 97
        1
330
2BC
 75
     0
 76
     0
 98
        0
  0
POLYLINE
  5
2C2
102
{ACAD_REACTORS
330
2C1
102
}
100
AcDbEntity
  8
0
370
     0
  6
Continuous
 62
     5
100
AcDb2dPolyline
 66
     1
 10
0.0
 20
0.0
 30
0.0
 70
   129
  0
VERTEX
  5
2C3
100
AcDbEntity
  8
0
  6
Continuous
 62
     5
100
AcDbVertex
100
AcDb2dVertex
 10
464.878707
 20
246.411418
 30
0.0
  0
VERTEX
  5
2C4
100
AcDbEntity
  8
0
  6
Continuous
 62
     5
100
AcDbVertex
100
AcDb2dVertex
 10
468.878707
 20
245.744752
 30
0.0
  0
VERTEX
  5
2C5
100
AcDbEntity
  8
0
  6
Continuous
 62
     5
100
AcDbVertex
100
AcDb2dVertex
 10
468.878707
 20
247.078085
 30
0.0
  0
SEQEND
  5
2C6
100
AcDbEntity
  8
0
  6
Continuous
 62
     5
  0
HATCH
  5
2C1
100
AcDbEntity
  8
0
  6
Continuous
 62
     5
100
AcDbHatch
 10
0.0
 20
0.0
 30
0.0
210
0.0
220
0.0
230
1.0
  2
SOLID
 70
     1
 71
     1
 91
        1
 92
        3
 72
     0
 73
     1
 93
        3
 10
464.87870739010071
 20
246.41141839047873
 10
468.87870739010071
 20
245.74475172381207
 10
468.87870739010071
 20
247.07808505714539
 97
        1
330
2C2
 75
     0
 76
     0
 98
        0
  0
TEXT
  5
2C7
100
AcDbEntity
  8
0
  6
Continuous
 62
     5
100
AcDbText
 10
438.031409
 20
241.247529
 30
0.0
 40
10.797222
  1
5
 72
     5
 11
446.444477
 21
241.247529
 31
0.0
100
AcDbText
  0
ENDBLK
  5
2C8
100
AcDbEntity
  8
0
100
AcDbBlockEnd
  0
BLOCK
  5
2CB
100
AcDbEntity
  8
0
100
AcDbBlockBegin
  2
*D12
 70
     1
 10
0.0
 20
0.0
 30
0.0
  3
*D12
  1

  0
LINE
  5
2CC
100
AcDbEntity
  8
0
370
     0
  6
Continuous
 62
     5
100
AcDbLine
 10
466.789893
 20
280.813971
 30
0.0
 11
475.417115
 21
280.813971
 31
0.0
  0
LINE
  5
2CD
100
AcDbEntity
  8
0
370
     0
  6
Continuous
 62
     5
100
AcDbLine
 10
466.926955
 20
277.798607
 30
0.0
 11
475.417115
 21
277.798607
 31
0.0
  0
POLYLINE
  5
2CE
100
AcDbEntity
  8
0
370
     0
  6
Continuous
 62
     5
100
AcDb2dPolyline
 66
     1
 10
0.0
 20
0.0
 30
0.0
 70
   128
  0
VERTEX
  5
2CF
100
AcDbEntity
  8
0
  6
Continuous
 62
     5
100
AcDbVertex
100
AcDb2dVertex
 10
472.417115
 20
288.813971
 30
0.0
  0
VERTEX
  5
2D0
100
AcDbEntity
  8
0
  6
Continuous
 62
     5
100
AcDbVertex
100
AcDb2dVertex
 10
472.417115
 20
284.813971
 30
0.0
  0
SEQEND
  5
2D1
100
AcDbEntity
  8
0
  6
Continuous
 62
     5
  0
POLYLINE
  5
2D2
100
AcDbEntity
  8
0
370
     0
  6
Continuous
 62
     5
100
AcDb2dPolyline
 66
     1
 10
0.0
 20
0.0
 30
0.0
 70
   128
  0
VERTEX
  5
2D3
100
AcDbEntity
  8
0
  6
Continuous
 62
     5
100
AcDbVertex
100
AcDb2dVertex
 10
472.417115
 20
280.813971
 30
0.0
  0
VERTEX
  5
2D4
100
AcDbEntity
  8
0
  6
Continuous
 62
     5
100
AcDbVertex
100
AcDb2dVertex
 10
472.417115
 20
277.798607
 30
0.0
  0
SEQEND
  5
2D5
100
AcDbEntity
  8
0
  6
Continuous
 62
     5
  0
POLYLINE
  5
2D6
100
AcDbEntity
  8
0
370
     0
  6
Continuous
 62
     5
100
AcDb2dPolyline
 66
     1
 10
0.0
 20
0.0
 30
0.0
 70
   128
  0
VERTEX
  5
2D7
100
AcDbEntity
  8
0
  6
Continuous
 62
     5
100
AcDbVertex
100
AcDb2dVertex
 10
476.417115
 20
269.798607
 30
0.0
  0
VERTEX
  5
2D8
100
AcDbEntity
  8
0
  6
Continuous
 62
     5
100
AcDbVertex
100
AcDb2dVertex
 10
472.417115
 20
269.798607
 30
0.0
  0
VERTEX
  5
2D9
100
AcDbEntity
  8
0
  6
Continuous
 62
     5
100
AcDbVertex
100
AcDb2dVertex
 10
472.417115
 20
273.798607
 30
0.0
  0
SEQEND
  5
2DA
100
AcDbEntity
  8
0
  6
Continuous
 62
     5
  0
POLYLINE
  5
2DC
102
{ACAD_REACTORS
330
2DB
102
}
100
AcDbEntity
  8
0
370
     0
  6
Continuous
 62
     5
100
AcDb2dPolyline
 66
     1
 10
0.0
 20
0.0
 30
0.0
 70
   129
  0
VERTEX
  5
2DD
100
AcDbEntity
  8
0
  6
Continuous
 62
     5
100
AcDbVertex
100
AcDb2dVertex
 10
472.417115
 20
277.798607
 30
0.0
  0
VERTEX
  5
2DE
100
AcDbEntity
  8
0
  6
Continuous
 62
     5
100
AcDbVertex
100
AcDb2dVertex
 10
471.750449
 20
273.798607
 30
0.0
  0
VERTEX
  5
2DF
100
AcDbEntity
  8
0
  6
Continuous
 62
     5
100
AcDbVertex
100
AcDb2dVertex
 10
473.083782
 20
273.798607
 30
0.0
  0
SEQEND
  5
2E0
100
AcDbEntity
  8
0
  6
Continuous
 62
     5
  0
HATCH
  5
2DB
100
AcDbEntity
  8
0
  6
Continuous
 62
     5
100
AcDbHatch
 10
0.0
 20
0.0
 30
0.0
210
0.0
220
0.0
230
1.0
  2
SOLID
 70
     1
 71
     1
 91
        1
 92
        3
 72
     0
 73
     1
 93
        3
 10
472.41711523205436
 20
277.79860740515852
 10
471.75044856538767
 20
273.79860740515852
 10
473.08378189872104
 20
273.79860740515852
 97
        1
330
2DC
 75
     0
 76
     0
 98
        0
  0
POLYLINE
  5
2E2
102
{ACAD_REACTORS
330
2E1
102
}
100
AcDbEntity
  8
0
370
     0
  6
Continuous
 62
     5
100
AcDb2dPolyline
 66
     1
 10
0.0
 20
0.0
 30
0.0
 70
   129
  0
VERTEX
  5
2E3
100
AcDbEntity
  8
0
  6
Continuous
 62
     5
100
AcDbVertex
100
AcDb2dVertex
 10
472.417115
 20
280.813971
 30
0.0
  0
VERTEX
  5
2E4
100
AcDbEntity
  8
0
  6
Continuous
 62
     5
100
AcDbVertex
100
AcDb2dVertex
 10
473.083782
 20
284.813971
 30
0.0
  0
VERTEX
  5
2E5
100
AcDbEntity
  8
0
  6
Continuous
 62
     5
100
AcDbVertex
100
AcDb2dVertex
 10
471.750449
 20
284.813971
 30
0.0
  0
SEQEND
  5
2E6
100
AcDbEntity
  8
0
  6
Continuous
 62
     5
  0
HATCH
  5
2E1
100
AcDbEntity
  8
0
  6
Continuous
 62
     5
100
AcDbHatch
 10
0.0
 20
0.0
 30
0.0
210
0.0
220
0.0
230
1.0
  2
SOLID
 70
     1
 71
     1
 91
        1
 92
        3
 72
     0
 73
     1
 93
        3
 10
472.41711523205436
 20
280.81397054194002
 10
473.08378189872104
 20
284.81397054194002
 10
471.75044856538767
 20
284.81397054194002
 97
        1
330
2E2
 75
     0
 76
     0
 98
        0
  0
TEXT
  5
2E7
100
AcDbEntity
  8
0
  6
Continuous
 62
     5
100
AcDbText
 10
477.917115
 20
264.634718
 30
0.0
 40
10.797222
  1
3
 72
     5
 11
486.330183
 21
264.634718
 31
0.0
100
AcDbText
  0
ENDBLK
  5
2E8
100
AcDbEntity
  8
0
100
AcDbBlockEnd
  0
BLOCK
  5
2EB
100
AcDbEntity
  8
0
100
AcDbBlockBegin
  2
*D13
 70
     1
 10
0.0
 20
0.0
 30
0.0
  3
*D13
  1

  0
LINE
  5
2EC
100
AcDbEntity
  8
0
370
     0
  6
Continuous
 62
     5
100
AcDbLine
 10
433.325436
 20
294.246035
 30
0.0
 11
415.789187
 21
294.246035
 31
0.0
  0
LINE
  5
2ED
100
AcDbEntity
  8
0
370
     0
  6
Continuous
 62
     5
100
AcDbLine
 10
433.462498
 20
264.366528
 30
0.0
 11
415.789187
 21
264.366528
 31
0.0
  0
POLYLINE
  5
2EE
100
AcDbEntity
  8
0
370
     0
  6
Continuous
 62
     5
100
AcDb2dPolyline
 66
     1
 10
0.0
 20
0.0
 30
0.0
 70
   128
  0
VERTEX
  5
2EF
100
AcDbEntity
  8
0
  6
Continuous
 62
     5
100
AcDbVertex
100
AcDb2dVertex
 10
418.789187
 20
290.246035
 30
0.0
  0
VERTEX
  5
2F0
100
AcDbEntity
  8
0
  6
Continuous
 62
     5
100
AcDbVertex
100
AcDb2dVertex
 10
418.789187
 20
290.246035
 30
0.0
  0
VERTEX
  5
2F1
100
AcDbEntity
  8
0
  6
Continuous
 62
     5
100
AcDbVertex
100
AcDb2dVertex
 10
418.789187
 20
290.246035
 30
0.0
  0
VERTEX
  5
2F2
100
AcDbEntity
  8
0
  6
Continuous
 62
     5
100
AcDbVertex
100
AcDb2dVertex
 10
418.789187
 20
289.446281
 30
0.0
  0
SEQEND
  5
2F3
100
AcDbEntity
  8
0
  6
Continuous
 62
     5
  0
POLYLINE
  5
2F4
100
AcDbEntity
  8
0
370
     0
  6
Continuous
 62
     5
100
AcDb2dPolyline
 66
     1
 10
0.0
 20
0.0
 30
0.0
 70
   128
  0
VERTEX
  5
2F5
100
AcDbEntity
  8
0
  6
Continuous
 62
     5
100
AcDbVertex
100
AcDb2dVertex
 10
418.789187
 20
268.366528
 30
0.0
  0
VERTEX
  5
2F6
100
AcDbEntity
  8
0
  6
Continuous
 62
     5
100
AcDbVertex
100
AcDb2dVertex
 10
418.789187
 20
268.366528
 30
0.0
  0
VERTEX
  5
2F7
100
AcDbEntity
  8
0
  6
Continuous
 62
     5
100
AcDbVertex
100
AcDb2dVertex
 10
418.789187
 20
268.366528
 30
0.0
  0
VERTEX
  5
2F8
100
AcDbEntity
  8
0
  6
Continuous
 62
     5
100
AcDbVertex
100
AcDb2dVertex
 10
418.789187
 20
269.166281
 30
0.0
  0
SEQEND
  5
2F9
100
AcDbEntity
  8
0
  6
Continuous
 62
     5
  0
POLYLINE
  5
2FB
102
{ACAD_REACTORS
330
2FA
102
}
100
AcDbEntity
  8
0
370
     0
  6
Continuous
 62
     5
100
AcDb2dPolyline
 66
     1
 10
0.0
 20
0.0
 30
0.0
 70
   129
  0
VERTEX
  5
2FC
100
AcDbEntity
  8
0
  6
Continuous
 62
     5
100
AcDbVertex
100
AcDb2dVertex
 10
418.789187
 20
294.246035
 30
0.0
  0
VERTEX
  5
2FD
100
AcDbEntity
  8
0
  6
Continuous
 62
     5
100
AcDbVertex
100
AcDb2dVertex
 10
418.12252
 20
290.246035
 30
0.0
  0
VERTEX
  5
2FE
100
AcDbEntity
  8
0
  6
Continuous
 62
     5
100
AcDbVertex
100
AcDb2dVertex
 10
419.455853
 20
290.246035
 30
0.0
  0
SEQEND
  5
2FF
100
AcDbEntity
  8
0
  6
Continuous
 62
     5
  0
HATCH
  5
2FA
100
AcDbEntity
  8
0
  6
Continuous
 62
     5
100
AcDbHatch
 10
0.0
 20
0.0
 30
0.0
210
0.0
220
0.0
230
1.0
  2
SOLID
 70
     1
 71
     1
 91
        1
 92
        3
 72
     0
 73
     1
 93
        3
 10
418.78918682314611
 20
294.24603506729926
 10
418.12252015647942
 20
290.24603506729926
 10
419.4558534898128
 20
290.24603506729926
 97
        1
330
2FB
 75
     0
 76
     0
 98
        0
  0
POLYLINE
  5
301
102
{ACAD_REACTORS
330
300
102
}
100
AcDbEntity
  8
0
370
     0
  6
Continuous
 62
     5
100
AcDb2dPolyline
 66
     1
 10
0.0
 20
0.0
 30
0.0
 70
   129
  0
VERTEX
  5
302
100
AcDbEntity
  8
0
  6
Continuous
 62
     5
100
AcDbVertex
100
AcDb2dVertex
 10
418.789187
 20
264.366528
 30
0.0
  0
VERTEX
  5
303
100
AcDbEntity
  8
0
  6
Continuous
 62
     5
100
AcDbVertex
100
AcDb2dVertex
 10
419.455853
 20
268.366528
 30
0.0
  0
VERTEX
  5
304
100
AcDbEntity
  8
0
  6
Continuous
 62
     5
100
AcDbVertex
100
AcDb2dVertex
 10
418.12252
 20
268.366528
 30
0.0
  0
SEQEND
  5
305
100
AcDbEntity
  8
0
  6
Continuous
 62
     5
  0
HATCH
  5
300
100
AcDbEntity
  8
0
  6
Continuous
 62
     5
100
AcDbHatch
 10
0.0
 20
0.0
 30
0.0
210
0.0
220
0.0
230
1.0
  2
SOLID
 70
     1
 71
     1
 91
        1
 92
        3
 72
     0
 73
     1
 93
        3
 10
418.78918682314611
 20
264.36652762101022
 10
419.4558534898128
 20
268.36652762101022
 10
418.12252015647942
 20
268.36652762101022
 97
        1
330
301
 75
     0
 76
     0
 98
        0
  0
TEXT
  5
306
100
AcDbEntity
  8
0
  6
Continuous
 62
     5
100
AcDbText
 10
410.376119
 20
274.142392
 30
0.0
 40
10.797222
  1
30
 72
     5
 11
427.202255
 21
274.142392
 31
0.0
100
AcDbText
  0
ENDBLK
  5
307
100
AcDbEntity
  8
0
100
AcDbBlockEnd
  0
BLOCK
  5
313
100
AcDbEntity
  8
0
100
AcDbBlockBegin
  2
*E14
 70
     1
 10
0.0
 20
0.0
 30
0.0
  3
*E14
  1

  0
POLYLINE
  5
314
100
AcDbEntity
  8
0
370
     0
  6
Continuous
 62
     7
100
AcDb2dPolyline
 66
     1
 10
0.0
 20
0.0
 30
0.0
  0
VERTEX
  5
315
100
AcDbEntity
  8
0
  6
Continuous
 62
     7
100
AcDbVertex
100
AcDb2dVertex
 10
-405.398059
 20
63.566317
 30
0.0
  0
VERTEX
  5
316
100
AcDbEntity
  8
0
  6
Continuous
 62
     7
100
AcDbVertex
100
AcDb2dVertex
 10
-397.901073
 20
65.526165
 30
0.0
  0
VERTEX
  5
317
100
AcDbEntity
  8
0
  6
Continuous
 62
     7
100
AcDbVertex
100
AcDb2dVertex
 10
-390.380925
 20
67.409986
 30
0.0
  0
VERTEX
  5
318
100
AcDbEntity
  8
0
  6
Continuous
 62
     7
100
AcDbVertex
100
AcDb2dVertex
 10
-382.838803
 20
69.217589
 30
0.0
  0
VERTEX
  5
319
100
AcDbEntity
  8
0
  6
Continuous
 62
     7
100
AcDbVertex
100
AcDb2dVertex
 10
-375.275896
 20
70.948784
 30
0.0
  0
VERTEX
  5
31A
100
AcDbEntity
  8
0
  6
Continuous
 62
     7
100
AcDbVertex
100
AcDb2dVertex
 10
-367.693392
 20
72.60338
 30
0.0
  0
VERTEX
  5
31B
100
AcDbEntity
  8
0
  6
Continuous
 62
     7
100
AcDbVertex
100
AcDb2dVertex
 10
-360.092479
 20
74.181187
 30
0.0
  0
VERTEX
  5
31C
100
AcDbEntity
  8
0
  6
Continuous
 62
     7
100
AcDbVertex
100
AcDb2dVertex
 10
-352.474345
 20
75.682013
 30
0.0
  0
VERTEX
  5
31D
100
AcDbEntity
  8
0
  6
Continuous
 62
     7
100
AcDbVertex
100
AcDb2dVertex
 10
-344.840179
 20
77.10567
 30
0.0
  0
VERTEX
  5
31E
100
AcDbEntity
  8
0
  6
Continuous
 62
     7
100
AcDbVertex
100
AcDb2dVertex
 10
-337.191168
 20
78.451964
 30
0.0
  0
VERTEX
  5
31F
100
AcDbEntity
  8
0
  6
Continuous
 62
     7
100
AcDbVertex
100
AcDb2dVertex
 10
-329.528502
 20
79.720708
 30
0.0
  0
VERTEX
  5
320
100
AcDbEntity
  8
0
  6
Continuous
 62
     7
100
AcDbVertex
100
AcDb2dVertex
 10
-321.853368
 20
80.911709
 30
0.0
  0
VERTEX
  5
321
100
AcDbEntity
  8
0
  6
Continuous
 62
     7
100
AcDbVertex
100
AcDb2dVertex
 10
-314.166955
 20
82.024777
 30
0.0
  0
VERTEX
  5
322
100
AcDbEntity
  8
0
  6
Continuous
 62
     7
100
AcDbVertex
100
AcDb2dVertex
 10
-306.470451
 20
83.059722
 30
0.0
  0
VERTEX
  5
323
100
AcDbEntity
  8
0
  6
Continuous
 62
     7
100
AcDbVertex
100
AcDb2dVertex
 10
-298.765043
 20
84.016353
 30
0.0
  0
VERTEX
  5
324
100
AcDbEntity
  8
0
  6
Continuous
 62
     7
100
AcDbVertex
100
AcDb2dVertex
 10
-291.051922
 20
84.894479
 30
0.0
  0
VERTEX
  5
325
100
AcDbEntity
  8
0
  6
Continuous
 62
     7
100
AcDbVertex
100
AcDb2dVertex
 10
-283.332273
 20
85.693911
 30
0.0
  0
VERTEX
  5
326
100
AcDbEntity
  8
0
  6
Continuous
 62
     7
100
AcDbVertex
100
AcDb2dVertex
 10
-275.607287
 20
86.414457
 30
0.0
  0
VERTEX
  5
327
100
AcDbEntity
  8
0
  6
Continuous
 62
     7
100
AcDbVertex
100
AcDb2dVertex
 10
-267.878151
 20
87.055926
 30
0.0
  0
VERTEX
  5
328
100
AcDbEntity
  8
0
  6
Continuous
 62
     7
100
AcDbVertex
100
AcDb2dVertex
 10
-260.146053
 20
87.618129
 30
0.0
  0
VERTEX
  5
329
100
AcDbEntity
  8
0
  6
Continuous
 62
     7
100
AcDbVertex
100
AcDb2dVertex
 10
-252.412182
 20
88.100875
 30
0.0
  0
VERTEX
  5
32A
100
AcDbEntity
  8
0
  6
Continuous
 62
     7
100
AcDbVertex
100
AcDb2dVertex
 10
-247.783336
 20
88.32545
 30
0.0
  0
VERTEX
  5
32B
100
AcDbEntity
  8
0
  6
Continuous
 62
     7
100
AcDbVertex
100
AcDb2dVertex
 10
-243.145331
 20
88.469733
 30
0.0
  0
VERTEX
  5
32C
100
AcDbEntity
  8
0
  6
Continuous
 62
     7
100
AcDbVertex
100
AcDb2dVertex
 10
-238.500177
 20
88.533953
 30
0.0
  0
VERTEX
  5
32D
100
AcDbEntity
  8
0
  6
Continuous
 62
     7
100
AcDbVertex
100
AcDb2dVertex
 10
-233.849884
 20
88.518341
 30
0.0
  0
VERTEX
  5
32E
100
AcDbEntity
  8
0
  6
Continuous
 62
     7
100
AcDbVertex
100
AcDb2dVertex
 10
-229.196461
 20
88.423124
 30
0.0
  0
VERTEX
  5
32F
100
AcDbEntity
  8
0
  6
Continuous
 62
     7
100
AcDbVertex
100
AcDb2dVertex
 10
-224.541918
 20
88.248533
 30
0.0
  0
VERTEX
  5
330
100
AcDbEntity
  8
0
  6
Continuous
 62
     7
100
AcDbVertex
100
AcDb2dVertex
 10
-219.888265
 20
87.994797
 30
0.0
  0
VERTEX
  5
331
100
AcDbEntity
  8
0
  6
Continuous
 62
     7
100
AcDbVertex
100
AcDb2dVertex
 10
-215.237511
 20
87.662144
 30
0.0
  0
VERTEX
  5
332
100
AcDbEntity
  8
0
  6
Continuous
 62
     7
100
AcDbVertex
100
AcDb2dVertex
 10
-210.591665
 20
87.250806
 30
0.0
  0
VERTEX
  5
333
100
AcDbEntity
  8
0
  6
Continuous
 62
     7
100
AcDbVertex
100
AcDb2dVertex
 10
-205.952737
 20
86.76101
 30
0.0
  0
VERTEX
  5
334
100
AcDbEntity
  8
0
  6
Continuous
 62
     7
100
AcDbVertex
100
AcDb2dVertex
 10
-201.322738
 20
86.192986
 30
0.0
  0
VERTEX
  5
335
100
AcDbEntity
  8
0
  6
Continuous
 62
     7
100
AcDbVertex
100
AcDb2dVertex
 10
-196.703675
 20
85.546964
 30
0.0
  0
VERTEX
  5
336
100
AcDbEntity
  8
0
  6
Continuous
 62
     7
100
AcDbVertex
100
AcDb2dVertex
 10
-192.09756
 20
84.823172
 30
0.0
  0
VERTEX
  5
337
100
AcDbEntity
  8
0
  6
Continuous
 62
     7
100
AcDbVertex
100
AcDb2dVertex
 10
-187.506401
 20
84.021841
 30
0.0
  0
VERTEX
  5
338
100
AcDbEntity
  8
0
  6
Continuous
 62
     7
100
AcDbVertex
100
AcDb2dVertex
 10
-182.932208
 20
83.1432
 30
0.0
  0
VERTEX
  5
339
100
AcDbEntity
  8
0
  6
Continuous
 62
     7
100
AcDbVertex
100
AcDb2dVertex
 10
-178.376991
 20
82.187477
 30
0.0
  0
VERTEX
  5
33A
100
AcDbEntity
  8
0
  6
Continuous
 62
     7
100
AcDbVertex
100
AcDb2dVertex
 10
-173.842759
 20
81.154903
 30
0.0
  0
VERTEX
  5
33B
100
AcDbEntity
  8
0
  6
Continuous
 62
     7
100
AcDbVertex
100
AcDb2dVertex
 10
-169.331522
 20
80.045706
 30
0.0
  0
VERTEX
  5
33C
100
AcDbEntity
  8
0
  6
Continuous
 62
     7
100
AcDbVertex
100
AcDb2dVertex
 10
-164.845289
 20
78.860116
 30
0.0
  0
VERTEX
  5
33D
100
AcDbEntity
  8
0
  6
Continuous
 62
     7
100
AcDbVertex
100
AcDb2dVertex
 10
-160.38607
 20
77.598363
 30
0.0
  0
SEQEND
  5
33E
100
AcDbEntity
  8
0
  6
Continuous
 62
     7
  0
ENDBLK
  5
33F
100
AcDbEntity
  8
0
100
AcDbBlockEnd
  0
BLOCK
  5
347
100
AcDbEntity
  8
0
100
AcDbBlockBegin
  2
*D15
 70
     1
 10
0.0
 20
0.0
 30
0.0
  3
*D15
  1

  0
LINE
  5
348
100
AcDbEntity
  8
0
370
     0
  6
Continuous
 62
     5
100
AcDbLine
 10
-405.365223
 20
47.528931
 30
0.0
 11
-405.365223
 21
11.626434
 31
0.0
  0
LINE
  5
349
100
AcDbEntity
  8
0
370
     0
  6
Continuous
 62
     5
100
AcDbLine
 10
-160.427189
 20
48.058201
 30
0.0
 11
-160.427189
 21
11.626434
 31
0.0
  0
POLYLINE
  5
34A
100
AcDbEntity
  8
0
370
     0
  6
Continuous
 62
     5
100
AcDb2dPolyline
 66
     1
 10
0.0
 20
0.0
 30
0.0
 70
   128
  0
VERTEX
  5
34B
100
AcDbEntity
  8
0
  6
Continuous
 62
     5
100
AcDbVertex
100
AcDb2dVertex
 10
-401.365223
 20
14.626434
 30
0.0
  0
VERTEX
  5
34C
100
AcDbEntity
  8
0
  6
Continuous
 62
     5
100
AcDbVertex
100
AcDb2dVertex
 10
-401.365223
 20
14.626434
 30
0.0
  0
VERTEX
  5
34D
100
AcDbEntity
  8
0
  6
Continuous
 62
     5
100
AcDbVertex
100
AcDb2dVertex
 10
-401.365223
 20
14.626434
 30
0.0
  0
VERTEX
  5
34E
100
AcDbEntity
  8
0
  6
Continuous
 62
     5
100
AcDbVertex
100
AcDb2dVertex
 10
-297.015808
 20
14.626434
 30
0.0
  0
SEQEND
  5
34F
100
AcDbEntity
  8
0
  6
Continuous
 62
     5
  0
POLYLINE
  5
350
100
AcDbEntity
  8
0
370
     0
  6
Continuous
 62
     5
100
AcDb2dPolyline
 66
     1
 10
0.0
 20
0.0
 30
0.0
 70
   128
  0
VERTEX
  5
351
100
AcDbEntity
  8
0
  6
Continuous
 62
     5
100
AcDbVertex
100
AcDb2dVertex
 10
-164.427189
 20
14.626434
 30
0.0
  0
VERTEX
  5
352
100
AcDbEntity
  8
0
  6
Continuous
 62
     5
100
AcDbVertex
100
AcDb2dVertex
 10
-164.427189
 20
14.626434
 30
0.0
  0
VERTEX
  5
353
100
AcDbEntity
  8
0
  6
Continuous
 62
     5
100
AcDbVertex
100
AcDb2dVertex
 10
-164.427189
 20
14.626434
 30
0.0
  0
VERTEX
  5
354
100
AcDbEntity
  8
0
  6
Continuous
 62
     5
100
AcDbVertex
100
AcDb2dVertex
 10
-268.776604
 20
14.626434
 30
0.0
  0
SEQEND
  5
355
100
AcDbEntity
  8
0
  6
Continuous
 62
     5
  0
POLYLINE
  5
357
102
{ACAD_REACTORS
330
356
102
}
100
AcDbEntity
  8
0
370
     0
  6
Continuous
 62
     5
100
AcDb2dPolyline
 66
     1
 10
0.0
 20
0.0
 30
0.0
 70
   129
  0
VERTEX
  5
358
100
AcDbEntity
  8
0
  6
Continuous
 62
     5
100
AcDbVertex
100
AcDb2dVertex
 10
-405.365223
 20
14.626434
 30
0.0
  0
VERTEX
  5
359
100
AcDbEntity
  8
0
  6
Continuous
 62
     5
100
AcDbVertex
100
AcDb2dVertex
 10
-401.365223
 20
13.959767
 30
0.0
  0
VERTEX
  5
35A
100
AcDbEntity
  8
0
  6
Continuous
 62
     5
100
AcDbVertex
100
AcDb2dVertex
 10
-401.365223
 20
15.2931
 30
0.0
  0
SEQEND
  5
35B
100
AcDbEntity
  8
0
  6
Continuous
 62
     5
  0
HATCH
  5
356
100
AcDbEntity
  8
0
  6
Continuous
 62
     5
100
AcDbHatch
 10
0.0
 20
0.0
 30
0.0
210
0.0
220
0.0
230
1.0
  2
SOLID
 70
     1
 71
     1
 91
        1
 92
        3
 72
     0
 73
     1
 93
        3
 10
-405.36522267792253
 20
14.626433579299182
 10
-401.36522267792253
 20
13.959766912632515
 10
-401.36522267792253
 20
15.293100245965848
 97
        1
330
357
 75
     0
 76
     0
 98
        0
  0
POLYLINE
  5
35D
102
{ACAD_REACTORS
330
35C
102
}
100
AcDbEntity
  8
0
370
     0
  6
Continuous
 62
     5
100
AcDb2dPolyline
 66
     1
 10
0.0
 20
0.0
 30
0.0
 70
   129
  0
VERTEX
  5
35E
100
AcDbEntity
  8
0
  6
Continuous
 62
     5
100
AcDbVertex
100
AcDb2dVertex
 10
-160.427189
 20
14.626434
 30
0.0
  0
VERTEX
  5
35F
100
AcDbEntity
  8
0
  6
Continuous
 62
     5
100
AcDbVertex
100
AcDb2dVertex
 10
-164.427189
 20
15.2931
 30
0.0
  0
VERTEX
  5
360
100
AcDbEntity
  8
0
  6
Continuous
 62
     5
100
AcDbVertex
100
AcDb2dVertex
 10
-164.427189
 20
13.959767
 30
0.0
  0
SEQEND
  5
361
100
AcDbEntity
  8
0
  6
Continuous
 62
     5
  0
HATCH
  5
35C
100
AcDbEntity
  8
0
  6
Continuous
 62
     5
100
AcDbHatch
 10
0.0
 20
0.0
 30
0.0
210
0.0
220
0.0
230
1.0
  2
SOLID
 70
     1
 71
     1
 91
        1
 92
        3
 72
     0
 73
     1
 93
        3
 10
-160.42718937974516
 20
14.626433579299182
 10
-164.42718937974516
 20
15.293100245965848
 10
-164.42718937974516
 20
13.959766912632515
 97
        1
330
35D
 75
     0
 76
     0
 98
        0
  0
TEXT
  5
362
100
AcDbEntity
  8
0
  6
Continuous
 62
     5
100
AcDbText
 10
-295.515808
 20
9.462545
 30
0.0
 40
10.797222
  1
245
 72
     5
 11
-270.276604
 21
9.462545
 31
0.0
100
AcDbText
  0
ENDBLK
  5
363
100
AcDbEntity
  8
0
100
AcDbBlockEnd
  0
BLOCK
  5
366
100
AcDbEntity
  8
0
100
AcDbBlockBegin
  2
*D16
 70
     1
 10
0.0
 20
0.0
 30
0.0
  3
*D16
  1

  0
LINE
  5
367
100
AcDbEntity
  8
0
370
     0
  6
Continuous
 62
     5
100
AcDbLine
 10
-408.220361
 20
49.57871
 30
0.0
 11
-435.945183
 21
49.57871
 31
0.0
  0
POLYLINE
  5
368
100
AcDbEntity
  8
0
370
     0
  6
Continuous
 62
     5
100
AcDb2dPolyline
 66
     1
 10
0.0
 20
0.0
 30
0.0
 70
   128
  0
VERTEX
  5
369
100
AcDbEntity
  8
0
  6
Continuous
 62
     5
100
AcDbVertex
100
AcDb2dVertex
 10
-408.42313
 20
63.582717
 30
0.0
  0
VERTEX
  5
36A
100
AcDbEntity
  8
0
  6
Continuous
 62
     5
100
AcDbVertex
100
AcDb2dVertex
 10
-409.119047
 20
63.582717
 30
0.0
  0
SEQEND
  5
36B
100
AcDbEntity
  8
0
  6
Continuous
 62
     5
  0
POLYLINE
  5
36C
100
AcDbEntity
  8
0
370
     0
  6
Continuous
 62
     5
100
AcDb2dPolyline
 66
     1
 10
0.0
 20
0.0
 30
0.0
 70
   128
  0
VERTEX
  5
36D
100
AcDbEntity
  8
0
  6
Continuous
 62
     5
100
AcDbVertex
100
AcDb2dVertex
 10
-428.945183
 20
63.582717
 30
0.0
  0
VERTEX
  5
36E
100
AcDbEntity
  8
0
  6
Continuous
 62
     5
100
AcDbVertex
100
AcDb2dVertex
 10
-435.945183
 20
63.582717
 30
0.0
  0
SEQEND
  5
36F
100
AcDbEntity
  8
0
  6
Continuous
 62
     5
  0
POLYLINE
  5
370
100
AcDbEntity
  8
0
370
     0
  6
Continuous
 62
     5
100
AcDb2dPolyline
 66
     1
 10
0.0
 20
0.0
 30
0.0
 70
   128
  0
VERTEX
  5
371
100
AcDbEntity
  8
0
  6
Continuous
 62
     5
100
AcDbVertex
100
AcDb2dVertex
 10
-432.945183
 20
41.57871
 30
0.0
  0
VERTEX
  5
372
100
AcDbEntity
  8
0
  6
Continuous
 62
     5
100
AcDbVertex
100
AcDb2dVertex
 10
-432.945183
 20
45.57871
 30
0.0
  0
SEQEND
  5
373
100
AcDbEntity
  8
0
  6
Continuous
 62
     5
  0
POLYLINE
  5
374
100
AcDbEntity
  8
0
370
     0
  6
Continuous
 62
     5
100
AcDb2dPolyline
 66
     1
 10
0.0
 20
0.0
 30
0.0
 70
   128
  0
VERTEX
  5
375
100
AcDbEntity
  8
0
  6
Continuous
 62
     5
100
AcDbVertex
100
AcDb2dVertex
 10
-432.945183
 20
49.57871
 30
0.0
  0
VERTEX
  5
376
100
AcDbEntity
  8
0
  6
Continuous
 62
     5
100
AcDbVertex
100
AcDb2dVertex
 10
-432.945183
 20
63.582717
 30
0.0
  0
SEQEND
  5
377
100
AcDbEntity
  8
0
  6
Continuous
 62
     5
  0
POLYLINE
  5
378
100
AcDbEntity
  8
0
370
     0
  6
Continuous
 62
     5
100
AcDb2dPolyline
 66
     1
 10
0.0
 20
0.0
 30
0.0
 70
   128
  0
VERTEX
  5
379
100
AcDbEntity
  8
0
  6
Continuous
 62
     5
100
AcDbVertex
100
AcDb2dVertex
 10
-428.945183
 20
71.582717
 30
0.0
  0
VERTEX
  5
37A
100
AcDbEntity
  8
0
  6
Continuous
 62
     5
100
AcDbVertex
100
AcDb2dVertex
 10
-432.945183
 20
71.582717
 30
0.0
  0
VERTEX
  5
37B
100
AcDbEntity
  8
0
  6
Continuous
 62
     5
100
AcDbVertex
100
AcDb2dVertex
 10
-432.945183
 20
67.582717
 30
0.0
  0
SEQEND
  5
37C
100
AcDbEntity
  8
0
  6
Continuous
 62
     5
  0
POLYLINE
  5
37E
102
{ACAD_REACTORS
330
37D
102
}
100
AcDbEntity
  8
0
370
     0
  6
Continuous
 62
     5
100
AcDb2dPolyline
 66
     1
 10
0.0
 20
0.0
 30
0.0
 70
   129
  0
VERTEX
  5
37F
100
AcDbEntity
  8
0
  6
Continuous
 62
     5
100
AcDbVertex
100
AcDb2dVertex
 10
-432.945183
 20
63.582717
 30
0.0
  0
VERTEX
  5
380
100
AcDbEntity
  8
0
  6
Continuous
 62
     5
100
AcDbVertex
100
AcDb2dVertex
 10
-432.278517
 20
67.582717
 30
0.0
  0
VERTEX
  5
381
100
AcDbEntity
  8
0
  6
Continuous
 62
     5
100
AcDbVertex
100
AcDb2dVertex
 10
-433.61185
 20
67.582717
 30
0.0
  0
SEQEND
  5
382
100
AcDbEntity
  8
0
  6
Continuous
 62
     5
  0
HATCH
  5
37D
100
AcDbEntity
  8
0
  6
Continuous
 62
     5
100
AcDbHatch
 10
0.0
 20
0.0
 30
0.0
210
0.0
220
0.0
230
1.0
  2
SOLID
 70
     1
 71
     1
 91
        1
 92
        3
 72
     0
 73
     1
 93
        3
 10
-432.94518327576338
 20
63.582717417510956
 10
-432.2785166090967
 20
67.582717417510963
 10
-433.61184994243007
 20
67.582717417510963
 97
        1
330
37E
 75
     0
 76
     0
 98
        0
  0
POLYLINE
  5
384
102
{ACAD_REACTORS
330
383
102
}
100
AcDbEntity
  8
0
370
     0
  6
Continuous
 62
     5
100
AcDb2dPolyline
 66
     1
 10
0.0
 20
0.0
 30
0.0
 70
   129
  0
VERTEX
  5
385
100
AcDbEntity
  8
0
  6
Continuous
 62
     5
100
AcDbVertex
100
AcDb2dVertex
 10
-432.945183
 20
49.57871
 30
0.0
  0
VERTEX
  5
386
100
AcDbEntity
  8
0
  6
Continuous
 62
     5
100
AcDbVertex
100
AcDb2dVertex
 10
-433.61185
 20
45.57871
 30
0.0
  0
VERTEX
  5
387
100
AcDbEntity
  8
0
  6
Continuous
 62
     5
100
AcDbVertex
100
AcDb2dVertex
 10
-432.278517
 20
45.57871
 30
0.0
  0
SEQEND
  5
388
100
AcDbEntity
  8
0
  6
Continuous
 62
     5
  0
HATCH
  5
383
100
AcDbEntity
  8
0
  6
Continuous
 62
     5
100
AcDbHatch
 10
0.0
 20
0.0
 30
0.0
210
0.0
220
0.0
230
1.0
  2
SOLID
 70
     1
 71
     1
 91
        1
 92
        3
 72
     0
 73
     1
 93
        3
 10
-432.94518327576338
 20
49.578709901734911
 10
-433.61184994243007
 20
45.578709901734911
 10
-432.2785166090967
 20
45.578709901734911
 97
        1
330
384
 75
     0
 76
     0
 98
        0
  0
TEXT
  5
389
100
AcDbEntity
  8
0
  6
Continuous
 62
     5
100
AcDbText
 10
-427.445183
 20
66.418828
 30
0.0
 40
10.797222
  1
14
 72
     5
 11
-410.619047
 21
66.418828
 31
0.0
100
AcDbText
  0
ENDBLK
  5
38A
100
AcDbEntity
  8
0
100
AcDbBlockEnd
  0
BLOCK
  5
38D
100
AcDbEntity
  8
0
100
AcDbBlockBegin
  2
*D17
 70
     1
 10
0.0
 20
0.0
 30
0.0
  3
*D17
  1

  0
LINE
  5
38E
100
AcDbEntity
  8
0
370
     0
  6
Continuous
 62
     5
100
AcDbLine
 10
-158.403936
 20
49.603805
 30
0.0
 11
-150.081165
 21
49.603805
 31
0.0
  0
LINE
  5
38F
100
AcDbEntity
  8
0
370
     0
  6
Continuous
 62
     5
100
AcDbLine
 10
-158.533893
 20
77.592998
 30
0.0
 11
-150.081165
 21
77.592998
 31
0.0
  0
POLYLINE
  5
390
100
AcDbEntity
  8
0
370
     0
  6
Continuous
 62
     5
100
AcDb2dPolyline
 66
     1
 10
0.0
 20
0.0
 30
0.0
 70
   128
  0
VERTEX
  5
391
100
AcDbEntity
  8
0
  6
Continuous
 62
     5
100
AcDbVertex
100
AcDb2dVertex
 10
-153.081165
 20
41.603805
 30
0.0
  0
VERTEX
  5
392
100
AcDbEntity
  8
0
  6
Continuous
 62
     5
100
AcDbVertex
100
AcDb2dVertex
 10
-153.081165
 20
45.603805
 30
0.0
  0
SEQEND
  5
393
100
AcDbEntity
  8
0
  6
Continuous
 62
     5
  0
POLYLINE
  5
394
100
AcDbEntity
  8
0
370
     0
  6
Continuous
 62
     5
100
AcDb2dPolyline
 66
     1
 10
0.0
 20
0.0
 30
0.0
 70
   128
  0
VERTEX
  5
395
100
AcDbEntity
  8
0
  6
Continuous
 62
     5
100
AcDbVertex
100
AcDb2dVertex
 10
-153.081165
 20
49.603805
 30
0.0
  0
VERTEX
  5
396
100
AcDbEntity
  8
0
  6
Continuous
 62
     5
100
AcDbVertex
100
AcDb2dVertex
 10
-153.081165
 20
77.592998
 30
0.0
  0
SEQEND
  5
397
100
AcDbEntity
  8
0
  6
Continuous
 62
     5
  0
POLYLINE
  5
398
100
AcDbEntity
  8
0
370
     0
  6
Continuous
 62
     5
100
AcDb2dPolyline
 66
     1
 10
0.0
 20
0.0
 30
0.0
 70
   128
  0
VERTEX
  5
399
100
AcDbEntity
  8
0
  6
Continuous
 62
     5
100
AcDbVertex
100
AcDb2dVertex
 10
-149.081165
 20
85.592998
 30
0.0
  0
VERTEX
  5
39A
100
AcDbEntity
  8
0
  6
Continuous
 62
     5
100
AcDbVertex
100
AcDb2dVertex
 10
-153.081165
 20
85.592998
 30
0.0
  0
VERTEX
  5
39B
100
AcDbEntity
  8
0
  6
Continuous
 62
     5
100
AcDbVertex
100
AcDb2dVertex
 10
-153.081165
 20
81.592998
 30
0.0
  0
SEQEND
  5
39C
100
AcDbEntity
  8
0
  6
Continuous
 62
     5
  0
POLYLINE
  5
39E
102
{ACAD_REACTORS
330
39D
102
}
100
AcDbEntity
  8
0
370
     0
  6
Continuous
 62
     5
100
AcDb2dPolyline
 66
     1
 10
0.0
 20
0.0
 30
0.0
 70
   129
  0
VERTEX
  5
39F
100
AcDbEntity
  8
0
  6
Continuous
 62
     5
100
AcDbVertex
100
AcDb2dVertex
 10
-153.081165
 20
77.592998
 30
0.0
  0
VERTEX
  5
3A0
100
AcDbEntity
  8
0
  6
Continuous
 62
     5
100
AcDbVertex
100
AcDb2dVertex
 10
-152.414499
 20
81.592998
 30
0.0
  0
VERTEX
  5
3A1
100
AcDbEntity
  8
0
  6
Continuous
 62
     5
100
AcDbVertex
100
AcDb2dVertex
 10
-153.747832
 20
81.592998
 30
0.0
  0
SEQEND
  5
3A2
100
AcDbEntity
  8
0
  6
Continuous
 62
     5
  0
HATCH
  5
39D
100
AcDbEntity
  8
0
  6
Continuous
 62
     5
100
AcDbHatch
 10
0.0
 20
0.0
 30
0.0
210
0.0
220
0.0
230
1.0
  2
SOLID
 70
     1
 71
     1
 91
        1
 92
        3
 72
     0
 73
     1
 93
        3
 10
-153.08116536510229
 20
77.592998482043171
 10
-152.41449869843564
 20
81.592998482043171
 10
-153.74783203176895
 20
81.592998482043171
 97
        1
330
39E
 75
     0
 76
     0
 98
        0
  0
POLYLINE
  5
3A4
102
{ACAD_REACTORS
330
3A3
102
}
100
AcDbEntity
  8
0
370
     0
  6
Continuous
 62
     5
100
AcDb2dPolyline
 66
     1
 10
0.0
 20
0.0
 30
0.0
 70
   129
  0
VERTEX
  5
3A5
100
AcDbEntity
  8
0
  6
Continuous
 62
     5
100
AcDbVertex
100
AcDb2dVertex
 10
-153.081165
 20
49.603805
 30
0.0
  0
VERTEX
  5
3A6
100
AcDbEntity
  8
0
  6
Continuous
 62
     5
100
AcDbVertex
100
AcDb2dVertex
 10
-153.747832
 20
45.603805
 30
0.0
  0
VERTEX
  5
3A7
100
AcDbEntity
  8
0
  6
Continuous
 62
     5
100
AcDbVertex
100
AcDb2dVertex
 10
-152.414499
 20
45.603805
 30
0.0
  0
SEQEND
  5
3A8
100
AcDbEntity
  8
0
  6
Continuous
 62
     5
  0
HATCH
  5
3A3
100
AcDbEntity
  8
0
  6
Continuous
 62
     5
100
AcDbHatch
 10
0.0
 20
0.0
 30
0.0
210
0.0
220
0.0
230
1.0
  2
SOLID
 70
     1
 71
     1
 91
        1
 92
        3
 72
     0
 73
     1
 93
        3
 10
-153.08116536510229
 20
49.603805309413325
 10
-153.74783203176895
 20
45.603805309413325
 10
-152.41449869843564
 20
45.603805309413325
 97
        1
330
3A4
 75
     0
 76
     0
 98
        0
  0
TEXT
  5
3A9
100
AcDbEntity
  8
0
  6
Continuous
 62
     5
100
AcDbText
 10
-147.581165
 20
80.42911
 30
0.0
 40
10.797222
  1
28
 72
     5
 11
-130.755029
 21
80.42911
 31
0.0
100
AcDbText
  0
ENDBLK
  5
3AA
100
AcDbEntity
  8
0
100
AcDbBlockEnd
  0
BLOCK
  5
3AD
100
AcDbEntity
  8
0
100
AcDbBlockBegin
  2
*D18
 70
     1
 10
0.0
 20
0.0
 30
0.0
  3
*D18
  1

  0
LINE
  5
3AE
100
AcDbEntity
  8
0
370
     0
  6
Continuous
 62
     5
100
AcDbLine
 10
-237.353463
 20
49.584984
 30
0.0
 11
-237.353463
 21
49.584984
 31
0.0
  0
LINE
  5
3AF
100
AcDbEntity
  8
0
370
     0
  6
Continuous
 62
     5
100
AcDbLine
 10
-236.857335
 20
88.535199
 30
0.0
 11
-234.353463
 21
88.535199
 31
0.0
  0
POLYLINE
  5
3B0
100
AcDbEntity
  8
0
370
     0
  6
Continuous
 62
     5
100
AcDb2dPolyline
 66
     1
 10
0.0
 20
0.0
 30
0.0
 70
   128
  0
VERTEX
  5
3B1
100
AcDbEntity
  8
0
  6
Continuous
 62
     5
100
AcDbVertex
100
AcDb2dVertex
 10
-237.353463
 20
53.584984
 30
0.0
  0
VERTEX
  5
3B2
100
AcDbEntity
  8
0
  6
Continuous
 62
     5
100
AcDbVertex
100
AcDb2dVertex
 10
-237.353463
 20
53.584984
 30
0.0
  0
VERTEX
  5
3B3
100
AcDbEntity
  8
0
  6
Continuous
 62
     5
100
AcDbVertex
100
AcDb2dVertex
 10
-237.353463
 20
53.584984
 30
0.0
  0
VERTEX
  5
3B4
100
AcDbEntity
  8
0
  6
Continuous
 62
     5
100
AcDbVertex
100
AcDb2dVertex
 10
-237.353463
 20
58.920092
 30
0.0
  0
SEQEND
  5
3B5
100
AcDbEntity
  8
0
  6
Continuous
 62
     5
  0
POLYLINE
  5
3B6
100
AcDbEntity
  8
0
370
     0
  6
Continuous
 62
     5
100
AcDb2dPolyline
 66
     1
 10
0.0
 20
0.0
 30
0.0
 70
   128
  0
VERTEX
  5
3B7
100
AcDbEntity
  8
0
  6
Continuous
 62
     5
100
AcDbVertex
100
AcDb2dVertex
 10
-237.353463
 20
84.535199
 30
0.0
  0
VERTEX
  5
3B8
100
AcDbEntity
  8
0
  6
Continuous
 62
     5
100
AcDbVertex
100
AcDb2dVertex
 10
-237.353463
 20
84.535199
 30
0.0
  0
VERTEX
  5
3B9
100
AcDbEntity
  8
0
  6
Continuous
 62
     5
100
AcDbVertex
100
AcDb2dVertex
 10
-237.353463
 20
84.535199
 30
0.0
  0
VERTEX
  5
3BA
100
AcDbEntity
  8
0
  6
Continuous
 62
     5
100
AcDbVertex
100
AcDb2dVertex
 10
-237.353463
 20
79.200092
 30
0.0
  0
SEQEND
  5
3BB
100
AcDbEntity
  8
0
  6
Continuous
 62
     5
  0
POLYLINE
  5
3BD
102
{ACAD_REACTORS
330
3BC
102
}
100
AcDbEntity
  8
0
370
     0
  6
Continuous
 62
     5
100
AcDb2dPolyline
 66
     1
 10
0.0
 20
0.0
 30
0.0
 70
   129
  0
VERTEX
  5
3BE
100
AcDbEntity
  8
0
  6
Continuous
 62
     5
100
AcDbVertex
100
AcDb2dVertex
 10
-237.353463
 20
49.584984
 30
0.0
  0
VERTEX
  5
3BF
100
AcDbEntity
  8
0
  6
Continuous
 62
     5
100
AcDbVertex
100
AcDb2dVertex
 10
-236.686797
 20
53.584984
 30
0.0
  0
VERTEX
  5
3C0
100
AcDbEntity
  8
0
  6
Continuous
 62
     5
100
AcDbVertex
100
AcDb2dVertex
 10
-238.02013
 20
53.584984
 30
0.0
  0
SEQEND
  5
3C1
100
AcDbEntity
  8
0
  6
Continuous
 62
     5
  0
HATCH
  5
3BC
100
AcDbEntity
  8
0
  6
Continuous
 62
     5
100
AcDbHatch
 10
0.0
 20
0.0
 30
0.0
210
0.0
220
0.0
230
1.0
  2
SOLID
 70
     1
 71
     1
 91
        1
 92
        3
 72
     0
 73
     1
 93
        3
 10
-237.35346319738366
 20
49.584984013071434
 10
-236.686796530717
 20
53.584984013071434
 10
-238.02012986405032
 20
53.584984013071434
 97
        1
330
3BD
 75
     0
 76
     0
 98
        0
  0
POLYLINE
  5
3C3
102
{ACAD_REACTORS
330
3C2
102
}
100
AcDbEntity
  8
0
370
     0
  6
Continuous
 62
     5
100
AcDb2dPolyline
 66
     1
 10
0.0
 20
0.0
 30
0.0
 70
   129
  0
VERTEX
  5
3C4
100
AcDbEntity
  8
0
  6
Continuous
 62
     5
100
AcDbVertex
100
AcDb2dVertex
 10
-237.353463
 20
88.535199
 30
0.0
  0
VERTEX
  5
3C5
100
AcDbEntity
  8
0
  6
Continuous
 62
     5
100
AcDbVertex
100
AcDb2dVertex
 10
-238.02013
 20
84.535199
 30
0.0
  0
VERTEX
  5
3C6
100
AcDbEntity
  8
0
  6
Continuous
 62
     5
100
AcDbVertex
100
AcDb2dVertex
 10
-236.686797
 20
84.535199
 30
0.0
  0
SEQEND
  5
3C7
100
AcDbEntity
  8
0
  6
Continuous
 62
     5
  0
HATCH
  5
3C2
100
AcDbEntity
  8
0
  6
Continuous
 62
     5
100
AcDbHatch
 10
0.0
 20
0.0
 30
0.0
210
0.0
220
0.0
230
1.0
  2
SOLID
 70
     1
 71
     1
 91
        1
 92
        3
 72
     0
 73
     1
 93
        3
 10
-237.35346319738366
 20
88.535199483971667
 10
-238.02012986405032
 20
84.535199483971667
 10
-236.686796530717
 20
84.535199483971667
 97
        1
330
3C3
 75
     0
 76
     0
 98
        0
  0
TEXT
  5
3C8
100
AcDbEntity
  8
0
  6
Continuous
 62
     5
100
AcDbText
 10
-245.766531
 20
63.896203
 30
0.0
 40
10.797222
  1
39
 72
     5
 11
-228.940395
 21
63.896203
 31
0.0
100
AcDbText
  0
ENDBLK
  5
3C9
100
AcDbEntity
  8
0
100
AcDbBlockEnd
  0
BLOCK
  5
3CC
100
AcDbEntity
  8
0
100
AcDbBlockBegin
  2
*D19
 70
     1
 10
0.0
 20
0.0
 30
0.0
  3
*D19
  1

  0
LINE
  5
3CD
100
AcDbEntity
  8
0
370
     0
  6
Continuous
 62
     5
100
AcDbLine
 10
-252.411536
 20
42.273118
 30
0.0
 11
-252.411536
 21
23.744446
 31
0.0
  0
LINE
  5
3CE
100
AcDbEntity
  8
0
370
     0
  6
Continuous
 62
     5
100
AcDbLine
 10
-160.406711
 20
42.273118
 30
0.0
 11
-160.406711
 21
23.744446
 31
0.0
  0
POLYLINE
  5
3CF
100
AcDbEntity
  8
0
370
     0
  6
Continuous
 62
     5
100
AcDb2dPolyline
 66
     1
 10
0.0
 20
0.0
 30
0.0
 70
   128
  0
VERTEX
  5
3D0
100
AcDbEntity
  8
0
  6
Continuous
 62
     5
100
AcDbVertex
100
AcDb2dVertex
 10
-248.411536
 20
26.744446
 30
0.0
  0
VERTEX
  5
3D1
100
AcDbEntity
  8
0
  6
Continuous
 62
     5
100
AcDbVertex
100
AcDb2dVertex
 10
-248.411536
 20
26.744446
 30
0.0
  0
VERTEX
  5
3D2
100
AcDbEntity
  8
0
  6
Continuous
 62
     5
100
AcDbVertex
100
AcDb2dVertex
 10
-248.411536
 20
26.744446
 30
0.0
  0
VERTEX
  5
3D3
100
AcDbEntity
  8
0
  6
Continuous
 62
     5
100
AcDbVertex
100
AcDb2dVertex
 10
-219.265657
 20
26.744446
 30
0.0
  0
SEQEND
  5
3D4
100
AcDbEntity
  8
0
  6
Continuous
 62
     5
  0
POLYLINE
  5
3D5
100
AcDbEntity
  8
0
370
     0
  6
Continuous
 62
     5
100
AcDb2dPolyline
 66
     1
 10
0.0
 20
0.0
 30
0.0
 70
   128
  0
VERTEX
  5
3D6
100
AcDbEntity
  8
0
  6
Continuous
 62
     5
100
AcDbVertex
100
AcDb2dVertex
 10
-164.406711
 20
26.744446
 30
0.0
  0
VERTEX
  5
3D7
100
AcDbEntity
  8
0
  6
Continuous
 62
     5
100
AcDbVertex
100
AcDb2dVertex
 10
-164.406711
 20
26.744446
 30
0.0
  0
VERTEX
  5
3D8
100
AcDbEntity
  8
0
  6
Continuous
 62
     5
100
AcDbVertex
100
AcDb2dVertex
 10
-164.406711
 20
26.744446
 30
0.0
  0
VERTEX
  5
3D9
100
AcDbEntity
  8
0
  6
Continuous
 62
     5
100
AcDbVertex
100
AcDb2dVertex
 10
-193.552589
 20
26.744446
 30
0.0
  0
SEQEND
  5
3DA
100
AcDbEntity
  8
0
  6
Continuous
 62
     5
  0
POLYLINE
  5
3DC
102
{ACAD_REACTORS
330
3DB
102
}
100
AcDbEntity
  8
0
370
     0
  6
Continuous
 62
     5
100
AcDb2dPolyline
 66
     1
 10
0.0
 20
0.0
 30
0.0
 70
   129
  0
VERTEX
  5
3DD
100
AcDbEntity
  8
0
  6
Continuous
 62
     5
100
AcDbVertex
100
AcDb2dVertex
 10
-252.411536
 20
26.744446
 30
0.0
  0
VERTEX
  5
3DE
100
AcDbEntity
  8
0
  6
Continuous
 62
     5
100
AcDbVertex
100
AcDb2dVertex
 10
-248.411536
 20
26.07778
 30
0.0
  0
VERTEX
  5
3DF
100
AcDbEntity
  8
0
  6
Continuous
 62
     5
100
AcDbVertex
100
AcDb2dVertex
 10
-248.411536
 20
27.411113
 30
0.0
  0
SEQEND
  5
3E0
100
AcDbEntity
  8
0
  6
Continuous
 62
     5
  0
HATCH
  5
3DB
100
AcDbEntity
  8
0
  6
Continuous
 62
     5
100
AcDbHatch
 10
0.0
 20
0.0
 30
0.0
210
0.0
220
0.0
230
1.0
  2
SOLID
 70
     1
 71
     1
 91
        1
 92
        3
 72
     0
 73
     1
 93
        3
 10
-252.4115361887111
 20
26.744446435735931
 10
-248.4115361887111
 20
26.077779769069267
 10
-248.4115361887111
 20
27.411113102402602
 97
        1
330
3DC
 75
     0
 76
     0
 98
        0
  0
POLYLINE
  5
3E2
102
{ACAD_REACTORS
330
3E1
102
}
100
AcDbEntity
  8
0
370
     0
  6
Continuous
 62
     5
100
AcDb2dPolyline
 66
     1
 10
0.0
 20
0.0
 30
0.0
 70
   129
  0
VERTEX
  5
3E3
100
AcDbEntity
  8
0
  6
Continuous
 62
     5
100
AcDbVertex
100
AcDb2dVertex
 10
-160.406711
 20
26.744446
 30
0.0
  0
VERTEX
  5
3E4
100
AcDbEntity
  8
0
  6
Continuous
 62
     5
100
AcDbVertex
100
AcDb2dVertex
 10
-164.406711
 20
27.411113
 30
0.0
  0
VERTEX
  5
3E5
100
AcDbEntity
  8
0
  6
Continuous
 62
     5
100
AcDbVertex
100
AcDb2dVertex
 10
-164.406711
 20
26.07778
 30
0.0
  0
SEQEND
  5
3E6
100
AcDbEntity
  8
0
  6
Continuous
 62
     5
  0
HATCH
  5
3E1
100
AcDbEntity
  8
0
  6
Continuous
 62
     5
100
AcDbHatch
 10
0.0
 20
0.0
 30
0.0
210
0.0
220
0.0
230
1.0
  2
SOLID
 70
     1
 71
     1
 91
        1
 92
        3
 72
     0
 73
     1
 93
        3
 10
-160.40671059667005
 20
26.744446435736023
 10
-164.40671059667005
 20
27.411113102402688
 10
-164.40671059667005
 20
26.077779769069352
 97
        1
330
3E2
 75
     0
 76
     0
 98
        0
  0
TEXT
  5
3E7
100
AcDbEntity
  8
0
  6
Continuous
 62
     5
100
AcDbText
 10
-217.765657
 20
21.580557
 30
0.0
 40
10.797222
  1
92*
 72
     5
 11
-195.052589
 21
21.580557
 31
0.0
100
AcDbText
  0
ENDBLK
  5
3E8
100
AcDbEntity
  8
0
100
AcDbBlockEnd
  0
BLOCK
  5
3EB
100
AcDbEntity
  8
0
100
AcDbBlockBegin
  2
*D20
 70
     1
 10
0.0
 20
0.0
 30
0.0
  3
*D20
  1

  0
LINE
  5
3EC
100
AcDbEntity
  8
0
370
     0
  6
Continuous
 62
     5
100
AcDbLine
 10
-256.270635
 20
58.619828
 30
0.0
 11
-279.855808
 21
58.619828
 31
0.0
  0
POLYLINE
  5
3ED
100
AcDbEntity
  8
0
370
     0
  6
Continuous
 62
     5
100
AcDb2dPolyline
 66
     1
 10
0.0
 20
0.0
 30
0.0
 70
   128
  0
VERTEX
  5
3EE
100
AcDbEntity
  8
0
  6
Continuous
 62
     5
100
AcDbVertex
100
AcDb2dVertex
 10
-272.855808
 20
49.584984
 30
0.0
  0
VERTEX
  5
3EF
100
AcDbEntity
  8
0
  6
Continuous
 62
     5
100
AcDbVertex
100
AcDb2dVertex
 10
-279.855808
 20
49.584984
 30
0.0
  0
SEQEND
  5
3F0
100
AcDbEntity
  8
0
  6
Continuous
 62
     5
  0
POLYLINE
  5
3F1
100
AcDbEntity
  8
0
370
     0
  6
Continuous
 62
     5
100
AcDb2dPolyline
 66
     1
 10
0.0
 20
0.0
 30
0.0
 70
   128
  0
VERTEX
  5
3F2
100
AcDbEntity
  8
0
  6
Continuous
 62
     5
100
AcDbVertex
100
AcDb2dVertex
 10
-276.855808
 20
66.619828
 30
0.0
  0
VERTEX
  5
3F3
100
AcDbEntity
  8
0
  6
Continuous
 62
     5
100
AcDbVertex
100
AcDb2dVertex
 10
-276.855808
 20
62.619828
 30
0.0
  0
SEQEND
  5
3F4
100
AcDbEntity
  8
0
  6
Continuous
 62
     5
  0
POLYLINE
  5
3F5
100
AcDbEntity
  8
0
370
     0
  6
Continuous
 62
     5
100
AcDb2dPolyline
 66
     1
 10
0.0
 20
0.0
 30
0.0
 70
   128
  0
VERTEX
  5
3F6
100
AcDbEntity
  8
0
  6
Continuous
 62
     5
100
AcDbVertex
100
AcDb2dVertex
 10
-276.855808
 20
58.619828
 30
0.0
  0
VERTEX
  5
3F7
100
AcDbEntity
  8
0
  6
Continuous
 62
     5
100
AcDbVertex
100
AcDb2dVertex
 10
-276.855808
 20
49.584984
 30
0.0
  0
SEQEND
  5
3F8
100
AcDbEntity
  8
0
  6
Continuous
 62
     5
  0
POLYLINE
  5
3F9
100
AcDbEntity
  8
0
370
     0
  6
Continuous
 62
     5
100
AcDb2dPolyline
 66
     1
 10
0.0
 20
0.0
 30
0.0
 70
   128
  0
VERTEX
  5
3FA
100
AcDbEntity
  8
0
  6
Continuous
 62
     5
100
AcDbVertex
100
AcDb2dVertex
 10
-272.855808
 20
41.584984
 30
0.0
  0
VERTEX
  5
3FB
100
AcDbEntity
  8
0
  6
Continuous
 62
     5
100
AcDbVertex
100
AcDb2dVertex
 10
-276.855808
 20
41.584984
 30
0.0
  0
VERTEX
  5
3FC
100
AcDbEntity
  8
0
  6
Continuous
 62
     5
100
AcDbVertex
100
AcDb2dVertex
 10
-276.855808
 20
45.584984
 30
0.0
  0
SEQEND
  5
3FD
100
AcDbEntity
  8
0
  6
Continuous
 62
     5
  0
POLYLINE
  5
3FF
102
{ACAD_REACTORS
330
3FE
102
}
100
AcDbEntity
  8
0
370
     0
  6
Continuous
 62
     5
100
AcDb2dPolyline
 66
     1
 10
0.0
 20
0.0
 30
0.0
 70
   129
  0
VERTEX
  5
400
100
AcDbEntity
  8
0
  6
Continuous
 62
     5
100
AcDbVertex
100
AcDb2dVertex
 10
-276.855808
 20
49.584984
 30
0.0
  0
VERTEX
  5
401
100
AcDbEntity
  8
0
  6
Continuous
 62
     5
100
AcDbVertex
100
AcDb2dVertex
 10
-277.522475
 20
45.584984
 30
0.0
  0
VERTEX
  5
402
100
AcDbEntity
  8
0
  6
Continuous
 62
     5
100
AcDbVertex
100
AcDb2dVertex
 10
-276.189142
 20
45.584984
 30
0.0
  0
SEQEND
  5
403
100
AcDbEntity
  8
0
  6
Continuous
 62
     5
  0
HATCH
  5
3FE
100
AcDbEntity
  8
0
  6
Continuous
 62
     5
100
AcDbHatch
 10
0.0
 20
0.0
 30
0.0
210
0.0
220
0.0
230
1.0
  2
SOLID
 70
     1
 71
     1
 91
        1
 92
        3
 72
     0
 73
     1
 93
        3
 10
-276.85580839626869
 20
49.584984013071434
 10
-277.52247506293537
 20
45.584984013071434
 10
-276.189141729602
 20
45.584984013071434
 97
        1
330
3FF
 75
     0
 76
     0
 98
        0
  0
POLYLINE
  5
405
102
{ACAD_REACTORS
330
404
102
}
100
AcDbEntity
  8
0
370
     0
  6
Continuous
 62
     5
100
AcDb2dPolyline
 66
     1
 10
0.0
 20
0.0
 30
0.0
 70
   129
  0
VERTEX
  5
406
100
AcDbEntity
  8
0
  6
Continuous
 62
     5
100
AcDbVertex
100
AcDb2dVertex
 10
-276.855808
 20
58.619828
 30
0.0
  0
VERTEX
  5
407
100
AcDbEntity
  8
0
  6
Continuous
 62
     5
100
AcDbVertex
100
AcDb2dVertex
 10
-276.189142
 20
62.619828
 30
0.0
  0
VERTEX
  5
408
100
AcDbEntity
  8
0
  6
Continuous
 62
     5
100
AcDbVertex
100
AcDb2dVertex
 10
-277.522475
 20
62.619828
 30
0.0
  0
SEQEND
  5
409
100
AcDbEntity
  8
0
  6
Continuous
 62
     5
  0
HATCH
  5
404
100
AcDbEntity
  8
0
  6
Continuous
 62
     5
100
AcDbHatch
 10
0.0
 20
0.0
 30
0.0
210
0.0
220
0.0
230
1.0
  2
SOLID
 70
     1
 71
     1
 91
        1
 92
        3
 72
     0
 73
     1
 93
        3
 10
-276.85580839626869
 20
58.619827807867892
 10
-276.189141729602
 20
62.619827807867892
 10
-277.52247506293537
 20
62.619827807867892
 97
        1
330
405
 75
     0
 76
     0
 98
        0
  0
TEXT
  5
40A
100
AcDbEntity
  8
0
  6
Continuous
 62
     5
100
AcDbText
 10
-271.355808
 20
36.421095
 30
0.0
 40
10.797222
  1
9*
 72
     5
 11
-257.055808
 21
36.421095
 31
0.0
100
AcDbText
  0
ENDBLK
  5
40B
100
AcDbEntity
  8
0
100
AcDbBlockEnd
  0
BLOCK
  5
418
100
AcDbEntity
  8
0
100
AcDbBlockBegin
  2
*D21
 70
     1
 10
0.0
 20
0.0
 30
0.0
  3
*D21
  1

  0
LINE
  5
419
100
AcDbEntity
  8
0
370
     0
  6
Continuous
 62
     5
100
AcDbLine
 10
-391.492648
 20
191.021365
 30
0.0
 11
-391.492648
 21
214.69569
 31
0.0
  0
LINE
  5
41A
100
AcDbEntity
  8
0
370
     0
  6
Continuous
 62
     5
100
AcDbLine
 10
-347.533021
 20
190.243319
 30
0.0
 11
-347.533021
 21
214.69569
 31
0.0
  0
POLYLINE
  5
41B
100
AcDbEntity
  8
0
370
     0
  6
Continuous
 62
     5
100
AcDb2dPolyline
 66
     1
 10
0.0
 20
0.0
 30
0.0
 70
   128
  0
VERTEX
  5
41C
100
AcDbEntity
  8
0
  6
Continuous
 62
     5
100
AcDbVertex
100
AcDb2dVertex
 10
-387.492648
 20
211.69569
 30
0.0
  0
VERTEX
  5
41D
100
AcDbEntity
  8
0
  6
Continuous
 62
     5
100
AcDbVertex
100
AcDb2dVertex
 10
-387.492648
 20
211.69569
 30
0.0
  0
VERTEX
  5
41E
100
AcDbEntity
  8
0
  6
Continuous
 62
     5
100
AcDbVertex
100
AcDb2dVertex
 10
-387.492648
 20
211.69569
 30
0.0
  0
VERTEX
  5
41F
100
AcDbEntity
  8
0
  6
Continuous
 62
     5
100
AcDbVertex
100
AcDb2dVertex
 10
-379.425902
 20
211.69569
 30
0.0
  0
SEQEND
  5
420
100
AcDbEntity
  8
0
  6
Continuous
 62
     5
  0
POLYLINE
  5
421
100
AcDbEntity
  8
0
370
     0
  6
Continuous
 62
     5
100
AcDb2dPolyline
 66
     1
 10
0.0
 20
0.0
 30
0.0
 70
   128
  0
VERTEX
  5
422
100
AcDbEntity
  8
0
  6
Continuous
 62
     5
100
AcDbVertex
100
AcDb2dVertex
 10
-351.533021
 20
211.69569
 30
0.0
  0
VERTEX
  5
423
100
AcDbEntity
  8
0
  6
Continuous
 62
     5
100
AcDbVertex
100
AcDb2dVertex
 10
-351.533021
 20
211.69569
 30
0.0
  0
VERTEX
  5
424
100
AcDbEntity
  8
0
  6
Continuous
 62
     5
100
AcDbVertex
100
AcDb2dVertex
 10
-351.533021
 20
211.69569
 30
0.0
  0
VERTEX
  5
425
100
AcDbEntity
  8
0
  6
Continuous
 62
     5
100
AcDbVertex
100
AcDb2dVertex
 10
-359.599766
 20
211.69569
 30
0.0
  0
SEQEND
  5
426
100
AcDbEntity
  8
0
  6
Continuous
 62
     5
  0
POLYLINE
  5
428
102
{ACAD_REACTORS
330
427
102
}
100
AcDbEntity
  8
0
370
     0
  6
Continuous
 62
     5
100
AcDb2dPolyline
 66
     1
 10
0.0
 20
0.0
 30
0.0
 70
   129
  0
VERTEX
  5
429
100
AcDbEntity
  8
0
  6
Continuous
 62
     5
100
AcDbVertex
100
AcDb2dVertex
 10
-391.492648
 20
211.69569
 30
0.0
  0
VERTEX
  5
42A
100
AcDbEntity
  8
0
  6
Continuous
 62
     5
100
AcDbVertex
100
AcDb2dVertex
 10
-387.492648
 20
211.029024
 30
0.0
  0
VERTEX
  5
42B
100
AcDbEntity
  8
0
  6
Continuous
 62
     5
100
AcDbVertex
100
AcDb2dVertex
 10
-387.492648
 20
212.362357
 30
0.0
  0
SEQEND
  5
42C
100
AcDbEntity
  8
0
  6
Continuous
 62
     5
  0
HATCH
  5
427
100
AcDbEntity
  8
0
  6
Continuous
 62
     5
100
AcDbHatch
 10
0.0
 20
0.0
 30
0.0
210
0.0
220
0.0
230
1.0
  2
SOLID
 70
     1
 71
     1
 91
        1
 92
        3
 72
     0
 73
     1
 93
        3
 10
-391.49264768854295
 20
211.69569040229055
 10
-387.49264768854295
 20
211.02902373562389
 10
-387.49264768854295
 20
212.36235706895721
 97
        1
330
428
 75
     0
 76
     0
 98
        0
  0
POLYLINE
  5
42E
102
{ACAD_REACTORS
330
42D
102
}
100
AcDbEntity
  8
0
370
     0
  6
Continuous
 62
     5
100
AcDb2dPolyline
 66
     1
 10
0.0
 20
0.0
 30
0.0
 70
   129
  0
VERTEX
  5
42F
100
AcDbEntity
  8
0
  6
Continuous
 62
     5
100
AcDbVertex
100
AcDb2dVertex
 10
-347.533021
 20
211.69569
 30
0.0
  0
VERTEX
  5
430
100
AcDbEntity
  8
0
  6
Continuous
 62
     5
100
AcDbVertex
100
AcDb2dVertex
 10
-351.533021
 20
212.362357
 30
0.0
  0
VERTEX
  5
431
100
AcDbEntity
  8
0
  6
Continuous
 62
     5
100
AcDbVertex
100
AcDb2dVertex
 10
-351.533021
 20
211.029024
 30
0.0
  0
SEQEND
  5
432
100
AcDbEntity
  8
0
  6
Continuous
 62
     5
  0
HATCH
  5
42D
100
AcDbEntity
  8
0
  6
Continuous
 62
     5
100
AcDbHatch
 10
0.0
 20
0.0
 30
0.0
210
0.0
220
0.0
230
1.0
  2
SOLID
 70
     1
 71
     1
 91
        1
 92
        3
 72
     0
 73
     1
 93
        3
 10
-347.53302076453571
 20
211.69569040229055
 10
-351.53302076453571
 20
212.36235706895721
 10
-351.53302076453571
 20
211.02902373562389
 97
        1
330
42E
 75
     0
 76
     0
 98
        0
  0
TEXT
  5
433
100
AcDbEntity
  8
0
  6
Continuous
 62
     5
100
AcDbText
 10
-377.925902
 20
206.531801
 30
0.0
 40
10.797222
  1
44
 72
     5
 11
-361.099766
 21
206.531801
 31
0.0
100
AcDbText
  0
ENDBLK
  5
434
100
AcDbEntity
  8
0
100
AcDbBlockEnd
  0
BLOCK
  5
437
100
AcDbEntity
  8
0
100
AcDbBlockBegin
  2
*D22
 70
     1
 10
0.0
 20
0.0
 30
0.0
  3
*D22
  1

  0
LINE
  5
438
100
AcDbEntity
  8
0
370
     0
  6
Continuous
 62
     5
100
AcDbLine
 10
-345.449486
 20
174.154947
 30
0.0
 11
-320.802603
 21
174.154947
 31
0.0
  0
LINE
  5
439
100
AcDbEntity
  8
0
370
     0
  6
Continuous
 62
     5
100
AcDbLine
 10
-345.449486
 20
188.159784
 30
0.0
 11
-320.802603
 21
188.159784
 31
0.0
  0
POLYLINE
  5
43A
100
AcDbEntity
  8
0
370
     0
  6
Continuous
 62
     5
100
AcDb2dPolyline
 66
     1
 10
0.0
 20
0.0
 30
0.0
 70
   128
  0
VERTEX
  5
43B
100
AcDbEntity
  8
0
  6
Continuous
 62
     5
100
AcDbVertex
100
AcDb2dVertex
 10
-323.802603
 20
166.154947
 30
0.0
  0
VERTEX
  5
43C
100
AcDbEntity
  8
0
  6
Continuous
 62
     5
100
AcDbVertex
100
AcDb2dVertex
 10
-323.802603
 20
170.154947
 30
0.0
  0
SEQEND
  5
43D
100
AcDbEntity
  8
0
  6
Continuous
 62
     5
  0
POLYLINE
  5
43E
100
AcDbEntity
  8
0
370
     0
  6
Continuous
 62
     5
100
AcDb2dPolyline
 66
     1
 10
0.0
 20
0.0
 30
0.0
 70
   128
  0
VERTEX
  5
43F
100
AcDbEntity
  8
0
  6
Continuous
 62
     5
100
AcDbVertex
100
AcDb2dVertex
 10
-323.802603
 20
174.154947
 30
0.0
  0
VERTEX
  5
440
100
AcDbEntity
  8
0
  6
Continuous
 62
     5
100
AcDbVertex
100
AcDb2dVertex
 10
-323.802603
 20
188.159784
 30
0.0
  0
SEQEND
  5
441
100
AcDbEntity
  8
0
  6
Continuous
 62
     5
  0
POLYLINE
  5
442
100
AcDbEntity
  8
0
370
     0
  6
Continuous
 62
     5
100
AcDb2dPolyline
 66
     1
 10
0.0
 20
0.0
 30
0.0
 70
   128
  0
VERTEX
  5
443
100
AcDbEntity
  8
0
  6
Continuous
 62
     5
100
AcDbVertex
100
AcDb2dVertex
 10
-319.802603
 20
196.159784
 30
0.0
  0
VERTEX
  5
444
100
AcDbEntity
  8
0
  6
Continuous
 62
     5
100
AcDbVertex
100
AcDb2dVertex
 10
-323.802603
 20
196.159784
 30
0.0
  0
VERTEX
  5
445
100
AcDbEntity
  8
0
  6
Continuous
 62
     5
100
AcDbVertex
100
AcDb2dVertex
 10
-323.802603
 20
192.159784
 30
0.0
  0
SEQEND
  5
446
100
AcDbEntity
  8
0
  6
Continuous
 62
     5
  0
POLYLINE
  5
448
102
{ACAD_REACTORS
330
447
102
}
100
AcDbEntity
  8
0
370
     0
  6
Continuous
 62
     5
100
AcDb2dPolyline
 66
     1
 10
0.0
 20
0.0
 30
0.0
 70
   129
  0
VERTEX
  5
449
100
AcDbEntity
  8
0
  6
Continuous
 62
     5
100
AcDbVertex
100
AcDb2dVertex
 10
-323.802603
 20
188.159784
 30
0.0
  0
VERTEX
  5
44A
100
AcDbEntity
  8
0
  6
Continuous
 62
     5
100
AcDbVertex
100
AcDb2dVertex
 10
-323.135936
 20
192.159784
 30
0.0
  0
VERTEX
  5
44B
100
AcDbEntity
  8
0
  6
Continuous
 62
     5
100
AcDbVertex
100
AcDb2dVertex
 10
-324.469269
 20
192.159784
 30
0.0
  0
SEQEND
  5
44C
100
AcDbEntity
  8
0
  6
Continuous
 62
     5
  0
HATCH
  5
447
100
AcDbEntity
  8
0
  6
Continuous
 62
     5
100
AcDbHatch
 10
0.0
 20
0.0
 30
0.0
210
0.0
220
0.0
230
1.0
  2
SOLID
 70
     1
 71
     1
 91
        1
 92
        3
 72
     0
 73
     1
 93
        3
 10
-323.80260269051405
 20
188.15978395182645
 10
-323.13593602384736
 20
192.15978395182645
 10
-324.46926935718074
 20
192.15978395182645
 97
        1
330
448
 75
     0
 76
     0
 98
        0
  0
POLYLINE
  5
44E
102
{ACAD_REACTORS
330
44D
102
}
100
AcDbEntity
  8
0
370
     0
  6
Continuous
 62
     5
100
AcDb2dPolyline
 66
     1
 10
0.0
 20
0.0
 30
0.0
 70
   129
  0
VERTEX
  5
44F
100
AcDbEntity
  8
0
  6
Continuous
 62
     5
100
AcDbVertex
100
AcDb2dVertex
 10
-323.802603
 20
174.154947
 30
0.0
  0
VERTEX
  5
450
100
AcDbEntity
  8
0
  6
Continuous
 62
     5
100
AcDbVertex
100
AcDb2dVertex
 10
-324.469269
 20
170.154947
 30
0.0
  0
VERTEX
  5
451
100
AcDbEntity
  8
0
  6
Continuous
 62
     5
100
AcDbVertex
100
AcDb2dVertex
 10
-323.135936
 20
170.154947
 30
0.0
  0
SEQEND
  5
452
100
AcDbEntity
  8
0
  6
Continuous
 62
     5
  0
HATCH
  5
44D
100
AcDbEntity
  8
0
  6
Continuous
 62
     5
100
AcDbHatch
 10
0.0
 20
0.0
 30
0.0
210
0.0
220
0.0
230
1.0
  2
SOLID
 70
     1
 71
     1
 91
        1
 92
        3
 72
     0
 73
     1
 93
        3
 10
-323.80260269051405
 20
174.15494705568256
 10
-324.46926935718074
 20
170.15494705568256
 10
-323.13593602384736
 20
170.15494705568256
 97
        1
330
44E
 75
     0
 76
     0
 98
        0
  0
TEXT
  5
453
100
AcDbEntity
  8
0
  6
Continuous
 62
     5
100
AcDbText
 10
-318.302603
 20
190.995895
 30
0.0
 40
10.797222
  1
14
 72
     5
 11
-301.476466
 21
190.995895
 31
0.0
100
AcDbText
  0
ENDBLK
  5
454
100
AcDbEntity
  8
0
100
AcDbBlockEnd
  0
BLOCK
  5
468
100
AcDbEntity
  8
0
100
AcDbBlockBegin
  2
*D23
 70
     1
 10
0.0
 20
0.0
 30
0.0
  3
*D23
  1

  0
LINE
  5
469
100
AcDbEntity
  8
0
370
     0
  6
Continuous
 62
     5
100
AcDbLine
 10
4.845666
 20
-0.288087
 30
0.0
 11
273.00465
 21
-0.288087
 31
0.0
  0
LINE
  5
46A
100
AcDbEntity
  8
0
370
     0
  6
Continuous
 62
     5
100
AcDbLine
 10
124.649476
 20
179.985502
 30
0.0
 11
273.00465
 21
179.985502
 31
0.0
  0
POLYLINE
  5
46B
100
AcDbEntity
  8
0
370
     0
  6
Continuous
 62
     5
100
AcDb2dPolyline
 66
     1
 10
0.0
 20
0.0
 30
0.0
 70
   128
  0
VERTEX
  5
46C
100
AcDbEntity
  8
0
  6
Continuous
 62
     5
100
AcDbVertex
100
AcDb2dVertex
 10
270.00465
 20
3.711913
 30
0.0
  0
VERTEX
  5
46D
100
AcDbEntity
  8
0
  6
Continuous
 62
     5
100
AcDbVertex
100
AcDb2dVertex
 10
270.00465
 20
3.711913
 30
0.0
  0
VERTEX
  5
46E
100
AcDbEntity
  8
0
  6
Continuous
 62
     5
100
AcDbVertex
100
AcDb2dVertex
 10
270.00465
 20
3.711913
 30
0.0
  0
VERTEX
  5
46F
100
AcDbEntity
  8
0
  6
Continuous
 62
     5
100
AcDbVertex
100
AcDb2dVertex
 10
270.00465
 20
79.708708
 30
0.0
  0
SEQEND
  5
470
100
AcDbEntity
  8
0
  6
Continuous
 62
     5
  0
POLYLINE
  5
471
100
AcDbEntity
  8
0
370
     0
  6
Continuous
 62
     5
100
AcDb2dPolyline
 66
     1
 10
0.0
 20
0.0
 30
0.0
 70
   128
  0
VERTEX
  5
472
100
AcDbEntity
  8
0
  6
Continuous
 62
     5
100
AcDbVertex
100
AcDb2dVertex
 10
270.00465
 20
175.985502
 30
0.0
  0
VERTEX
  5
473
100
AcDbEntity
  8
0
  6
Continuous
 62
     5
100
AcDbVertex
100
AcDb2dVertex
 10
270.00465
 20
175.985502
 30
0.0
  0
VERTEX
  5
474
100
AcDbEntity
  8
0
  6
Continuous
 62
     5
100
AcDbVertex
100
AcDb2dVertex
 10
270.00465
 20
175.985502
 30
0.0
  0
VERTEX
  5
475
100
AcDbEntity
  8
0
  6
Continuous
 62
     5
100
AcDbVertex
100
AcDb2dVertex
 10
270.00465
 20
99.988708
 30
0.0
  0
SEQEND
  5
476
100
AcDbEntity
  8
0
  6
Continuous
 62
     5
  0
POLYLINE
  5
478
102
{ACAD_REACTORS
330
477
102
}
100
AcDbEntity
  8
0
370
     0
  6
Continuous
 62
     5
100
AcDb2dPolyline
 66
     1
 10
0.0
 20
0.0
 30
0.0
 70
   129
  0
VERTEX
  5
479
100
AcDbEntity
  8
0
  6
Continuous
 62
     5
100
AcDbVertex
100
AcDb2dVertex
 10
270.00465
 20
-0.288087
 30
0.0
  0
VERTEX
  5
47A
100
AcDbEntity
  8
0
  6
Continuous
 62
     5
100
AcDbVertex
100
AcDb2dVertex
 10
270.671317
 20
3.711913
 30
0.0
  0
VERTEX
  5
47B
100
AcDbEntity
  8
0
  6
Continuous
 62
     5
100
AcDbVertex
100
AcDb2dVertex
 10
269.337984
 20
3.711913
 30
0.0
  0
SEQEND
  5
47C
100
AcDbEntity
  8
0
  6
Continuous
 62
     5
  0
HATCH
  5
477
100
AcDbEntity
  8
0
  6
Continuous
 62
     5
100
AcDbHatch
 10
0.0
 20
0.0
 30
0.0
210
0.0
220
0.0
230
1.0
  2
SOLID
 70
     1
 71
     1
 91
        1
 92
        3
 72
     0
 73
     1
 93
        3
 10
270.00465018699367
 20
-0.2880867652980328
 10
270.67131685366036
 20
3.7119132347019672
 10
269.33798352032699
 20
3.7119132347019672
 97
        1
330
478
 75
     0
 76
     0
 98
        0
  0
POLYLINE
  5
47E
102
{ACAD_REACTORS
330
47D
102
}
100
AcDbEntity
  8
0
370
     0
  6
Continuous
 62
     5
100
AcDb2dPolyline
 66
     1
 10
0.0
 20
0.0
 30
0.0
 70
   129
  0
VERTEX
  5
47F
100
AcDbEntity
  8
0
  6
Continuous
 62
     5
100
AcDbVertex
100
AcDb2dVertex
 10
270.00465
 20
179.985502
 30
0.0
  0
VERTEX
  5
480
100
AcDbEntity
  8
0
  6
Continuous
 62
     5
100
AcDbVertex
100
AcDb2dVertex
 10
269.337984
 20
175.985502
 30
0.0
  0
VERTEX
  5
481
100
AcDbEntity
  8
0
  6
Continuous
 62
     5
100
AcDbVertex
100
AcDb2dVertex
 10
270.671317
 20
175.985502
 30
0.0
  0
SEQEND
  5
482
100
AcDbEntity
  8
0
  6
Continuous
 62
     5
  0
HATCH
  5
47D
100
AcDbEntity
  8
0
  6
Continuous
 62
     5
100
AcDbHatch
 10
0.0
 20
0.0
 30
0.0
210
0.0
220
0.0
230
1.0
  2
SOLID
 70
     1
 71
     1
 91
        1
 92
        3
 72
     0
 73
     1
 93
        3
 10
270.00465018699367
 20
179.98550203469478
 10
269.33798352032699
 20
175.98550203469478
 10
270.67131685366036
 20
175.98550203469478
 97
        1
330
47E
 75
     0
 76
     0
 98
        0
  0
TEXT
  5
483
100
AcDbEntity
  8
0
  6
Continuous
 62
     5
100
AcDbText
 10
257.385048
 20
84.684819
 30
0.0
 40
10.797222
  1
180
 72
     5
 11
282.624252
 21
84.684819
 31
0.0
100
AcDbText
  0
ENDBLK
  5
484
100
AcDbEntity
  8
0
100
AcDbBlockEnd
  0
BLOCK
  5
495
100
AcDbEntity
  8
0
100
AcDbBlockBegin
  2
*D24
 70
     1
 10
0.0
 20
0.0
 30
0.0
  3
*D24
  1

  0
LINE
  5
496
100
AcDbEntity
  8
0
370
     0
  6
Continuous
 62
     5
100
AcDbLine
 10
357.883854
 20
223.324482
 30
0.0
 11
357.883854
 21
233.422659
 31
0.0
  0
LINE
  5
497
100
AcDbEntity
  8
0
370
     0
  6
Continuous
 62
     5
100
AcDbLine
 10
362.865975
 20
223.485196
 30
0.0
 11
362.865975
 21
233.422659
 31
0.0
  0
POLYLINE
  5
498
100
AcDbEntity
  8
0
370
     0
  6
Continuous
 62
     5
100
AcDb2dPolyline
 66
     1
 10
0.0
 20
0.0
 30
0.0
 70
   128
  0
VERTEX
  5
499
100
AcDbEntity
  8
0
  6
Continuous
 62
     5
100
AcDbVertex
100
AcDb2dVertex
 10
349.883854
 20
230.422659
 30
0.0
  0
VERTEX
  5
49A
100
AcDbEntity
  8
0
  6
Continuous
 62
     5
100
AcDbVertex
100
AcDb2dVertex
 10
353.883854
 20
230.422659
 30
0.0
  0
SEQEND
  5
49B
100
AcDbEntity
  8
0
  6
Continuous
 62
     5
  0
POLYLINE
  5
49C
100
AcDbEntity
  8
0
370
     0
  6
Continuous
 62
     5
100
AcDb2dPolyline
 66
     1
 10
0.0
 20
0.0
 30
0.0
 70
   128
  0
VERTEX
  5
49D
100
AcDbEntity
  8
0
  6
Continuous
 62
     5
100
AcDbVertex
100
AcDb2dVertex
 10
357.883854
 20
230.422659
 30
0.0
  0
VERTEX
  5
49E
100
AcDbEntity
  8
0
  6
Continuous
 62
     5
100
AcDbVertex
100
AcDb2dVertex
 10
362.865975
 20
230.422659
 30
0.0
  0
SEQEND
  5
49F
100
AcDbEntity
  8
0
  6
Continuous
 62
     5
  0
POLYLINE
  5
4A0
100
AcDbEntity
  8
0
370
     0
  6
Continuous
 62
     5
100
AcDb2dPolyline
 66
     1
 10
0.0
 20
0.0
 30
0.0
 70
   128
  0
VERTEX
  5
4A1
100
AcDbEntity
  8
0
  6
Continuous
 62
     5
100
AcDbVertex
100
AcDb2dVertex
 10
374.865975
 20
230.422659
 30
0.0
  0
VERTEX
  5
4A2
100
AcDbEntity
  8
0
  6
Continuous
 62
     5
100
AcDbVertex
100
AcDb2dVertex
 10
370.865975
 20
230.422659
 30
0.0
  0
VERTEX
  5
4A3
100
AcDbEntity
  8
0
  6
Continuous
 62
     5
100
AcDbVertex
100
AcDb2dVertex
 10
366.865975
 20
230.422659
 30
0.0
  0
SEQEND
  5
4A4
100
AcDbEntity
  8
0
  6
Continuous
 62
     5
  0
POLYLINE
  5
4A6
102
{ACAD_REACTORS
330
4A5
102
}
100
AcDbEntity
  8
0
370
     0
  6
Continuous
 62
     5
100
AcDb2dPolyline
 66
     1
 10
0.0
 20
0.0
 30
0.0
 70
   129
  0
VERTEX
  5
4A7
100
AcDbEntity
  8
0
  6
Continuous
 62
     5
100
AcDbVertex
100
AcDb2dVertex
 10
362.865975
 20
230.422659
 30
0.0
  0
VERTEX
  5
4A8
100
AcDbEntity
  8
0
  6
Continuous
 62
     5
100
AcDbVertex
100
AcDb2dVertex
 10
366.865975
 20
229.755992
 30
0.0
  0
VERTEX
  5
4A9
100
AcDbEntity
  8
0
  6
Continuous
 62
     5
100
AcDbVertex
100
AcDb2dVertex
 10
366.865975
 20
231.089325
 30
0.0
  0
SEQEND
  5
4AA
100
AcDbEntity
  8
0
  6
Continuous
 62
     5
  0
HATCH
  5
4A5
100
AcDbEntity
  8
0
  6
Continuous
 62
     5
100
AcDbHatch
 10
0.0
 20
0.0
 30
0.0
210
0.0
220
0.0
230
1.0
  2
SOLID
 70
     1
 71
     1
 91
        1
 92
        3
 72
     0
 73
     1
 93
        3
 10
362.8659745123278
 20
230.42265855441661
 10
366.8659745123278
 20
229.75599188774996
 10
366.8659745123278
 20
231.08932522108327
 97
        1
330
4A6
 75
     0
 76
     0
 98
        0
  0
POLYLINE
  5
4AC
102
{ACAD_REACTORS
330
4AB
102
}
100
AcDbEntity
  8
0
370
     0
  6
Continuous
 62
     5
100
AcDb2dPolyline
 66
     1
 10
0.0
 20
0.0
 30
0.0
 70
   129
  0
VERTEX
  5
4AD
100
AcDbEntity
  8
0
  6
Continuous
 62
     5
100
AcDbVertex
100
AcDb2dVertex
 10
357.883854
 20
230.422659
 30
0.0
  0
VERTEX
  5
4AE
100
AcDbEntity
  8
0
  6
Continuous
 62
     5
100
AcDbVertex
100
AcDb2dVertex
 10
353.883854
 20
231.089325
 30
0.0
  0
VERTEX
  5
4AF
100
AcDbEntity
  8
0
  6
Continuous
 62
     5
100
AcDbVertex
100
AcDb2dVertex
 10
353.883854
 20
229.755992
 30
0.0
  0
SEQEND
  5
4B0
100
AcDbEntity
  8
0
  6
Continuous
 62
     5
  0
HATCH
  5
4AB
100
AcDbEntity
  8
0
  6
Continuous
 62
     5
100
AcDbHatch
 10
0.0
 20
0.0
 30
0.0
210
0.0
220
0.0
230
1.0
  2
SOLID
 70
     1
 71
     1
 91
        1
 92
        3
 72
     0
 73
     1
 93
        3
 10
357.88385372543348
 20
230.42265855441661
 10
353.88385372543348
 20
231.08932522108327
 10
353.88385372543348
 20
229.75599188774996
 97
        1
330
4AC
 75
     0
 76
     0
 98
        0
  0
TEXT
  5
4B1
100
AcDbEntity
  8
0
  6
Continuous
 62
     5
100
AcDbText
 10
376.365975
 20
225.25877
 30
0.0
 40
10.797222
  1
5
 72
     5
 11
384.779043
 21
225.25877
 31
0.0
100
AcDbText
  0
ENDBLK
  5
4B2
100
AcDbEntity
  8
0
100
AcDbBlockEnd
  0
BLOCK
  5
4B5
100
AcDbEntity
  8
0
100
AcDbBlockBegin
  2
*D25
 70
     1
 10
0.0
 20
0.0
 30
0.0
  3
*D25
  1

  0
LINE
  5
4B6
100
AcDbEntity
  8
0
370
     0
  6
Continuous
 62
     5
100
AcDbLine
 10
355.821356
 20
214.913799
 30
0.0
 11
336.642863
 21
214.913799
 31
0.0
  0
POLYLINE
  5
4B7
100
AcDbEntity
  8
0
370
     0
  6
Continuous
 62
     5
100
AcDb2dPolyline
 66
     1
 10
0.0
 20
0.0
 30
0.0
 70
   128
  0
VERTEX
  5
4B8
100
AcDbEntity
  8
0
  6
Continuous
 62
     5
100
AcDbVertex
100
AcDb2dVertex
 10
355.580286
 20
209.931678
 30
0.0
  0
VERTEX
  5
4B9
100
AcDbEntity
  8
0
  6
Continuous
 62
     5
100
AcDbVertex
100
AcDb2dVertex
 10
355.055931
 20
209.931678
 30
0.0
  0
SEQEND
  5
4BA
100
AcDbEntity
  8
0
  6
Continuous
 62
     5
  0
POLYLINE
  5
4BB
100
AcDbEntity
  8
0
370
     0
  6
Continuous
 62
     5
100
AcDb2dPolyline
 66
     1
 10
0.0
 20
0.0
 30
0.0
 70
   128
  0
VERTEX
  5
4BC
100
AcDbEntity
  8
0
  6
Continuous
 62
     5
100
AcDbVertex
100
AcDb2dVertex
 10
343.642863
 20
209.931678
 30
0.0
  0
VERTEX
  5
4BD
100
AcDbEntity
  8
0
  6
Continuous
 62
     5
100
AcDbVertex
100
AcDb2dVertex
 10
336.642863
 20
209.931678
 30
0.0
  0
SEQEND
  5
4BE
100
AcDbEntity
  8
0
  6
Continuous
 62
     5
  0
POLYLINE
  5
4BF
100
AcDbEntity
  8
0
370
     0
  6
Continuous
 62
     5
100
AcDb2dPolyline
 66
     1
 10
0.0
 20
0.0
 30
0.0
 70
   128
  0
VERTEX
  5
4C0
100
AcDbEntity
  8
0
  6
Continuous
 62
     5
100
AcDbVertex
100
AcDb2dVertex
 10
339.642863
 20
222.913799
 30
0.0
  0
VERTEX
  5
4C1
100
AcDbEntity
  8
0
  6
Continuous
 62
     5
100
AcDbVertex
100
AcDb2dVertex
 10
339.642863
 20
218.913799
 30
0.0
  0
SEQEND
  5
4C2
100
AcDbEntity
  8
0
  6
Continuous
 62
     5
  0
POLYLINE
  5
4C3
100
AcDbEntity
  8
0
370
     0
  6
Continuous
 62
     5
100
AcDb2dPolyline
 66
     1
 10
0.0
 20
0.0
 30
0.0
 70
   128
  0
VERTEX
  5
4C4
100
AcDbEntity
  8
0
  6
Continuous
 62
     5
100
AcDbVertex
100
AcDb2dVertex
 10
339.642863
 20
214.913799
 30
0.0
  0
VERTEX
  5
4C5
100
AcDbEntity
  8
0
  6
Continuous
 62
     5
100
AcDbVertex
100
AcDb2dVertex
 10
339.642863
 20
209.931678
 30
0.0
  0
SEQEND
  5
4C6
100
AcDbEntity
  8
0
  6
Continuous
 62
     5
  0
POLYLINE
  5
4C7
100
AcDbEntity
  8
0
370
     0
  6
Continuous
 62
     5
100
AcDb2dPolyline
 66
     1
 10
0.0
 20
0.0
 30
0.0
 70
   128
  0
VERTEX
  5
4C8
100
AcDbEntity
  8
0
  6
Continuous
 62
     5
100
AcDbVertex
100
AcDb2dVertex
 10
343.642863
 20
201.931678
 30
0.0
  0
VERTEX
  5
4C9
100
AcDbEntity
  8
0
  6
Continuous
 62
     5
100
AcDbVertex
100
AcDb2dVertex
 10
339.642863
 20
201.931678
 30
0.0
  0
VERTEX
  5
4CA
100
AcDbEntity
  8
0
  6
Continuous
 62
     5
100
AcDbVertex
100
AcDb2dVertex
 10
339.642863
 20
205.931678
 30
0.0
  0
SEQEND
  5
4CB
100
AcDbEntity
  8
0
  6
Continuous
 62
     5
  0
POLYLINE
  5
4CD
102
{ACAD_REACTORS
330
4CC
102
}
100
AcDbEntity
  8
0
370
     0
  6
Continuous
 62
     5
100
AcDb2dPolyline
 66
     1
 10
0.0
 20
0.0
 30
0.0
 70
   129
  0
VERTEX
  5
4CE
100
AcDbEntity
  8
0
  6
Continuous
 62
     5
100
AcDbVertex
100
AcDb2dVertex
 10
339.642863
 20
209.931678
 30
0.0
  0
VERTEX
  5
4CF
100
AcDbEntity
  8
0
  6
Continuous
 62
     5
100
AcDbVertex
100
AcDb2dVertex
 10
338.976196
 20
205.931678
 30
0.0
  0
VERTEX
  5
4D0
100
AcDbEntity
  8
0
  6
Continuous
 62
     5
100
AcDbVertex
100
AcDb2dVertex
 10
340.30953
 20
205.931678
 30
0.0
  0
SEQEND
  5
4D1
100
AcDbEntity
  8
0
  6
Continuous
 62
     5
  0
HATCH
  5
4CC
100
AcDbEntity
  8
0
  6
Continuous
 62
     5
100
AcDbHatch
 10
0.0
 20
0.0
 30
0.0
210
0.0
220
0.0
230
1.0
  2
SOLID
 70
     1
 71
     1
 91
        1
 92
        3
 72
     0
 73
     1
 93
        3
 10
339.64286310244933
 20
209.93167789864145
 10
338.97619643578264
 20
205.93167789864145
 10
340.30952976911601
 20
205.93167789864145
 97
        1
330
4CD
 75
     0
 76
     0
 98
        0
  0
POLYLINE
  5
4D3
102
{ACAD_REACTORS
330
4D2
102
}
100
AcDbEntity
  8
0
370
     0
  6
Continuous
 62
     5
100
AcDb2dPolyline
 66
     1
 10
0.0
 20
0.0
 30
0.0
 70
   129
  0
VERTEX
  5
4D4
100
AcDbEntity
  8
0
  6
Continuous
 62
     5
100
AcDbVertex
100
AcDb2dVertex
 10
339.642863
 20
214.913799
 30
0.0
  0
VERTEX
  5
4D5
100
AcDbEntity
  8
0
  6
Continuous
 62
     5
100
AcDbVertex
100
AcDb2dVertex
 10
340.30953
 20
218.913799
 30
0.0
  0
VERTEX
  5
4D6
100
AcDbEntity
  8
0
  6
Continuous
 62
     5
100
AcDbVertex
100
AcDb2dVertex
 10
338.976196
 20
218.913799
 30
0.0
  0
SEQEND
  5
4D7
100
AcDbEntity
  8
0
  6
Continuous
 62
     5
  0
HATCH
  5
4D2
100
AcDbEntity
  8
0
  6
Continuous
 62
     5
100
AcDbHatch
 10
0.0
 20
0.0
 30
0.0
210
0.0
220
0.0
230
1.0
  2
SOLID
 70
     1
 71
     1
 91
        1
 92
        3
 72
     0
 73
     1
 93
        3
 10
339.64286310244933
 20
214.91379868553582
 10
340.30952976911601
 20
218.91379868553582
 10
338.97619643578264
 20
218.91379868553582
 97
        1
330
4D3
 75
     0
 76
     0
 98
        0
  0
TEXT
  5
4D8
100
AcDbEntity
  8
0
  6
Continuous
 62
     5
100
AcDbText
 10
345.142863
 20
196.767789
 30
0.0
 40
10.797222
  1
5
 72
     5
 11
353.555931
 21
196.767789
 31
0.0
100
AcDbText
  0
ENDBLK
  5
4D9
100
AcDbEntity
  8
0
100
AcDbBlockEnd
  0
BLOCK
  5
4DC
100
AcDbEntity
  8
0
100
AcDbBlockBegin
  2
*D26
 70
     1
 10
0.0
 20
0.0
 30
0.0
  3
*D26
  1

  0
LINE
  5
4DD
100
AcDbEntity
  8
0
370
     0
  6
Continuous
 62
     5
100
AcDbLine
 10
364.928472
 20
221.101271
 30
0.0
 11
388.446232
 21
221.101271
 31
0.0
  0
LINE
  5
4DE
100
AcDbEntity
  8
0
370
     0
  6
Continuous
 62
     5
100
AcDbLine
 10
364.848115
 20
191.108101
 30
0.0
 11
388.446232
 21
191.108101
 31
0.0
  0
POLYLINE
  5
4DF
100
AcDbEntity
  8
0
370
     0
  6
Continuous
 62
     5
100
AcDb2dPolyline
 66
     1
 10
0.0
 20
0.0
 30
0.0
 70
   128
  0
VERTEX
  5
4E0
100
AcDbEntity
  8
0
  6
Continuous
 62
     5
100
AcDbVertex
100
AcDb2dVertex
 10
385.446232
 20
217.101271
 30
0.0
  0
VERTEX
  5
4E1
100
AcDbEntity
  8
0
  6
Continuous
 62
     5
100
AcDbVertex
100
AcDb2dVertex
 10
385.446232
 20
217.101271
 30
0.0
  0
VERTEX
  5
4E2
100
AcDbEntity
  8
0
  6
Continuous
 62
     5
100
AcDbVertex
100
AcDb2dVertex
 10
385.446232
 20
217.101271
 30
0.0
  0
VERTEX
  5
4E3
100
AcDbEntity
  8
0
  6
Continuous
 62
     5
100
AcDbVertex
100
AcDb2dVertex
 10
385.446232
 20
216.244686
 30
0.0
  0
SEQEND
  5
4E4
100
AcDbEntity
  8
0
  6
Continuous
 62
     5
  0
POLYLINE
  5
4E5
100
AcDbEntity
  8
0
370
     0
  6
Continuous
 62
     5
100
AcDb2dPolyline
 66
     1
 10
0.0
 20
0.0
 30
0.0
 70
   128
  0
VERTEX
  5
4E6
100
AcDbEntity
  8
0
  6
Continuous
 62
     5
100
AcDbVertex
100
AcDb2dVertex
 10
385.446232
 20
195.108101
 30
0.0
  0
VERTEX
  5
4E7
100
AcDbEntity
  8
0
  6
Continuous
 62
     5
100
AcDbVertex
100
AcDb2dVertex
 10
385.446232
 20
195.108101
 30
0.0
  0
VERTEX
  5
4E8
100
AcDbEntity
  8
0
  6
Continuous
 62
     5
100
AcDbVertex
100
AcDb2dVertex
 10
385.446232
 20
195.108101
 30
0.0
  0
VERTEX
  5
4E9
100
AcDbEntity
  8
0
  6
Continuous
 62
     5
100
AcDbVertex
100
AcDb2dVertex
 10
385.446232
 20
195.964686
 30
0.0
  0
SEQEND
  5
4EA
100
AcDbEntity
  8
0
  6
Continuous
 62
     5
  0
POLYLINE
  5
4EC
102
{ACAD_REACTORS
330
4EB
102
}
100
AcDbEntity
  8
0
370
     0
  6
Continuous
 62
     5
100
AcDb2dPolyline
 66
     1
 10
0.0
 20
0.0
 30
0.0
 70
   129
  0
VERTEX
  5
4ED
100
AcDbEntity
  8
0
  6
Continuous
 62
     5
100
AcDbVertex
100
AcDb2dVertex
 10
385.446232
 20
221.101271
 30
0.0
  0
VERTEX
  5
4EE
100
AcDbEntity
  8
0
  6
Continuous
 62
     5
100
AcDbVertex
100
AcDb2dVertex
 10
384.779565
 20
217.101271
 30
0.0
  0
VERTEX
  5
4EF
100
AcDbEntity
  8
0
  6
Continuous
 62
     5
100
AcDbVertex
100
AcDb2dVertex
 10
386.112898
 20
217.101271
 30
0.0
  0
SEQEND
  5
4F0
100
AcDbEntity
  8
0
  6
Continuous
 62
     5
  0
HATCH
  5
4EB
100
AcDbEntity
  8
0
  6
Continuous
 62
     5
100
AcDbHatch
 10
0.0
 20
0.0
 30
0.0
210
0.0
220
0.0
230
1.0
  2
SOLID
 70
     1
 71
     1
 91
        1
 92
        3
 72
     0
 73
     1
 93
        3
 10
385.44623162712315
 20
221.10127127571104
 10
384.77956496045647
 20
217.10127127571104
 10
386.11289829378984
 20
217.10127127571104
 97
        1
330
4EC
 75
     0
 76
     0
 98
        0
  0
POLYLINE
  5
4F2
102
{ACAD_REACTORS
330
4F1
102
}
100
AcDbEntity
  8
0
370
     0
  6
Continuous
 62
     5
100
AcDb2dPolyline
 66
     1
 10
0.0
 20
0.0
 30
0.0
 70
   129
  0
VERTEX
  5
4F3
100
AcDbEntity
  8
0
  6
Continuous
 62
     5
100
AcDbVertex
100
AcDb2dVertex
 10
385.446232
 20
191.108101
 30
0.0
  0
VERTEX
  5
4F4
100
AcDbEntity
  8
0
  6
Continuous
 62
     5
100
AcDbVertex
100
AcDb2dVertex
 10
386.112898
 20
195.108101
 30
0.0
  0
VERTEX
  5
4F5
100
AcDbEntity
  8
0
  6
Continuous
 62
     5
100
AcDbVertex
100
AcDb2dVertex
 10
384.779565
 20
195.108101
 30
0.0
  0
SEQEND
  5
4F6
100
AcDbEntity
  8
0
  6
Continuous
 62
     5
  0
HATCH
  5
4F1
100
AcDbEntity
  8
0
  6
Continuous
 62
     5
100
AcDbHatch
 10
0.0
 20
0.0
 30
0.0
210
0.0
220
0.0
230
1.0
  2
SOLID
 70
     1
 71
     1
 91
        1
 92
        3
 72
     0
 73
     1
 93
        3
 10
385.44623162712315
 20
191.1081005707382
 10
386.11289829378984
 20
195.1081005707382
 10
384.77956496045647
 20
195.1081005707382
 97
        1
330
4F2
 75
     0
 76
     0
 98
        0
  0
TEXT
  5
4F7
100
AcDbEntity
  8
0
  6
Continuous
 62
     5
100
AcDbText
 10
377.033163
 20
200.940797
 30
0.0
 40
10.797222
  1
30
 72
     5
 11
393.8593
 21
200.940797
 31
0.0
100
AcDbText
  0
ENDBLK
  5
4F8
100
AcDbEntity
  8
0
100
AcDbBlockEnd
  0
ENDSEC
  0
SECTION
  2
ENTITIES
  0
LINE
  5
36
100
AcDbEntity
  8
0
370
     0
  6
Continuous
 62
     5
100
AcDbLine
 10
-0.0
 20
-28.198117
 30
0.0
 11
0.0
 21
404.66326
 31
0.0
  0
TEXT
  5
38
100
AcDbEntity
  8
0
  6
Continuous
 62
     5
100
AcDbText
 10
225.905017
 20
-39.610206
 30
0.0
 40
18.339952
  1
Csupasz-Árny I.
  7
_TCW_TXTSTY_1
 72
     5
 11
462.155963
 21
-39.610206
 31
0.0
100
AcDbText
1001
TCAD
1000
TCW40_TEXT
1002
{
1000
Times New Roman CE
1070
     0
1070
   257
1002
}
  0
TEXT
  5
39
100
AcDbEntity
  8
0
  6
Continuous
 62
     5
100
AcDbText
 10
226.588577
 20
-78.80221
 30
0.0
 40
6.485652
  1
SRY MODELL 2005
  7
_TCW_TXTSTY_1
 72
     5
 11
453.103062
 21
-78.80221
 31
0.0
100
AcDbText
1001
TCAD
1000
TCW40_TEXT
1002
{
1000
Times New Roman CE
1070
     0
1070
   257
1002
}
  0
ARC
  5
3A
100
AcDbEntity
  8
0
370
     0
  6
Continuous
 62
     7
100
AcDbCircle
 10
-104.676664
 20
424.804252
 30
0.0
 40
100.305908
100
AcDbArc
 50
-66.142145
 51
-18.043581
  0
ARC
  5
3B
100
AcDbEntity
  8
0
370
     0
  6
Continuous
 62
     7
100
AcDbCircle
 10
104.679267
 20
424.898664
 30
0.0
 40
100.344467
100
AcDbArc
 50
-161.560994
 51
-113.78992
  0
ARC
  5
3C
100
AcDbEntity
  8
0
370
     0
  6
Continuous
 62
     7
100
AcDbCircle
 10
0.008982
 20
390.012444
 30
0.0
 40
9.996124
100
AcDbArc
 50
16.745751
 51
159.932909
  0
LINE
  5
3D
100
AcDbEntity
  8
0
370
     0
  6
Continuous
 62
     7
100
AcDbLine
 10
-64.004062
 20
333.040167
 30
0.0
 11
-75.943028
 21
307.436972
 31
0.0
  0
POLYLINE
  5
3E
100
AcDbEntity
  8
0
370
     0
  6
Continuous
 62
     7
100
AcDb2dPolyline
 66
     1
 10
0.0
 20
0.0
 30
0.0
 70
     1
  0
VERTEX
  5
3F
100
AcDbEntity
  8
0
  6
Continuous
 62
     7
100
AcDbVertex
100
AcDb2dVertex
 10
0.0
 20
0.0
 30
0.0
  0
VERTEX
  5
40
100
AcDbEntity
  8
0
  6
Continuous
 62
     7
100
AcDbVertex
100
AcDb2dVertex
 10
380.0
 20
319.0
 30
0.0
  0
VERTEX
  5
41
100
AcDbEntity
  8
0
  6
Continuous
 62
     7
100
AcDbVertex
100
AcDb2dVertex
 10
380.0
 20
446.0
 30
0.0
  0
VERTEX
  5
42
100
AcDbEntity
  8
0
  6
Continuous
 62
     7
100
AcDbVertex
100
AcDb2dVertex
 10
76.1
 20
307.6
 30
0.0
  0
VERTEX
  5
43
100
AcDbEntity
  8
0
  6
Continuous
 62
     7
100
AcDbVertex
100
AcDb2dVertex
 10
64.0
 20
333.0
 30
0.0
  0
VERTEX
  5
44
100
AcDbEntity
  8
0
  6
Continuous
 62
     7
100
AcDbVertex
100
AcDb2dVertex
 10
63.923102
 20
333.242679
 30
0.0
  0
VERTEX
  5
45
100
AcDbEntity
  8
0
  6
Continuous
 62
     7
100
AcDbVertex
100
AcDb2dVertex
 10
62.380735
 20
333.850278
 30
0.0
  0
VERTEX
  5
46
100
AcDbEntity
  8
0
  6
Continuous
 62
     7
100
AcDbVertex
100
AcDb2dVertex
 10
61.118798
 20
334.504615
 30
0.0
  0
VERTEX
  5
47
100
AcDbEntity
  8
0
  6
Continuous
 62
     7
100
AcDbVertex
100
AcDb2dVertex
 10
58.735141
 20
335.766552
 30
0.0
  0
VERTEX
  5
48
100
AcDbEntity
  8
0
  6
Continuous
 62
     7
100
AcDbVertex
100
AcDb2dVertex
 10
57.052559
 20
336.561105
 30
0.0
  0
VERTEX
  5
49
100
AcDbEntity
  8
0
  6
Continuous
 62
     7
100
AcDbVertex
100
AcDb2dVertex
 10
54.294994
 20
338.15021
 30
0.0
  0
VERTEX
  5
4A
100
AcDbEntity
  8
0
  6
Continuous
 62
     7
100
AcDbVertex
100
AcDb2dVertex
 10
51.397214
 20
339.87953
 30
0.0
  0
VERTEX
  5
4B
100
AcDbEntity
  8
0
  6
Continuous
 62
     7
100
AcDbVertex
100
AcDb2dVertex
 10
49.667893
 20
341.001251
 30
0.0
  0
VERTEX
  5
4C
100
AcDbEntity
  8
0
  6
Continuous
 62
     7
100
AcDbVertex
100
AcDb2dVertex
 10
47.646458
 20
342.286557
 30
0.0
  0
VERTEX
  5
4D
100
AcDbEntity
  8
0
  6
Continuous
 62
     7
100
AcDbVertex
100
AcDb2dVertex
 10
46.197568
 20
343.408278
 30
0.0
  0
VERTEX
  5
4E
100
AcDbEntity
  8
0
  6
Continuous
 62
     7
100
AcDbVertex
100
AcDb2dVertex
 10
43.767172
 20
345.137599
 30
0.0
  0
VERTEX
  5
4F
100
AcDbEntity
  8
0
  6
Continuous
 62
     7
100
AcDbVertex
100
AcDb2dVertex
 10
40.91613
 20
347.42778
 30
0.0
  0
VERTEX
  5
50
100
AcDbEntity
  8
0
  6
Continuous
 62
     7
100
AcDbVertex
100
AcDb2dVertex
 10
39.373763
 20
348.736455
 30
0.0
  0
VERTEX
  5
51
100
AcDbEntity
  8
0
  6
Continuous
 62
     7
100
AcDbVertex
100
AcDb2dVertex
 10
35.027093
 20
352.592372
 30
0.0
  0
VERTEX
  5
52
100
AcDbEntity
  8
0
  6
Continuous
 62
     7
100
AcDbVertex
100
AcDb2dVertex
 10
32.549959
 20
355.116245
 30
0.0
  0
VERTEX
  5
53
100
AcDbEntity
  8
0
  6
Continuous
 62
     7
100
AcDbVertex
100
AcDb2dVertex
 10
30.166301
 20
357.640118
 30
0.0
  0
VERTEX
  5
54
100
AcDbEntity
  8
0
  6
Continuous
 62
     7
100
AcDbVertex
100
AcDb2dVertex
 10
26.731029
 20
361.706358
 30
0.0
  0
VERTEX
  5
55
100
AcDbEntity
  8
0
  6
Continuous
 62
     7
100
AcDbVertex
100
AcDb2dVertex
 10
24.440848
 20
364.697614
 30
0.0
  0
VERTEX
  5
56
100
AcDbEntity
  8
0
  6
Continuous
 62
     7
100
AcDbVertex
100
AcDb2dVertex
 10
21.823498
 20
368.273101
 30
0.0
  0
VERTEX
  5
57
100
AcDbEntity
  8
0
  6
Continuous
 62
     7
100
AcDbVertex
100
AcDb2dVertex
 10
18.843926
 20
372.876832
 30
0.0
  0
VERTEX
  5
58
100
AcDbEntity
  8
0
  6
Continuous
 62
     7
100
AcDbVertex
100
AcDb2dVertex
 10
16.226576
 20
377.457195
 30
0.0
  0
VERTEX
  5
59
100
AcDbEntity
  8
0
  6
Continuous
 62
     7
100
AcDbVertex
100
AcDb2dVertex
 10
14.123349
 20
381.710388
 30
0.0
  0
VERTEX
  5
5A
100
AcDbEntity
  8
0
  6
Continuous
 62
     7
100
AcDbVertex
100
AcDb2dVertex
 10
12.580982
 20
385.12229
 30
0.0
  0
VERTEX
  5
5B
100
AcDbEntity
  8
0
  6
Continuous
 62
     7
100
AcDbVertex
100
AcDb2dVertex
 10
11.085353
 20
388.721146
 30
0.0
  0
VERTEX
  5
5C
100
AcDbEntity
  8
0
  6
Continuous
 62
     7
100
AcDbVertex
100
AcDb2dVertex
 10
9.776679
 20
392.320002
 30
0.0
  0
VERTEX
  5
5D
100
AcDbEntity
  8
0
  6
Continuous
 62
     7
100
AcDbVertex
100
AcDb2dVertex
 10
9.320979
 20
393.605308
 30
0.0
  0
VERTEX
  5
5E
100
AcDbEntity
  8
0
  6
Continuous
 62
     7
100
AcDbVertex
100
AcDb2dVertex
 10
8.619903
 20
395.194413
 30
0.0
  0
VERTEX
  5
5F
100
AcDbEntity
  8
0
  6
Continuous
 62
     7
100
AcDbVertex
100
AcDb2dVertex
 10
7.685135
 20
396.456349
 30
0.0
  0
VERTEX
  5
60
100
AcDbEntity
  8
0
  6
Continuous
 62
     7
100
AcDbVertex
100
AcDb2dVertex
 10
5.862338
 20
398.18567
 30
0.0
  0
VERTEX
  5
61
100
AcDbEntity
  8
0
  6
Continuous
 62
     7
100
AcDbVertex
100
AcDb2dVertex
 10
4.039541
 20
399.167176
 30
0.0
  0
VERTEX
  5
62
100
AcDbEntity
  8
0
  6
Continuous
 62
     7
100
AcDbVertex
100
AcDb2dVertex
 10
2.590651
 20
399.728037
 30
0.0
  0
VERTEX
  5
63
100
AcDbEntity
  8
0
  6
Continuous
 62
     7
100
AcDbVertex
100
AcDb2dVertex
 10
0.861331
 20
400.008467
 30
0.0
  0
VERTEX
  5
64
100
AcDbEntity
  8
0
  6
Continuous
 62
     7
100
AcDbVertex
100
AcDb2dVertex
 10
-0.634298
 20
400.008467
 30
0.0
  0
VERTEX
  5
65
100
AcDbEntity
  8
0
  6
Continuous
 62
     7
100
AcDbVertex
100
AcDb2dVertex
 10
-1.989711
 20
399.821513
 30
0.0
  0
VERTEX
  5
66
100
AcDbEntity
  8
0
  6
Continuous
 62
     7
100
AcDbVertex
100
AcDb2dVertex
 10
-3.485339
 20
399.447606
 30
0.0
  0
VERTEX
  5
67
100
AcDbEntity
  8
0
  6
Continuous
 62
     7
100
AcDbVertex
100
AcDb2dVertex
 10
-4.642115
 20
398.886746
 30
0.0
  0
VERTEX
  5
68
100
AcDbEntity
  8
0
  6
Continuous
 62
     7
100
AcDbVertex
100
AcDb2dVertex
 10
-5.717098
 20
398.232408
 30
0.0
  0
VERTEX
  5
69
100
AcDbEntity
  8
0
  6
Continuous
 62
     7
100
AcDbVertex
100
AcDb2dVertex
 10
-7.212726
 20
396.970472
 30
0.0
  0
VERTEX
  5
6A
100
AcDbEntity
  8
0
  6
Continuous
 62
     7
100
AcDbVertex
100
AcDb2dVertex
 10
-8.147494
 20
395.802012
 30
0.0
  0
VERTEX
  5
6B
100
AcDbEntity
  8
0
  6
Continuous
 62
     7
100
AcDbVertex
100
AcDb2dVertex
 10
-8.755093
 20
394.820506
 30
0.0
  0
VERTEX
  5
6C
100
AcDbEntity
  8
0
  6
Continuous
 62
     7
100
AcDbVertex
100
AcDb2dVertex
 10
-9.549646
 20
393.137924
 30
0.0
  0
VERTEX
  5
6D
100
AcDbEntity
  8
0
  6
Continuous
 62
     7
100
AcDbVertex
100
AcDb2dVertex
 10
-11.138751
 20
388.6043
 30
0.0
  0
VERTEX
  5
6E
100
AcDbEntity
  8
0
  6
Continuous
 62
     7
100
AcDbVertex
100
AcDb2dVertex
 10
-12.821333
 20
384.514691
 30
0.0
  0
VERTEX
  5
6F
100
AcDbEntity
  8
0
  6
Continuous
 62
     7
100
AcDbVertex
100
AcDb2dVertex
 10
-14.130008
 20
381.710388
 30
0.0
  0
VERTEX
  5
70
100
AcDbEntity
  8
0
  6
Continuous
 62
     7
100
AcDbVertex
100
AcDb2dVertex
 10
-15.859328
 20
378.205009
 30
0.0
  0
VERTEX
  5
71
100
AcDbEntity
  8
0
  6
Continuous
 62
     7
100
AcDbVertex
100
AcDb2dVertex
 10
-17.810656
 20
374.629522
 30
0.0
  0
VERTEX
  5
72
100
AcDbEntity
  8
0
  6
Continuous
 62
     7
100
AcDbVertex
100
AcDb2dVertex
 10
-19.4465
 20
371.918695
 30
0.0
  0
VERTEX
  5
73
100
AcDbEntity
  8
0
  6
Continuous
 62
     7
100
AcDbVertex
100
AcDb2dVertex
 10
-21.876896
 20
368.179624
 30
0.0
  0
VERTEX
  5
74
100
AcDbEntity
  8
0
  6
Continuous
 62
     7
100
AcDbVertex
100
AcDb2dVertex
 10
-24.435823
 20
364.650876
 30
0.0
  0
VERTEX
  5
75
100
AcDbEntity
  8
0
  6
Continuous
 62
     7
100
AcDbVertex
100
AcDb2dVertex
 10
-26.726004
 20
361.612881
 30
0.0
  0
VERTEX
  5
76
100
AcDbEntity
  8
0
  6
Continuous
 62
     7
100
AcDbVertex
100
AcDb2dVertex
 10
-29.109662
 20
358.855316
 30
0.0
  0
VERTEX
  5
77
100
AcDbEntity
  8
0
  6
Continuous
 62
     7
100
AcDbVertex
100
AcDb2dVertex
 10
-31.960703
 20
355.677105
 30
0.0
  0
VERTEX
  5
78
100
AcDbEntity
  8
0
  6
Continuous
 62
     7
100
AcDbVertex
100
AcDb2dVertex
 10
-34.344361
 20
353.293448
 30
0.0
  0
VERTEX
  5
79
100
AcDbEntity
  8
0
  6
Continuous
 62
     7
100
AcDbVertex
100
AcDb2dVertex
 10
-37.826371
 20
350.02176
 30
0.0
  0
VERTEX
  5
7A
100
AcDbEntity
  8
0
  6
Continuous
 62
     7
100
AcDbVertex
100
AcDb2dVertex
 10
-40.630675
 20
347.638103
 30
0.0
  0
VERTEX
  5
7B
100
AcDbEntity
  8
0
  6
Continuous
 62
     7
100
AcDbVertex
100
AcDb2dVertex
 10
-43.434978
 20
345.39466
 30
0.0
  0
VERTEX
  5
7C
100
AcDbEntity
  8
0
  6
Continuous
 62
     7
100
AcDbVertex
100
AcDb2dVertex
 10
-46.56645
 20
343.05774
 30
0.0
  0
VERTEX
  5
7D
100
AcDbEntity
  8
0
  6
Continuous
 62
     7
100
AcDbVertex
100
AcDb2dVertex
 10
-51.754411
 20
339.575731
 30
0.0
  0
VERTEX
  5
7E
100
AcDbEntity
  8
0
  6
Continuous
 62
     7
100
AcDbVertex
100
AcDb2dVertex
 10
-56.334773
 20
336.911642
 30
0.0
  0
VERTEX
  5
7F
100
AcDbEntity
  8
0
  6
Continuous
 62
     7
100
AcDbVertex
100
AcDb2dVertex
 10
-60.821659
 20
334.574723
 30
0.0
  0
VERTEX
  5
80
100
AcDbEntity
  8
0
  6
Continuous
 62
     7
100
AcDbVertex
100
AcDb2dVertex
 10
-63.953131
 20
333.172571
 30
0.0
  0
VERTEX
  5
81
100
AcDbEntity
  8
0
  6
Continuous
 62
     7
100
AcDbVertex
100
AcDb2dVertex
 10
-63.999869
 20
333.020672
 30
0.0
  0
VERTEX
  5
82
100
AcDbEntity
  8
0
  6
Continuous
 62
     7
100
AcDbVertex
100
AcDb2dVertex
 10
-64.0
 20
333.0
 30
0.0
  0
VERTEX
  5
83
100
AcDbEntity
  8
0
  6
Continuous
 62
     7
100
AcDbVertex
100
AcDb2dVertex
 10
-76.1
 20
307.6
 30
0.0
  0
VERTEX
  5
84
100
AcDbEntity
  8
0
  6
Continuous
 62
     7
100
AcDbVertex
100
AcDb2dVertex
 10
-380.0
 20
446.0
 30
0.0
  0
VERTEX
  5
85
100
AcDbEntity
  8
0
  6
Continuous
 62
     7
100
AcDbVertex
100
AcDb2dVertex
 10
-380.0
 20
319.0
 30
0.0
  0
VERTEX
  5
86
100
AcDbEntity
  8
0
  6
Continuous
 62
     7
100
AcDbVertex
100
AcDb2dVertex
 10
0.0
 20
0.0
 30
0.0
  0
SEQEND
  5
87
100
AcDbEntity
  8
0
  6
Continuous
 62
     7
  0
POLYLINE
  5
88
100
AcDbEntity
  8
0
370
     0
  6
Continuous
 62
     7
100
AcDb2dPolyline
 66
     1
 10
0.0
 20
0.0
 30
0.0
 70
     1
  0
VERTEX
  5
89
100
AcDbEntity
  8
0
  6
Continuous
 62
     7
100
AcDbVertex
100
AcDb2dVertex
 10
-380.0
 20
446.0
 30
0.0
  0
VERTEX
  5
8A
100
AcDbEntity
  8
0
  6
Continuous
 62
     7
100
AcDbVertex
100
AcDb2dVertex
 10
-380.0
 20
500.0
 30
0.0
  0
VERTEX
  5
8B
100
AcDbEntity
  8
0
  6
Continuous
 62
     7
100
AcDbVertex
100
AcDb2dVertex
 10
-64.0
 20
333.0
 30
0.0
  0
VERTEX
  5
8C
100
AcDbEntity
  8
0
  6
Continuous
 62
     7
100
AcDbVertex
100
AcDb2dVertex
 10
-76.1
 20
307.6
 30
0.0
  0
SEQEND
  5
8D
100
AcDbEntity
  8
0
  6
Continuous
 62
     7
  0
POLYLINE
  5
8E
100
AcDbEntity
  8
0
370
     0
  6
Continuous
 62
     7
100
AcDb2dPolyline
 66
     1
 10
0.0
 20
0.0
 30
0.0
 70
     1
  0
VERTEX
  5
8F
100
AcDbEntity
  8
0
  6
Continuous
 62
     7
100
AcDbVertex
100
AcDb2dVertex
 10
380.0
 20
446.0
 30
0.0
  0
VERTEX
  5
90
100
AcDbEntity
  8
0
  6
Continuous
 62
     7
100
AcDbVertex
100
AcDb2dVertex
 10
380.0
 20
500.0
 30
0.0
  0
VERTEX
  5
91
100
AcDbEntity
  8
0
  6
Continuous
 62
     7
100
AcDbVertex
100
AcDb2dVertex
 10
64.0
 20
333.0
 30
0.0
  0
VERTEX
  5
92
100
AcDbEntity
  8
0
  6
Continuous
 62
     7
100
AcDbVertex
100
AcDb2dVertex
 10
76.1
 20
307.6
 30
0.0
  0
SEQEND
  5
93
100
AcDbEntity
  8
0
  6
Continuous
 62
     7
  0
ARC
  5
94
100
AcDbEntity
  8
0
370
     0
  6
Continuous
 62
     7
100
AcDbCircle
 10
-56.0
 20
280.0
 30
0.0
 40
10.0
100
AcDbArc
 50
90.000003
 51
269.999997
  0
ARC
  5
95
100
AcDbEntity
  8
0
370
     0
  6
Continuous
 62
     7
100
AcDbCircle
 10
56.0
 20
280.0
 30
0.0
 40
10.0
100
AcDbArc
 50
-90.000003
 51
90.000003
  0
LINE
  5
96
100
AcDbEntity
  8
0
370
     0
  6
Continuous
 62
     7
100
AcDbLine
 10
-56.0
 20
270.0
 30
0.0
 11
56.0
 21
270.0
 31
0.0
  0
LINE
  5
97
100
AcDbEntity
  8
0
370
     0
  6
Continuous
 62
     7
100
AcDbLine
 10
-56.0
 20
290.0
 30
0.0
 11
56.0
 21
290.0
 31
0.0
  0
TEXT
  5
98
100
AcDbEntity
  8
0
  6
Continuous
 62
     5
100
AcDbText
 10
226.007658
 20
-59.899161
 30
0.0
 40
10.038547
  1
Rajz: 2/3
  7
_TCW_TXTSTY_1
 72
     5
 11
328.857183
 21
-59.899161
 31
0.0
100
AcDbText
1001
TCAD
1000
TCW40_TEXT
1002
{
1000
Times New Roman CE
1070
     0
1070
   257
1002
}
  0
POLYLINE
  5
99
100
AcDbEntity
  8
0
370
     0
  6
Continuous
 62
     5
100
AcDb2dPolyline
 66
     1
 10
0.0
 20
0.0
 30
0.0
 70
     1
  0
VERTEX
  5
9A
100
AcDbEntity
  8
0
  6
Continuous
 62
     5
100
AcDbVertex
100
AcDb2dVertex
 10
219.999221
 20
-15.16544
 30
0.0
  0
VERTEX
  5
9B
100
AcDbEntity
  8
0
  6
Continuous
 62
     5
100
AcDbVertex
100
AcDb2dVertex
 10
469.852091
 20
-15.16544
 30
0.0
  0
VERTEX
  5
9C
100
AcDbEntity
  8
0
  6
Continuous
 62
     5
100
AcDbVertex
100
AcDb2dVertex
 10
469.852091
 20
-82.985495
 30
0.0
  0
VERTEX
  5
9D
100
AcDbEntity
  8
0
  6
Continuous
 62
     5
100
AcDbVertex
100
AcDb2dVertex
 10
219.999221
 20
-82.985495
 30
0.0
  0
SEQEND
  5
9E
100
AcDbEntity
  8
0
  6
Continuous
 62
     5
  0
TEXT
  5
9F
100
AcDbEntity
  8
0
  6
Continuous
 62
     5
100
AcDbText
 10
387.674692
 20
-60.523839
 30
0.0
 40
10.038547
  1
M 1:1
  7
_TCW_TXTSTY_1
 72
     5
 11
456.001782
 21
-60.523839
 31
0.0
100
AcDbText
1001
TCAD
1000
TCW40_TEXT
1002
{
1000
Times New Roman CE
1070
     0
1070
   257
1002
}
  0
LINE
  5
A0
100
AcDbEntity
  8
0
370
     0
  6
Continuous
 62
     7
100
AcDbLine
 10
10.322956
 20
269.982267
 30
0.0
 11
-10.227798
 21
269.982267
 31
0.0
  0
LINE
  5
A1
100
AcDbEntity
  8
0
370
     0
  6
Continuous
 62
     7
100
AcDbLine
 10
12.065782
 20
253.966232
 30
0.0
 11
12.065782
 21
240.987271
 31
0.0
  0
LINE
  5
A2
100
AcDbEntity
  8
0
370
     0
  6
Continuous
 62
     7
100
AcDbLine
 10
-12.134218
 20
253.966238
 30
0.0
 11
-12.134218
 21
240.972258
 31
0.0
  0
POLYLINE
  5
A3
100
AcDbEntity
  8
0
370
     0
  6
Continuous
 62
     7
100
AcDb2dPolyline
 66
     1
 10
0.0
 20
0.0
 30
0.0
  0
VERTEX
  5
A4
100
AcDbEntity
  8
0
  6
Continuous
 62
     7
100
AcDbVertex
100
AcDb2dVertex
 10
3.135782
 20
269.982267
 30
0.0
  0
VERTEX
  5
A5
100
AcDbEntity
  8
0
  6
Continuous
 62
     7
100
AcDbVertex
100
AcDb2dVertex
 10
3.135782
 20
271.394756
 30
0.0
  0
VERTEX
  5
A6
100
AcDbEntity
  8
0
  6
Continuous
 62
     7
100
AcDbVertex
100
AcDb2dVertex
 10
-3.214218
 20
271.394756
 30
0.0
  0
VERTEX
  5
A7
100
AcDbEntity
  8
0
  6
Continuous
 62
     7
100
AcDbVertex
100
AcDb2dVertex
 10
-3.214218
 20
269.982267
 30
0.0
  0
SEQEND
  5
A8
100
AcDbEntity
  8
0
  6
Continuous
 62
     7
  0
POLYLINE
  5
A9
100
AcDbEntity
  8
0
370
     0
  6
Continuous
 62
     7
100
AcDb2dPolyline
 66
     1
 10
0.0
 20
0.0
 30
0.0
  0
VERTEX
  5
AA
100
AcDbEntity
  8
0
  6
Continuous
 62
     7
100
AcDbVertex
100
AcDb2dVertex
 10
0.965782
 20
271.582267
 30
0.0
  0
VERTEX
  5
AB
100
AcDbEntity
  8
0
  6
Continuous
 62
     7
100
AcDbVertex
100
AcDb2dVertex
 10
0.965782
 20
281.454092
 30
0.0
  0
VERTEX
  5
AC
100
AcDbEntity
  8
0
  6
Continuous
 62
     7
100
AcDbVertex
100
AcDb2dVertex
 10
-1.034218
 20
281.454092
 30
0.0
  0
VERTEX
  5
AD
100
AcDbEntity
  8
0
  6
Continuous
 62
     7
100
AcDbVertex
100
AcDb2dVertex
 10
-1.034218
 20
271.582267
 30
0.0
  0
SEQEND
  5
AE
100
AcDbEntity
  8
0
  6
Continuous
 62
     7
  0
ARC
  5
AF
100
AcDbEntity
  8
0
370
     0
  6
Continuous
 62
     7
100
AcDbCircle
 10
-178.366364
 20
306.935699
 30
0.0
 40
1.0
100
AcDbArc
 50
0.0
 51
180.000005
  0
POLYLINE
  5
B0
100
AcDbEntity
  8
0
370
     0
  6
Continuous
 62
     7
100
AcDb2dPolyline
 66
     1
 10
0.0
 20
0.0
 30
0.0
 70
     1
  0
VERTEX
  5
B1
100
AcDbEntity
  8
0
  6
Continuous
 62
     7
100
AcDbVertex
100
AcDb2dVertex
 10
2.942896
 20
271.587876
 30
0.0
  0
VERTEX
  5
B2
100
AcDbEntity
  8
0
  6
Continuous
 62
     7
100
AcDbVertex
100
AcDb2dVertex
 10
3.136017
 20
271.394755
 30
0.0
  0
VERTEX
  5
B3
100
AcDbEntity
  8
0
  6
Continuous
 62
     7
100
AcDbVertex
100
AcDb2dVertex
 10
-3.209375
 20
271.394755
 30
0.0
  0
VERTEX
  5
B4
100
AcDbEntity
  8
0
  6
Continuous
 62
     7
100
AcDbVertex
100
AcDb2dVertex
 10
-3.016254
 20
271.587876
 30
0.0
  0
SEQEND
  5
B5
100
AcDbEntity
  8
0
  6
Continuous
 62
     7
  0
ARC
  5
B6
100
AcDbEntity
  8
0
370
     0
  6
Continuous
 62
     7
100
AcDbCircle
 10
10.053244
 20
267.98379
 30
0.0
 40
2.0
100
AcDbArc
 50
0.0
 51
90.000003
  0
ARC
  5
B7
100
AcDbEntity
  8
0
370
     0
  6
Continuous
 62
     7
100
AcDbCircle
 10
-10.140657
 20
267.987597
 30
0.0
 40
2.0
100
AcDbArc
 50
90.000003
 51
180.000005
  0
POLYLINE
  5
B8
100
AcDbEntity
  8
0
370
     0
  6
Continuous
 62
     7
100
AcDb2dPolyline
 66
     1
 10
0.0
 20
0.0
 30
0.0
  0
VERTEX
  5
B9
100
AcDbEntity
  8
0
  6
Continuous
 62
     7
100
AcDbVertex
100
AcDb2dVertex
 10
4.165782
 20
239.482267
 30
0.0
  0
VERTEX
  5
BA
100
AcDbEntity
  8
0
  6
Continuous
 62
     7
100
AcDbVertex
100
AcDb2dVertex
 10
4.165782
 20
237.482267
 30
0.0
  0
VERTEX
  5
BB
100
AcDbEntity
  8
0
  6
Continuous
 62
     7
100
AcDbVertex
100
AcDb2dVertex
 10
-4.234218
 20
237.482267
 30
0.0
  0
VERTEX
  5
BC
100
AcDbEntity
  8
0
  6
Continuous
 62
     7
100
AcDbVertex
100
AcDb2dVertex
 10
-4.234218
 20
239.482267
 30
0.0
  0
SEQEND
  5
BD
100
AcDbEntity
  8
0
  6
Continuous
 62
     7
  0
LINE
  5
BE
100
AcDbEntity
  8
0
370
     0
  6
Continuous
 62
     7
100
AcDbLine
 10
12.065782
 20
240.982267
 30
0.0
 11
-12.134218
 21
240.982267
 31
0.0
  0
LINE
  5
BF
100
AcDbEntity
  8
0
370
     0
  6
Continuous
 62
     7
100
AcDbLine
 10
11.97755
 20
239.921478
 30
0.0
 11
-12.067595
 21
239.921478
 31
0.0
  0
POLYLINE
  5
C0
100
AcDbEntity
  8
0
370
     0
  6
Continuous
 62
     7
100
AcDb2dPolyline
 66
     1
 10
0.0
 20
0.0
 30
0.0
 70
     1
  0
VERTEX
  5
C1
100
AcDbEntity
  8
0
  6
Continuous
 62
     7
100
AcDbVertex
100
AcDb2dVertex
 10
11.980352
 20
240.979762
 30
0.0
  0
VERTEX
  5
C2
100
AcDbEntity
  8
0
  6
Continuous
 62
     7
100
AcDbVertex
100
AcDb2dVertex
 10
11.980352
 20
239.921453
 30
0.0
  0
VERTEX
  5
C3
100
AcDbEntity
  8
0
  6
Continuous
 62
     7
100
AcDbVertex
100
AcDb2dVertex
 10
11.537514
 20
239.478614
 30
0.0
  0
VERTEX
  5
C4
100
AcDbEntity
  8
0
  6
Continuous
 62
     7
100
AcDbVertex
100
AcDb2dVertex
 10
-11.608309
 20
239.478614
 30
0.0
  0
VERTEX
  5
C5
100
AcDbEntity
  8
0
  6
Continuous
 62
     7
100
AcDbVertex
100
AcDb2dVertex
 10
-12.051147
 20
239.921453
 30
0.0
  0
VERTEX
  5
C6
100
AcDbEntity
  8
0
  6
Continuous
 62
     7
100
AcDbVertex
100
AcDb2dVertex
 10
-12.051147
 20
240.979762
 30
0.0
  0
SEQEND
  5
C7
100
AcDbEntity
  8
0
  6
Continuous
 62
     7
  0
ARC
  5
C8
100
AcDbEntity
  8
0
370
     0
  6
Continuous
 62
     7
100
AcDbCircle
 10
-0.020885
 20
237.471701
 30
0.0
 40
1.0
100
AcDbArc
 50
180.000005
 51
360.0
  0
LINE
  5
C9
100
AcDbEntity
  8
0
370
     0
  6
Continuous
 62
     7
100
AcDbLine
 10
0.940049
 20
263.660569
 30
0.0
 11
-1.20213
 21
263.660569
 31
0.0
  0
INSERT
  5
F8
100
AcDbEntity
  8
0
  6
Continuous
 62
     7
100
AcDbBlockReference
  2
*E1
 10
0.0
 20
0.0
 30
0.0
1001
TCAD
1000
TC25ExternalObject
1002
{
1000
TCW30CURVE
1000

1070
     0
1071
        0
1040
1.0
1040
0.0
1000
Continuous
1000
0
1070
    21
1071
        7
1071
      162
1010
0.976563
1020
263.648401
1030
0.0
1071
     6274
1010
1.838729
1020
264.295025
1030
0.0
1071
     6274
1010
1.031867
1020
266.71561
1030
0.0
1071
      130
1010
-0.04584
1020
266.71561
1030
0.0
1071
     6274
1010
-1.131491
1020
266.71561
1030
0.0
1071
     6274
1010
-1.981301
1020
264.336144
1030
0.0
1071
      162
1010
-1.141272
1020
263.648401
1030
0.0
1070
     3
1071
        5
1000
$SPLINESEGS
1070
    18
1070
    20
1000
$SPLFRAME
1070
    18
1070
     0
1000
$SPLINETYPE
1070
    18
1070
     1
1000
$SHOWCONTRPTS
1070
    18
1070
     1
1000
$CURVESMOOTH
1070
    18
1070
     1
1002
}
  0
TEXT
  5
F9
100
AcDbEntity
  8
0
  6
Continuous
 62
     7
100
AcDbText
 10
5.762448
 20
268.03371
 30
0.0
 40
3.222614
  1
mabuchi 280
 50
-90.0
 72
     5
 11
5.762448
 21
242.180536
 31
0.0
100
AcDbText
1001
TCAD
1000
TCW40_TEXT
1002
{
1000
Arial
1070
     0
1070
   257
1002
}
  0
LINE
  5
FA
100
AcDbEntity
  8
0
370
     0
  6
Continuous
 62
     7
100
AcDbLine
 10
-15.034218
 20
256.482267
 30
0.0
 11
-12.120399
 21
256.482267
 31
0.0
  0
LINE
  5
FB
100
AcDbEntity
  8
0
370
     0
  6
Continuous
 62
     7
100
AcDbLine
 10
-15.034218
 20
253.482267
 30
0.0
 11
-12.120399
 21
253.482267
 31
0.0
  0
LINE
  5
FC
100
AcDbEntity
  8
0
370
     0
  6
Continuous
 62
     7
100
AcDbLine
 10
14.965782
 20
256.482267
 30
0.0
 11
12.061498
 21
256.482267
 31
0.0
  0
LINE
  5
FD
100
AcDbEntity
  8
0
370
     0
  6
Continuous
 62
     7
100
AcDbLine
 10
14.965782
 20
253.482267
 30
0.0
 11
12.061498
 21
253.482267
 31
0.0
  0
POLYLINE
  5
FE
100
AcDbEntity
  8
0
370
     0
  6
Continuous
 62
     7
100
AcDb2dPolyline
 66
     1
 10
0.0
 20
0.0
 30
0.0
  0
VERTEX
  5
FF
100
AcDbEntity
  8
0
  6
Continuous
 62
     7
100
AcDbVertex
100
AcDb2dVertex
 10
-0.034218
 20
269.982267
 30
0.0
  0
VERTEX
  5
100
100
AcDbEntity
  8
0
  6
Continuous
 62
     7
100
AcDbVertex
100
AcDb2dVertex
 10
14.965782
 20
269.982267
 30
0.0
  0
VERTEX
  5
101
100
AcDbEntity
  8
0
  6
Continuous
 62
     7
100
AcDbVertex
100
AcDb2dVertex
 10
14.965782
 20
256.482267
 30
0.0
  0
SEQEND
  5
102
100
AcDbEntity
  8
0
  6
Continuous
 62
     7
  0
POLYLINE
  5
103
100
AcDbEntity
  8
0
370
     0
  6
Continuous
 62
     7
100
AcDb2dPolyline
 66
     1
 10
0.0
 20
0.0
 30
0.0
  0
VERTEX
  5
104
100
AcDbEntity
  8
0
  6
Continuous
 62
     7
100
AcDbVertex
100
AcDb2dVertex
 10
-0.034218
 20
269.982267
 30
0.0
  0
VERTEX
  5
105
100
AcDbEntity
  8
0
  6
Continuous
 62
     7
100
AcDbVertex
100
AcDb2dVertex
 10
-15.034218
 20
269.982267
 30
0.0
  0
VERTEX
  5
106
100
AcDbEntity
  8
0
  6
Continuous
 62
     7
100
AcDbVertex
100
AcDb2dVertex
 10
-15.034218
 20
256.482267
 30
0.0
  0
SEQEND
  5
107
100
AcDbEntity
  8
0
  6
Continuous
 62
     7
  0
LINE
  5
108
100
AcDbEntity
  8
0
370
     0
  6
Continuous
 62
     7
100
AcDbLine
 10
14.965782
 20
253.482267
 30
0.0
 11
14.965782
 21
239.982267
 31
0.0
  0
LINE
  5
109
100
AcDbEntity
  8
0
370
     0
  6
Continuous
 62
     7
100
AcDbLine
 10
-15.034218
 20
253.482267
 30
0.0
 11
-15.034218
 21
239.982267
 31
0.0
  0
LINE
  5
10A
100
AcDbEntity
  8
0
370
     0
  6
Continuous
 62
     7
100
AcDbLine
 10
14.965782
 20
239.982267
 30
0.0
 11
12.013764
 21
239.982267
 31
0.0
  0
LINE
  5
10B
100
AcDbEntity
  8
0
370
     0
  6
Continuous
 62
     7
100
AcDbLine
 10
-15.034218
 20
239.982267
 30
0.0
 11
-12.044025
 21
239.982267
 31
0.0
  0
POLYLINE
  5
10C
100
AcDbEntity
  8
0
370
     0
  6
Continuous
 62
     7
100
AcDb2dPolyline
 66
     1
 10
0.0
 20
0.0
 30
0.0
 70
     1
  0
VERTEX
  5
10D
100
AcDbEntity
  8
0
  6
Continuous
 62
     7
100
AcDbVertex
100
AcDb2dVertex
 10
12.065782
 20
255.982267
 30
0.0
  0
VERTEX
  5
10E
100
AcDbEntity
  8
0
  6
Continuous
 62
     7
100
AcDbVertex
100
AcDb2dVertex
 10
12.565782
 20
255.982267
 30
0.0
  0
VERTEX
  5
10F
100
AcDbEntity
  8
0
  6
Continuous
 62
     7
100
AcDbVertex
100
AcDb2dVertex
 10
12.565782
 20
253.982267
 30
0.0
  0
VERTEX
  5
110
100
AcDbEntity
  8
0
  6
Continuous
 62
     7
100
AcDbVertex
100
AcDb2dVertex
 10
-12.634218
 20
253.982267
 30
0.0
  0
VERTEX
  5
111
100
AcDbEntity
  8
0
  6
Continuous
 62
     7
100
AcDbVertex
100
AcDb2dVertex
 10
-12.634218
 20
255.982267
 30
0.0
  0
VERTEX
  5
112
100
AcDbEntity
  8
0
  6
Continuous
 62
     7
100
AcDbVertex
100
AcDb2dVertex
 10
-12.134218
 20
255.982267
 30
0.0
  0
VERTEX
  5
113
100
AcDbEntity
  8
0
  6
Continuous
 62
     7
100
AcDbVertex
100
AcDb2dVertex
 10
12.065782
 20
255.982267
 30
0.0
  0
SEQEND
  5
114
100
AcDbEntity
  8
0
  6
Continuous
 62
     7
  0
LINE
  5
115
100
AcDbEntity
  8
0
370
     0
  6
Continuous
 62
     7
100
AcDbLine
 10
-12.120399
 20
255.990129
 30
0.0
 11
-12.120399
 21
268.370916
 31
0.0
  0
LINE
  5
116
100
AcDbEntity
  8
0
370
     0
  6
Continuous
 62
     7
100
AcDbLine
 10
12.061498
 20
255.990147
 30
0.0
 11
12.061498
 21
268.311341
 31
0.0
  0
POLYLINE
  5
118
102
{ACAD_REACTORS
330
117
102
}
100
AcDbEntity
  8
0
370
     0
  6
Continuous
 62
     7
100
AcDb2dPolyline
 66
     1
 10
0.0
 20
0.0
 30
0.0
 70
     1
  0
VERTEX
  5
119
100
AcDbEntity
  8
0
  6
Continuous
 62
     7
100
AcDbVertex
100
AcDb2dVertex
 10
-9.963901
 20
228.16567
 30
0.0
  0
VERTEX
  5
11A
100
AcDbEntity
  8
0
  6
Continuous
 62
     7
100
AcDbVertex
100
AcDb2dVertex
 10
10.036099
 20
228.16567
 30
0.0
  0
VERTEX
  5
11B
100
AcDbEntity
  8
0
  6
Continuous
 62
     7
100
AcDbVertex
100
AcDb2dVertex
 10
10.036099
 20
28.16567
 30
0.0
  0
VERTEX
  5
11C
100
AcDbEntity
  8
0
  6
Continuous
 62
     7
100
AcDbVertex
100
AcDb2dVertex
 10
-9.963901
 20
28.16567
 30
0.0
  0
SEQEND
  5
11D
100
AcDbEntity
  8
0
  6
Continuous
 62
     7
  0
HATCH
  5
117
100
AcDbEntity
  8
0
  6
Continuous
 62
     7
100
AcDbHatch
 10
0.0
 20
0.0
 30
0.0
210
0.0
220
0.0
230
1.0
  2
ANSI37
 70
     0
 71
     1
 91
        1
 92
        3
 72
     0
 73
     1
 93
        4
 10
-9.9639010595778075
 20
228.16567010512705
 10
10.036098940422193
 20
228.16567010512705
 10
10.036098940422193
 20
28.165670105127049
 10
-9.9639010595778075
 20
28.165670105127049
 97
        1
330
118
 75
     0
 76
     1
 52
0.0
 41
25.0
 77
     0
 78
     2
 53
135.0
 43
0.0
 44
0.0
 45
-2.2097086912079611
 46
-2.2097086912079607
 79
     0
 53
45.0
 43
0.0
 44
0.0
 45
-2.2097086912079607
 46
2.2097086912079611
 79
     0
 98
        0
  0
LINE
  5
11E
100
AcDbEntity
  8
0
370
     0
  6
Continuous
 62
     5
100
AcDbLine
 10
-142.196283
 20
175.0
 30
0.0
 11
130.576745
 21
175.0
 31
0.0
  0
POLYLINE
  5
120
102
{ACAD_REACTORS
330
11F
102
}
100
AcDbEntity
  8
0
370
     0
  6
Continuous
 62
     7
100
AcDb2dPolyline
 66
     1
 10
0.0
 20
0.0
 30
0.0
 70
     1
  0
VERTEX
  5
121
100
AcDbEntity
  8
0
  6
Continuous
 62
     7
100
AcDbVertex
100
AcDb2dVertex
 10
-120.0
 20
176.5
 30
0.0
  0
VERTEX
  5
122
100
AcDbEntity
  8
0
  6
Continuous
 62
     7
100
AcDbVertex
100
AcDb2dVertex
 10
-120.0
 20
173.5
 30
0.0
  0
VERTEX
  5
123
100
AcDbEntity
  8
0
  6
Continuous
 62
     7
100
AcDbVertex
100
AcDb2dVertex
 10
120.0
 20
173.5
 30
0.0
  0
VERTEX
  5
124
100
AcDbEntity
  8
0
  6
Continuous
 62
     7
100
AcDbVertex
100
AcDb2dVertex
 10
120.0
 20
176.5
 30
0.0
  0
VERTEX
  5
125
100
AcDbEntity
  8
0
  6
Continuous
 62
     7
100
AcDbVertex
100
AcDb2dVertex
 10
-120.0
 20
176.5
 30
0.0
  0
SEQEND
  5
126
100
AcDbEntity
  8
0
  6
Continuous
 62
     7
  0
HATCH
  5
11F
100
AcDbEntity
  8
0
  6
Continuous
 62
     7
100
AcDbHatch
 10
0.0
 20
0.0
 30
0.0
210
0.0
220
0.0
230
1.0
  2
SOLID
 70
     1
 71
     1
 91
        1
 92
        3
 72
     0
 73
     1
 93
        4
 10
-120.0
 20
176.5
 10
-120.0
 20
173.5
 10
120.0
 20
173.5
 10
120.0
 20
176.5
 97
        1
330
120
 75
     0
 76
     0
 98
        0
  0
DIMENSION
  5
145
100
AcDbEntity
  8
0
  6
Continuous
 62
     5
100
AcDbDimension
  2
*D2
 10
226.456477
 20
175.160755
 30
0.0
 11
226.456477
 21
87.498323
 31
0.0
 71
     5
 72
     1
 41
1.0
 42
0.0
  1
175
  3
STANDARD
100
AcDbAlignedDimension
 13
3.737295
 23
-0.164109
 33
0.0
 14
131.531463
 24
175.160755
 34
0.0
 50
90.0
100
AcDbRotatedDimension
1001
ACAD
1000
DSTYLE
1002
{
1070
   176
1070
     5
1070
   177
1070
     5
1070
   178
1070
     5
1002
}
  0
DIMENSION
  5
164
100
AcDbEntity
  8
0
  6
Continuous
 62
     5
100
AcDbDimension
  2
*D3
 10
120.484151
 20
-48.103969
 30
0.0
 11
0.191246
 21
-48.103969
 31
0.0
 71
     5
 72
     1
 41
1.0
 42
0.0
  1
240
  3
STANDARD
100
AcDbAlignedDimension
 13
-120.10166
 23
168.614203
 33
0.0
 14
120.484151
 24
168.068657
 34
0.0
100
AcDbRotatedDimension
1001
ACAD
1000
DSTYLE
1002
{
1070
   176
1070
     5
1070
   177
1070
     5
1070
   178
1070
     5
1002
}
  0
POLYLINE
  5
165
100
AcDbEntity
  8
0
370
     0
  6
Continuous
 62
     7
100
AcDb2dPolyline
 66
     1
 10
0.0
 20
0.0
 30
0.0
 70
     1
  0
VERTEX
  5
166
100
AcDbEntity
  8
0
  6
Continuous
 62
     7
100
AcDbVertex
100
AcDb2dVertex
 10
379.965143
 20
499.999019
 30
0.0
  0
VERTEX
  5
167
100
AcDbEntity
  8
0
  6
Continuous
 62
     7
100
AcDbVertex
100
AcDb2dVertex
 10
382.965143
 20
499.999019
 30
0.0
  0
VERTEX
  5
168
100
AcDbEntity
  8
0
  6
Continuous
 62
     7
100
AcDbVertex
100
AcDb2dVertex
 10
382.965143
 20
318.999019
 30
0.0
  0
VERTEX
  5
169
100
AcDbEntity
  8
0
  6
Continuous
 62
     7
100
AcDbVertex
100
AcDb2dVertex
 10
379.965143
 20
318.999019
 30
0.0
  0
VERTEX
  5
16A
100
AcDbEntity
  8
0
  6
Continuous
 62
     7
100
AcDbVertex
100
AcDb2dVertex
 10
379.965143
 20
499.999019
 30
0.0
  0
SEQEND
  5
16B
100
AcDbEntity
  8
0
  6
Continuous
 62
     7
  0
POLYLINE
  5
16C
100
AcDbEntity
  8
0
370
     0
  6
Continuous
 62
     7
100
AcDb2dPolyline
 66
     1
 10
0.0
 20
0.0
 30
0.0
 70
     1
  0
VERTEX
  5
16D
100
AcDbEntity
  8
0
  6
Continuous
 62
     7
100
AcDbVertex
100
AcDb2dVertex
 10
-380.011789
 20
499.979176
 30
0.0
  0
VERTEX
  5
16E
100
AcDbEntity
  8
0
  6
Continuous
 62
     7
100
AcDbVertex
100
AcDb2dVertex
 10
-383.011789
 20
499.979176
 30
0.0
  0
VERTEX
  5
16F
100
AcDbEntity
  8
0
  6
Continuous
 62
     7
100
AcDbVertex
100
AcDb2dVertex
 10
-383.011789
 20
318.979176
 30
0.0
  0
VERTEX
  5
170
100
AcDbEntity
  8
0
  6
Continuous
 62
     7
100
AcDbVertex
100
AcDb2dVertex
 10
-380.011789
 20
318.979176
 30
0.0
  0
VERTEX
  5
171
100
AcDbEntity
  8
0
  6
Continuous
 62
     7
100
AcDbVertex
100
AcDb2dVertex
 10
-380.011789
 20
499.979176
 30
0.0
  0
SEQEND
  5
172
100
AcDbEntity
  8
0
  6
Continuous
 62
     7
  0
POLYLINE
  5
173
100
AcDbEntity
  8
0
370
     0
  6
Continuous
 62
     7
100
AcDb2dPolyline
 66
     1
 10
0.0
 20
0.0
 30
0.0
 70
     1
  0
VERTEX
  5
174
100
AcDbEntity
  8
0
  6
Continuous
 62
     7
100
AcDbVertex
100
AcDb2dVertex
 10
351.11318
 20
60.007224
 30
0.0
  0
VERTEX
  5
175
100
AcDbEntity
  8
0
  6
Continuous
 62
     7
100
AcDbVertex
100
AcDb2dVertex
 10
351.11318
 20
150.007224
 30
0.0
  0
VERTEX
  5
176
100
AcDbEntity
  8
0
  6
Continuous
 62
     7
100
AcDbVertex
100
AcDb2dVertex
 10
431.11318
 20
150.007224
 30
0.0
  0
VERTEX
  5
177
100
AcDbEntity
  8
0
  6
Continuous
 62
     7
100
AcDbVertex
100
AcDb2dVertex
 10
532.11318
 20
60.007224
 30
0.0
  0
VERTEX
  5
178
100
AcDbEntity
  8
0
  6
Continuous
 62
     7
100
AcDbVertex
100
AcDb2dVertex
 10
351.11318
 20
60.007224
 30
0.0
  0
SEQEND
  5
179
100
AcDbEntity
  8
0
  6
Continuous
 62
     7
  0
DIMENSION
  5
198
100
AcDbEntity
  8
0
  6
Continuous
 62
     5
100
AcDbDimension
  2
*D4
 10
532.583625
 20
33.111356
 30
0.0
 11
441.750207
 21
33.111356
 31
0.0
 71
     5
 72
     1
 41
1.0
 42
0.0
  1
181
  3
STANDARD
100
AcDbAlignedDimension
 13
350.916788
 23
58.752021
 33
0.0
 14
532.583625
 24
58.752021
 34
0.0
100
AcDbRotatedDimension
1001
ACAD
1000
DSTYLE
1002
{
1070
   176
1070
     5
1070
   177
1070
     5
1070
   178
1070
     5
1002
}
  0
DIMENSION
  5
1B7
100
AcDbEntity
  8
0
  6
Continuous
 62
     5
100
AcDbDimension
  2
*D5
 10
321.457301
 20
149.858212
 30
0.0
 11
321.457301
 21
104.850662
 31
0.0
 71
     5
 72
     1
 41
1.0
 42
0.0
  1
90
  3
STANDARD
100
AcDbAlignedDimension
 13
349.825696
 23
59.843113
 33
0.0
 14
349.825696
 24
149.858212
 34
0.0
 50
-90.0
100
AcDbRotatedDimension
1001
ACAD
1000
DSTYLE
1002
{
1070
   176
1070
     5
1070
   177
1070
     5
1070
   178
1070
     5
1002
}
  0
DIMENSION
  5
1D6
100
AcDbEntity
  8
0
  6
Continuous
 62
     5
100
AcDbDimension
  2
*D6
 10
430.566513
 20
171.680054
 30
0.0
 11
390.74165
 21
171.680054
 31
0.0
 71
     5
 72
     1
 41
1.0
 42
0.0
  1
80
  3
STANDARD
100
AcDbAlignedDimension
 13
350.916788
 23
152.040396
 33
0.0
 14
430.566513
 24
152.040396
 34
0.0
100
AcDbRotatedDimension
1001
ACAD
1000
DSTYLE
1002
{
1070
   176
1070
     5
1070
   177
1070
     5
1070
   178
1070
     5
1002
}
  0
LINE
  5
1D7
100
AcDbEntity
  8
0
370
     0
  6
Continuous
 62
     7
100
AcDbLine
 10
-102.129498
 20
450.445438
 30
0.0
 11
-102.129498
 21
502.445438
 31
0.0
  0
INSERT
  5
22E
100
AcDbEntity
  8
0
  6
Continuous
 62
     7
100
AcDbBlockReference
  2
*E7
 10
0.0
 20
0.0
 30
0.0
1001
TCAD
1000
TC25ExternalObject
1002
{
1000
TCW30CURVE
1000

1070
     0
1071
        0
1040
1.0
1040
0.0
1000
Continuous
1000
0
1070
    21
1071
       13
1071
      162
1010
-98.086389
1020
505.403888
1030
0.0
1071
     6274
1010
-79.410994
1020
505.639511
1030
0.0
1071
     6274
1010
-60.702102
1020
504.965592
1030
0.0
1071
      130
1010
-42.09206
1020
503.3869
1030
0.0
1071
     6274
1010
-25.350731
1020
501.966731
1030
0.0
1071
     6274
1010
-8.677298
1020
499.55782
1030
0.0
1071
      130
1010
7.828385
1020
496.419125
1030
0.0
1071
     6274
1010
28.001007
1020
492.58313
1030
0.0
1071
     6274
1010
48.207555
1020
488.521888
1030
0.0
1071
      130
1010
67.833769
1020
482.483573
1030
0.0
1071
     6274
1010
92.645124
1020
474.849968
1030
0.0
1071
     6274
1010
117.069328
1020
465.822132
1030
0.0
1071
      162
1010
140.880812
1020
455.483443
1030
0.0
1070
     3
1071
        5
1000
$SPLINESEGS
1070
    18
1070
    20
1000
$SPLFRAME
1070
    18
1070
     0
1000
$SPLINETYPE
1070
    18
1070
     1
1000
$SHOWCONTRPTS
1070
    18
1070
     1
1000
$CURVESMOOTH
1070
    18
1070
     1
1002
}
  0
LINE
  5
22F
100
AcDbEntity
  8
0
370
     0
  6
Continuous
 62
     7
100
AcDbLine
 10
62.76319
 20
450.064134
 30
0.0
 11
64.76319
 21
445.064134
 31
0.0
  0
POLYLINE
  5
230
100
AcDbEntity
  8
0
370
     0
  6
Continuous
 62
     7
100
AcDb2dPolyline
 66
     1
 10
0.0
 20
0.0
 30
0.0
  0
VERTEX
  5
231
100
AcDbEntity
  8
0
  6
Continuous
 62
     7
100
AcDbVertex
100
AcDb2dVertex
 10
142.870502
 20
450.445438
 30
0.0
  0
VERTEX
  5
232
100
AcDbEntity
  8
0
  6
Continuous
 62
     7
100
AcDbVertex
100
AcDb2dVertex
 10
-102.129498
 20
450.445438
 30
0.0
  0
VERTEX
  5
233
100
AcDbEntity
  8
0
  6
Continuous
 62
     7
100
AcDbVertex
100
AcDb2dVertex
 10
-102.129498
 20
502.445438
 30
0.0
  0
SEQEND
  5
234
100
AcDbEntity
  8
0
  6
Continuous
 62
     7
  0
ARC
  5
235
100
AcDbEntity
  8
0
370
     0
  6
Continuous
 62
     7
100
AcDbCircle
 10
-99.129498
 20
502.445438
 30
0.0
 40
3.0
100
AcDbArc
 50
79.999998
 51
180.000005
  0
DIMENSION
  5
254
100
AcDbEntity
  8
0
  6
Continuous
 62
     5
100
AcDbDimension
  2
*D8
 10
142.939435
 20
438.115824
 30
0.0
 11
20.399862
 21
438.115824
 31
0.0
 71
     5
 72
     1
 41
1.0
 42
0.0
  1
245
  3
STANDARD
100
AcDbAlignedDimension
 13
-102.13971
 23
446.002801
 33
0.0
 14
142.939435
 24
445.285803
 34
0.0
100
AcDbRotatedDimension
1001
ACAD
1000
DSTYLE
1002
{
1070
   176
1070
     5
1070
   177
1070
     5
1070
   178
1070
     5
1002
}
  0
DIMENSION
  5
273
100
AcDbEntity
  8
0
  6
Continuous
 62
     5
100
AcDbDimension
  2
*D9
 10
-120.606103
 20
505.469074
 30
0.0
 11
-120.606103
 21
477.963435
 31
0.0
 71
     5
 72
     1
 41
1.0
 42
0.0
  1
55
  3
STANDARD
100
AcDbAlignedDimension
 13
-101.756993
 23
450.457796
 33
0.0
 14
-99.194978
 24
505.469074
 34
0.0
 50
-90.0
100
AcDbRotatedDimension
1001
ACAD
1000
DSTYLE
1002
{
1070
   176
1070
     5
1070
   177
1070
     5
1070
   178
1070
     5
1002
}
  0
LINE
  5
274
100
AcDbEntity
  8
0
370
     0
  6
Continuous
 62
     7
100
AcDbLine
 10
460.294562
 20
294.312999
 30
0.0
 11
439.743809
 21
294.312999
 31
0.0
  0
LINE
  5
275
100
AcDbEntity
  8
0
370
     0
  6
Continuous
 62
     5
100
AcDbLine
 10
449.932181
 20
297.809652
 30
0.0
 11
449.932181
 21
260.939984
 31
0.0
  0
LINE
  5
276
100
AcDbEntity
  8
0
370
     0
  6
Continuous
 62
     5
100
AcDbLine
 10
468.579387
 20
279.312999
 30
0.0
 11
430.202031
 21
279.312999
 31
0.0
  0
ARC
  5
277
100
AcDbEntity
  8
0
370
     0
  6
Continuous
 62
     7
100
AcDbCircle
 10
438.440294
 20
279.298906
 30
0.0
 40
1.5
100
AcDbArc
 50
-90.000003
 51
90.000003
  0
LINE
  5
278
100
AcDbEntity
  8
0
370
     0
  6
Continuous
 62
     7
100
AcDbLine
 10
434.937389
 20
280.812999
 30
0.0
 11
438.437389
 21
280.812999
 31
0.0
  0
LINE
  5
279
100
AcDbEntity
  8
0
370
     0
  6
Continuous
 62
     7
100
AcDbLine
 10
434.937389
 20
277.812999
 30
0.0
 11
438.437389
 21
277.812999
 31
0.0
  0
ARC
  5
27A
100
AcDbEntity
  8
0
370
     0
  6
Continuous
 62
     7
100
AcDbCircle
 10
461.449704
 20
279.319276
 30
0.0
 40
1.5
100
AcDbArc
 50
90.000003
 51
269.999997
  0
LINE
  5
27B
100
AcDbEntity
  8
0
370
     0
  6
Continuous
 62
     7
100
AcDbLine
 10
464.937389
 20
280.812999
 30
0.0
 11
461.437389
 21
280.812999
 31
0.0
  0
LINE
  5
27C
100
AcDbEntity
  8
0
370
     0
  6
Continuous
 62
     7
100
AcDbLine
 10
464.937389
 20
277.812999
 30
0.0
 11
461.437389
 21
277.812999
 31
0.0
  0
POLYLINE
  5
27D
100
AcDbEntity
  8
0
370
     0
  6
Continuous
 62
     7
100
AcDb2dPolyline
 66
     1
 10
0.0
 20
0.0
 30
0.0
  0
VERTEX
  5
27E
100
AcDbEntity
  8
0
  6
Continuous
 62
     7
100
AcDbVertex
100
AcDb2dVertex
 10
449.937389
 20
294.312999
 30
0.0
  0
VERTEX
  5
27F
100
AcDbEntity
  8
0
  6
Continuous
 62
     7
100
AcDbVertex
100
AcDb2dVertex
 10
464.937389
 20
294.312999
 30
0.0
  0
VERTEX
  5
280
100
AcDbEntity
  8
0
  6
Continuous
 62
     7
100
AcDbVertex
100
AcDb2dVertex
 10
464.937389
 20
280.812999
 30
0.0
  0
SEQEND
  5
281
100
AcDbEntity
  8
0
  6
Continuous
 62
     7
  0
POLYLINE
  5
282
100
AcDbEntity
  8
0
370
     0
  6
Continuous
 62
     7
100
AcDb2dPolyline
 66
     1
 10
0.0
 20
0.0
 30
0.0
  0
VERTEX
  5
283
100
AcDbEntity
  8
0
  6
Continuous
 62
     7
100
AcDbVertex
100
AcDb2dVertex
 10
449.937389
 20
294.312999
 30
0.0
  0
VERTEX
  5
284
100
AcDbEntity
  8
0
  6
Continuous
 62
     7
100
AcDbVertex
100
AcDb2dVertex
 10
434.937389
 20
294.312999
 30
0.0
  0
VERTEX
  5
285
100
AcDbEntity
  8
0
  6
Continuous
 62
     7
100
AcDbVertex
100
AcDb2dVertex
 10
434.937389
 20
280.812999
 30
0.0
  0
SEQEND
  5
286
100
AcDbEntity
  8
0
  6
Continuous
 62
     7
  0
LINE
  5
287
100
AcDbEntity
  8
0
370
     0
  6
Continuous
 62
     7
100
AcDbLine
 10
464.937389
 20
277.812999
 30
0.0
 11
464.937389
 21
264.312999
 31
0.0
  0
LINE
  5
288
100
AcDbEntity
  8
0
370
     0
  6
Continuous
 62
     7
100
AcDbLine
 10
434.937389
 20
277.812999
 30
0.0
 11
434.937389
 21
264.312999
 31
0.0
  0
LINE
  5
289
100
AcDbEntity
  8
0
370
     0
  6
Continuous
 62
     7
100
AcDbLine
 10
464.937389
 20
264.312999
 30
0.0
 11
449.937389
 21
264.312999
 31
0.0
  0
LINE
  5
28A
100
AcDbEntity
  8
0
370
     0
  6
Continuous
 62
     7
100
AcDbLine
 10
434.937389
 20
264.312999
 30
0.0
 11
449.937389
 21
264.312999
 31
0.0
  0
DIMENSION
  5
2A9
100
AcDbEntity
  8
0
  6
Continuous
 62
     5
100
AcDbDimension
  2
*D10
 10
434.9992
 20
312.489563
 30
0.0
 11
449.938954
 21
312.489563
 31
0.0
 71
     5
 72
     1
 41
1.0
 42
0.0
  1
30
  3
STANDARD
100
AcDbAlignedDimension
 13
464.878707
 23
295.224852
 33
0.0
 14
434.9992
 24
294.52017
 34
0.0
 50
180.0
100
AcDbRotatedDimension
1001
ACAD
1000
DSTYLE
1002
{
1070
   176
1070
     5
1070
   177
1070
     5
1070
   178
1070
     5
1002
}
  0
DIMENSION
  5
2C9
100
AcDbEntity
  8
0
  6
Continuous
 62
     5
100
AcDbDimension
  2
*D11
 10
459.944477
 20
246.411418
 30
0.0
 11
442.237943
 21
246.411418
 31
0.0
 71
     5
 72
     1
 41
1.0
 42
0.0
  1
5
  3
STANDARD
100
AcDbAlignedDimension
 13
464.878707
 23
275.605616
 33
0.0
 14
459.944477
 24
277.661545
 34
0.0
100
AcDbRotatedDimension
1001
ACAD
1000
DSTYLE
1002
{
1070
   176
1070
     5
1070
   177
1070
     5
1070
   178
1070
     5
1002
}
  0
DIMENSION
  5
2E9
100
AcDbEntity
  8
0
  6
Continuous
 62
     5
100
AcDbDimension
  2
*D12
 10
472.417115
 20
277.798607
 30
0.0
 11
482.123649
 21
269.798607
 31
0.0
 71
     5
 72
     1
 41
1.0
 42
0.0
  1
3
  3
STANDARD
100
AcDbAlignedDimension
 13
465.289893
 23
280.813971
 33
0.0
 14
465.426955
 24
277.798607
 34
0.0
 50
-90.0
100
AcDbRotatedDimension
1001
ACAD
1000
DSTYLE
1002
{
1070
   176
1070
     5
1070
   177
1070
     5
1070
   178
1070
     5
1002
}
  0
DIMENSION
  5
308
100
AcDbEntity
  8
0
  6
Continuous
 62
     5
100
AcDbDimension
  2
*D13
 10
418.789187
 20
264.366528
 30
0.0
 11
418.789187
 21
279.306281
 31
0.0
 71
     5
 72
     1
 41
1.0
 42
0.0
  1
30
  3
STANDARD
100
AcDbAlignedDimension
 13
434.825436
 23
294.246035
 33
0.0
 14
434.962498
 24
264.366528
 34
0.0
 50
-90.0
100
AcDbRotatedDimension
1001
ACAD
1000
DSTYLE
1002
{
1070
   176
1070
     5
1070
   177
1070
     5
1070
   178
1070
     5
1002
}
  0
TEXT
  5
309
100
AcDbEntity
  8
0
  6
Continuous
 62
     5
100
AcDbText
 10
-96.347656
 20
456.026945
 30
0.0
 40
9.785007
  1
Anyaga #6mm depron
  7
_TCW_TXTSTY_1
 72
     5
 11
6.430423
 21
456.026945
 31
0.0
100
AcDbText
1001
TCAD
1000
TCW40_TEXT
1002
{
1000
Times New Roman CE
1070
     0
1070
   257
1002
}
  0
TEXT
  5
30A
100
AcDbEntity
  8
0
  6
Continuous
 62
     5
100
AcDbText
 10
351.966746
 20
-6.495515
 30
0.0
 40
9.785007
  1
Anyaga #3mm depron
  7
_TCW_TXTSTY_1
 72
     5
 11
454.744831
 21
-6.495515
 31
0.0
100
AcDbText
1001
TCAD
1000
TCW40_TEXT
1002
{
1000
Times New Roman CE
1070
     0
1070
   257
1002
}
  0
TEXT
  5
30B
100
AcDbEntity
  8
0
  6
Continuous
 62
     5
100
AcDbText
 10
496.562499
 20
267.443578
 30
0.0
 40
9.785007
  1
Anyaga #2mm balsa
  7
_TCW_TXTSTY_1
 72
     5
 11
591.040442
 21
267.443578
 31
0.0
100
AcDbText
1001
TCAD
1000
TCW40_TEXT
1002
{
1000
Times New Roman CE
1070
     0
1070
   257
1002
}
  0
TEXT
  5
30C
100
AcDbEntity
  8
0
  6
Continuous
 62
     5
100
AcDbText
 10
-94.451442
 20
471.30223
 30
0.0
 40
9.785007
  1
USZONY
  7
_TCW_TXTSTY_1
 72
     5
 11
-47.838208
 21
471.30223
 31
0.0
100
AcDbText
1001
TCAD
1000
TCW40_TEXT
1002
{
1000
Times New Roman CE
1070
     0
1070
   257
1002
}
  0
TEXT
  5
30D
100
AcDbEntity
  8
0
  6
Continuous
 62
     5
100
AcDbText
 10
351.269337
 20
9.870866
 30
0.0
 40
9.785007
  1
SZÁRNYVÉGZÁRÓ LAP (x2)
  7
_TCW_TXTSTY_1
 72
     5
 11
498.763802
 21
9.870866
 31
0.0
100
AcDbText
1001
TCAD
1000
TCW40_TEXT
1002
{
1000
Times New Roman CE
1070
     0
1070
   257
1002
}
  0
TEXT
  5
30E
100
AcDbEntity
  8
0
  6
Continuous
 62
     5
100
AcDbText
 10
496.785337
 20
283.809956
 30
0.0
 40
9.785007
  1
MOTOR ALAP
  7
_TCW_TXTSTY_1
 72
     5
 11
571.177949
 21
283.809956
 31
0.0
100
AcDbText
1001
TCAD
1000
TCW40_TEXT
1002
{
1000
Times New Roman CE
1070
     0
1070
   257
1002
}
  0
LINE
  5
30F
100
AcDbEntity
  8
0
370
     0
  6
Continuous
 62
     7
100
AcDbLine
 10
-250.900603
 20
49.58329
 30
0.0
 11
-160.394492
 21
49.58329
 31
0.0
  0
LINE
  5
310
100
AcDbEntity
  8
0
370
     0
  6
Continuous
 62
     7
100
AcDbLine
 10
-405.394492
 20
49.58329
 30
0.0
 11
-405.394492
 21
63.58329
 31
0.0
  0
LINE
  5
311
100
AcDbEntity
  8
0
370
     0
  6
Continuous
 62
     7
100
AcDbLine
 10
-160.394492
 20
49.58329
 30
0.0
 11
-160.394492
 21
77.58329
 31
0.0
  0
INSERT
  5
340
100
AcDbEntity
  8
0
  6
Continuous
 62
     7
100
AcDbBlockReference
  2
*E14
 10
0.0
 20
0.0
 30
0.0
1001
TCAD
1000
TC25ExternalObject
1002
{
1000
TCW30CURVE
1000

1070
     0
1071
        0
1040
1.0
1040
0.0
1000
Continuous
1000
0
1070
    21
1071
        7
1071
      162
1010
-405.398059
1020
63.566317
1030
0.0
1071
     6274
1010
-355.497999
1020
76.884972
1030
0.0
1071
     6274
1010
-303.974593
1020
85.147852
1030
0.0
1071
      130
1010
-252.412182
1020
88.100875
1030
0.0
1071
     6274
1010
-221.5882
1020
89.866191
1030
0.0
1071
     6274
1010
-190.019682
1020
86.263423
1030
0.0
1071
      162
1010
-160.38607
1020
77.598363
1030
0.0
1070
     3
1071
        5
1000
$SPLINESEGS
1070
    18
1070
    20
1000
$SPLFRAME
1070
    18
1070
     0
1000
$SPLINETYPE
1070
    18
1070
     1
1000
$SHOWCONTRPTS
1070
    18
1070
     1
1000
$CURVESMOOTH
1070
    18
1070
     1
1002
}
  0
LINE
  5
341
100
AcDbEntity
  8
0
370
     0
  6
Continuous
 62
     5
100
AcDbLine
 10
-252.394492
 20
34.512235
 30
0.0
 11
-252.394492
 21
64.58329
 31
0.0
  0
ARC
  5
342
100
AcDbEntity
  8
0
370
     0
  6
Continuous
 62
     7
100
AcDbCircle
 10
-252.394492
 20
57.08329
 30
0.0
 40
1.5
100
AcDbArc
 50
0.0
 51
180.000005
  0
LINE
  5
343
100
AcDbEntity
  8
0
370
     0
  6
Continuous
 62
     7
100
AcDbLine
 10
-253.894492
 20
49.58329
 30
0.0
 11
-253.894492
 21
57.08329
 31
0.0
  0
LINE
  5
344
100
AcDbEntity
  8
0
370
     0
  6
Continuous
 62
     7
100
AcDbLine
 10
-250.894492
 20
49.58329
 30
0.0
 11
-250.894492
 21
57.08329
 31
0.0
  0
LINE
  5
345
100
AcDbEntity
  8
0
370
     0
  6
Continuous
 62
     7
100
AcDbLine
 10
-253.903009
 20
49.589477
 30
0.0
 11
-405.396505
 21
49.589477
 31
0.0
  0
DIMENSION
  5
364
100
AcDbEntity
  8
0
  6
Continuous
 62
     5
100
AcDbDimension
  2
*D15
 10
-160.427189
 20
14.626434
 30
0.0
 11
-282.896206
 21
14.626434
 31
0.0
 71
     5
 72
     1
 41
1.0
 42
0.0
  1
245
  3
STANDARD
100
AcDbAlignedDimension
 13
-405.365223
 23
49.028931
 33
0.0
 14
-160.427189
 24
49.558201
 34
0.0
100
AcDbRotatedDimension
1001
ACAD
1000
DSTYLE
1002
{
1070
   176
1070
     5
1070
   177
1070
     5
1070
   178
1070
     5
1002
}
  0
DIMENSION
  5
38B
100
AcDbEntity
  8
0
  6
Continuous
 62
     5
100
AcDbDimension
  2
*D16
 10
-432.945183
 20
63.582717
 30
0.0
 11
-419.032115
 21
71.582717
 31
0.0
 71
     5
 72
     1
 41
1.0
 42
0.0
  1
14
  3
STANDARD
100
AcDbAlignedDimension
 13
-406.720361
 23
49.57871
 33
0.0
 14
-406.92313
 24
63.582717
 34
0.0
 50
90.0
100
AcDbRotatedDimension
1001
ACAD
1000
DSTYLE
1002
{
1070
   176
1070
     5
1070
   177
1070
     5
1070
   178
1070
     5
1002
}
  0
DIMENSION
  5
3AB
100
AcDbEntity
  8
0
  6
Continuous
 62
     5
100
AcDbDimension
  2
*D17
 10
-153.081165
 20
77.592998
 30
0.0
 11
-139.168097
 21
85.592998
 31
0.0
 71
     5
 72
     1
 41
1.0
 42
0.0
  1
28
  3
STANDARD
100
AcDbAlignedDimension
 13
-159.903936
 23
49.603805
 33
0.0
 14
-160.033893
 24
77.592998
 34
0.0
 50
-90.0
100
AcDbRotatedDimension
1001
ACAD
1000
DSTYLE
1002
{
1070
   176
1070
     5
1070
   177
1070
     5
1070
   178
1070
     5
1002
}
  0
DIMENSION
  5
3CA
100
AcDbEntity
  8
0
  6
Continuous
 62
     5
100
AcDbDimension
  2
*D18
 10
-237.353463
 20
88.535199
 30
0.0
 11
-237.353463
 21
69.060092
 31
0.0
 71
     5
 72
     1
 41
1.0
 42
0.0
  1
39
  3
STANDARD
100
AcDbAlignedDimension
 13
-237.353463
 23
49.584984
 33
0.0
 14
-238.357335
 24
88.535199
 34
0.0
 50
-90.0
100
AcDbRotatedDimension
1001
ACAD
1000
DSTYLE
1002
{
1070
   176
1070
     5
1070
   177
1070
     5
1070
   178
1070
     5
1002
}
  0
DIMENSION
  5
3E9
100
AcDbEntity
  8
0
  6
Continuous
 62
     5
100
AcDbDimension
  2
*D19
 10
-160.406711
 20
26.744446
 30
0.0
 11
-206.409123
 21
26.744446
 31
0.0
 71
     5
 72
     1
 41
1.0
 42
0.0
  1
92*
  3
STANDARD
100
AcDbAlignedDimension
 13
-252.411536
 23
43.773118
 33
0.0
 14
-160.406711
 24
43.773118
 34
0.0
100
AcDbRotatedDimension
1001
ACAD
1000
DSTYLE
1002
{
1070
   176
1070
     5
1070
   177
1070
     5
1070
   178
1070
     5
1002
}
  0
DIMENSION
  5
40C
100
AcDbEntity
  8
0
  6
Continuous
 62
     5
100
AcDbDimension
  2
*D20
 10
-276.855808
 20
49.584984
 30
0.0
 11
-264.205808
 21
41.584984
 31
0.0
 71
     5
 72
     1
 41
1.0
 42
0.0
  1
9*
  3
STANDARD
100
AcDbAlignedDimension
 13
-254.770635
 23
58.619828
 33
0.0
 14
-256.778378
 24
49.584984
 34
0.0
 50
-90.0
100
AcDbRotatedDimension
1001
ACAD
1000
DSTYLE
1002
{
1070
   176
1070
     5
1070
   177
1070
     5
1070
   178
1070
     5
1002
}
  0
TEXT
  5
40D
100
AcDbEntity
  8
0
  6
Continuous
 62
     5
100
AcDbText
 10
-406.711678
 20
-25.429583
 30
0.0
 40
9.785007
  1
Anyaga #3mm depron
  7
_TCW_TXTSTY_1
 72
     5
 11
-303.933593
 21
-25.429583
 31
0.0
100
AcDbText
1001
TCAD
1000
TCW40_TEXT
1002
{
1000
Times New Roman CE
1070
     0
1070
   257
1002
}
  0
TEXT
  5
40E
100
AcDbEntity
  8
0
  6
Continuous
 62
     5
100
AcDbText
 10
-407.409087
 20
-9.063202
 30
0.0
 40
9.785007
  1
KABIN OLDALFAL (x2)
  7
_TCW_TXTSTY_1
 72
     5
 11
-285.466037
 21
-9.063202
 31
0.0
100
AcDbText
1001
TCAD
1000
TCW40_TEXT
1002
{
1000
Times New Roman CE
1070
     0
1070
   257
1002
}
  0
POLYLINE
  5
40F
100
AcDbEntity
  8
0
370
     0
  6
Continuous
 62
     7
100
AcDb2dPolyline
 66
     1
 10
0.0
 20
0.0
 30
0.0
 70
     1
  0
VERTEX
  5
410
100
AcDbEntity
  8
0
  6
Continuous
 62
     7
100
AcDbVertex
100
AcDb2dVertex
 10
-391.527799
 20
188.107403
 30
0.0
  0
VERTEX
  5
411
100
AcDbEntity
  8
0
  6
Continuous
 62
     7
100
AcDbVertex
100
AcDb2dVertex
 10
-347.527799
 20
188.107403
 30
0.0
  0
VERTEX
  5
412
100
AcDbEntity
  8
0
  6
Continuous
 62
     7
100
AcDbVertex
100
AcDb2dVertex
 10
-347.527799
 20
174.107403
 30
0.0
  0
VERTEX
  5
413
100
AcDbEntity
  8
0
  6
Continuous
 62
     7
100
AcDbVertex
100
AcDb2dVertex
 10
-391.527799
 20
174.107403
 30
0.0
  0
SEQEND
  5
414
100
AcDbEntity
  8
0
  6
Continuous
 62
     7
  0
TEXT
  5
415
100
AcDbEntity
  8
0
  6
Continuous
 62
     5
100
AcDbText
 10
-394.382311
 20
138.089236
 30
0.0
 40
9.785007
  1
Anyaga #3mm depron
  7
_TCW_TXTSTY_1
 72
     5
 11
-291.604226
 21
138.089236
 31
0.0
100
AcDbText
1001
TCAD
1000
TCW40_TEXT
1002
{
1000
Times New Roman CE
1070
     0
1070
   257
1002
}
  0
TEXT
  5
416
100
AcDbEntity
  8
0
  6
Continuous
 62
     5
100
AcDbText
 10
-395.079719
 20
154.455618
 30
0.0
 40
9.785007
  1
KABIN HOMLOKFAL
  7
_TCW_TXTSTY_1
 72
     5
 11
-283.659161
 21
154.455618
 31
0.0
100
AcDbText
1001
TCAD
1000
TCW40_TEXT
1002
{
1000
Times New Roman CE
1070
     0
1070
   257
1002
}
  0
DIMENSION
  5
435
100
AcDbEntity
  8
0
  6
Continuous
 62
     5
100
AcDbDimension
  2
*D21
 10
-347.533021
 20
211.69569
 30
0.0
 11
-369.512834
 21
211.69569
 31
0.0
 71
     5
 72
     1
 41
1.0
 42
0.0
  1
44
  3
STANDARD
100
AcDbAlignedDimension
 13
-391.492648
 23
189.521365
 33
0.0
 14
-347.533021
 24
188.743319
 34
0.0
100
AcDbRotatedDimension
1001
ACAD
1000
DSTYLE
1002
{
1070
   176
1070
     5
1070
   177
1070
     5
1070
   178
1070
     5
1002
}
  0
DIMENSION
  5
455
100
AcDbEntity
  8
0
  6
Continuous
 62
     5
100
AcDbDimension
  2
*D22
 10
-323.802603
 20
188.159784
 30
0.0
 11
-309.889535
 21
196.159784
 31
0.0
 71
     5
 72
     1
 41
1.0
 42
0.0
  1
14
  3
STANDARD
100
AcDbAlignedDimension
 13
-346.949486
 23
174.154947
 33
0.0
 14
-346.949486
 24
188.159784
 34
0.0
 50
-90.0
100
AcDbRotatedDimension
1001
ACAD
1000
DSTYLE
1002
{
1070
   176
1070
     5
1070
   177
1070
     5
1070
   178
1070
     5
1002
}
  0
TEXT
  5
456
100
AcDbEntity
  8
0
  6
Continuous
 62
     5
100
AcDbText
 10
-410.157822
 20
-43.914484
 30
0.0
 40
9.785007
  1
* a pontos kialakítás módját lásd a szövegben
  7
_TCW_TXTSTY_1
 72
     5
 11
-200.454387
 21
-43.914484
 31
0.0
100
AcDbText
1001
TCAD
1000
TCW40_TEXT
1002
{
1000
Times New Roman CE
1070
     0
1070
   257
1002
}
  0
POLYLINE
  5
457
100
AcDbEntity
  8
0
370
     0
  6
Continuous
 62
     7
100
AcDb2dPolyline
 66
     1
 10
0.0
 20
0.0
 30
0.0
 70
     1
  0
VERTEX
  5
458
100
AcDbEntity
  8
0
  6
Continuous
 62
     7
100
AcDbVertex
100
AcDb2dVertex
 10
120.0
 20
180.0
 30
0.0
  0
VERTEX
  5
459
100
AcDbEntity
  8
0
  6
Continuous
 62
     7
100
AcDbVertex
100
AcDb2dVertex
 10
120.0
 20
202.0
 30
0.0
  0
VERTEX
  5
45A
100
AcDbEntity
  8
0
  6
Continuous
 62
     7
100
AcDbVertex
100
AcDb2dVertex
 10
108.0
 20
202.0
 30
0.0
  0
VERTEX
  5
45B
100
AcDbEntity
  8
0
  6
Continuous
 62
     7
100
AcDbVertex
100
AcDb2dVertex
 10
108.0
 20
180.0
 30
0.0
  0
VERTEX
  5
45C
100
AcDbEntity
  8
0
  6
Continuous
 62
     7
100
AcDbVertex
100
AcDb2dVertex
 10
120.0
 20
180.0
 30
0.0
  0
SEQEND
  5
45D
100
AcDbEntity
  8
0
  6
Continuous
 62
     7
  0
LINE
  5
45E
100
AcDbEntity
  8
0
370
     0
  6
DASHED
 62
     5
100
AcDbLine
 10
114.0
 20
178.0
 30
0.0
 11
114.0
 21
351.593012
 31
0.0
  0
LINE
  5
45F
100
AcDbEntity
  8
0
370
     0
  6
DASHED
 62
     5
100
AcDbLine
 10
-114.0
 20
178.0
 30
0.0
 11
-114.0
 21
350.49168
 31
0.0
  0
POLYLINE
  5
460
100
AcDbEntity
  8
0
370
     0
  6
Continuous
 62
     7
100
AcDb2dPolyline
 66
     1
 10
0.0
 20
0.0
 30
0.0
 70
     1
  0
VERTEX
  5
461
100
AcDbEntity
  8
0
  6
Continuous
 62
     7
100
AcDbVertex
100
AcDb2dVertex
 10
-120.0
 20
180.0
 30
0.0
  0
VERTEX
  5
462
100
AcDbEntity
  8
0
  6
Continuous
 62
     7
100
AcDbVertex
100
AcDb2dVertex
 10
-108.0
 20
180.0
 30
0.0
  0
VERTEX
  5
463
100
AcDbEntity
  8
0
  6
Continuous
 62
     7
100
AcDbVertex
100
AcDb2dVertex
 10
-108.0
 20
202.0
 30
0.0
  0
VERTEX
  5
464
100
AcDbEntity
  8
0
  6
Continuous
 62
     7
100
AcDbVertex
100
AcDb2dVertex
 10
-120.0
 20
202.0
 30
0.0
  0
VERTEX
  5
465
100
AcDbEntity
  8
0
  6
Continuous
 62
     7
100
AcDbVertex
100
AcDb2dVertex
 10
-120.0
 20
180.0
 30
0.0
  0
SEQEND
  5
466
100
AcDbEntity
  8
0
  6
Continuous
 62
     7
  0
DIMENSION
  5
485
100
AcDbEntity
  8
0
  6
Continuous
 62
     5
100
AcDbDimension
  2
*D23
 10
270.00465
 20
179.985502
 30
0.0
 11
270.00465
 21
89.848708
 31
0.0
 71
     5
 72
     1
 41
1.0
 42
0.0
  1
180
  3
STANDARD
100
AcDbAlignedDimension
 13
3.345666
 23
-0.288087
 33
0.0
 14
123.149476
 24
179.985502
 34
0.0
 50
90.0
100
AcDbRotatedDimension
1001
ACAD
1000
DSTYLE
1002
{
1070
   176
1070
     5
1070
   177
1070
     5
1070
   178
1070
     5
1002
}
  0
LEADER
  5
486
100
AcDbEntity
  8
0
  6
Continuous
 62
     5
100
AcDbLeader
  3
STANDARD
 73
     0
 74
     0
 75
     0
 40
0.0
 76
     6
 10
114.029112
 20
202.078244
 30
0.0
 10
117.883759
 20
205.932891
 30
0.0
 10
130.824361
 20
218.873493
 30
0.0
 10
130.824361
 20
218.873493
 30
0.0
 10
130.824361
 20
218.873493
 30
0.0
 10
134.824361
 20
218.873493
 30
0.0
 77
     5
211
0.0001
221
0.0
231
0.0
1001
ACAD
1000
DSTYLE
1002
{
1070
   341
1000
TC_DIMARROW_FILLED30
1070
   176
1070
     5
1070
   177
1070
     5
1070
   178
1070
     5
1002
}
  0
MTEXT
  5
487
100
AcDbEntity
  8
0
  6
Continuous
 62
     5
100
AcDbMText
 10
136.324361
 20
227.323493
 30
0.0
 40
10.797222
 41
105.115341
 71
     1
 72
     1
  1
{12 x 22 kivágás}
 73
     1
 44
1.0
  0
POLYLINE
  5
488
100
AcDbEntity
  8
0
370
     0
  6
Continuous
 62
     7
100
AcDb2dPolyline
 66
     1
 10
0.0
 20
0.0
 30
0.0
 70
     1
  0
VERTEX
  5
489
100
AcDbEntity
  8
0
  6
Continuous
 62
     7
100
AcDbVertex
100
AcDb2dVertex
 10
362.867748
 20
221.069525
 30
0.0
  0
VERTEX
  5
48A
100
AcDbEntity
  8
0
  6
Continuous
 62
     7
100
AcDbVertex
100
AcDb2dVertex
 10
362.867748
 20
191.069525
 30
0.0
  0
VERTEX
  5
48B
100
AcDbEntity
  8
0
  6
Continuous
 62
     7
100
AcDbVertex
100
AcDb2dVertex
 10
357.867748
 20
191.069525
 30
0.0
  0
VERTEX
  5
48C
100
AcDbEntity
  8
0
  6
Continuous
 62
     7
100
AcDbVertex
100
AcDb2dVertex
 10
357.867748
 20
221.069525
 30
0.0
  0
SEQEND
  5
48D
100
AcDbEntity
  8
0
  6
Continuous
 62
     7
  0
POLYLINE
  5
48F
102
{ACAD_REACTORS
330
48E
102
}
100
AcDbEntity
  8
0
370
     0
  6
Continuous
 62
     7
100
AcDb2dPolyline
 66
     1
 10
0.0
 20
0.0
 30
0.0
 70
     1
  0
VERTEX
  5
490
100
AcDbEntity
  8
0
  6
Continuous
 62
     7
100
AcDbVertex
100
AcDb2dVertex
 10
357.883854
 20
214.893709
 30
0.0
  0
VERTEX
  5
491
100
AcDbEntity
  8
0
  6
Continuous
 62
     7
100
AcDbVertex
100
AcDb2dVertex
 10
362.865975
 20
214.893709
 30
0.0
  0
VERTEX
  5
492
100
AcDbEntity
  8
0
  6
Continuous
 62
     7
100
AcDbVertex
100
AcDb2dVertex
 10
357.883854
 20
209.911589
 30
0.0
  0
SEQEND
  5
493
100
AcDbEntity
  8
0
  6
Continuous
 62
     7
  0
HATCH
  5
48E
100
AcDbEntity
  8
0
  6
Continuous
 62
     7
100
AcDbHatch
 10
0.0
 20
0.0
 30
0.0
210
0.0
220
0.0
230
1.0
  2
SOLID
 70
     1
 71
     1
 91
        1
 92
        3
 72
     0
 73
     1
 93
        3
 10
357.88385372543343
 20
214.89370948881447
 10
362.8659745123278
 20
214.89370948881447
 10
357.88385372543343
 20
209.91158870192012
 97
        1
330
48F
 75
     0
 76
     0
 98
        0
  0
DIMENSION
  5
4B3
100
AcDbEntity
  8
0
  6
Continuous
 62
     5
100
AcDbDimension
  2
*D24
 10
362.865975
 20
230.422659
 30
0.0
 11
380.572509
 21
230.422659
 31
0.0
 71
     5
 72
     1
 41
1.0
 42
0.0
  1
5
  3
STANDARD
100
AcDbAlignedDimension
 13
357.883854
 23
221.824482
 33
0.0
 14
362.865975
 24
221.985196
 34
0.0
100
AcDbRotatedDimension
1001
ACAD
1000
DSTYLE
1002
{
1070
   176
1070
     5
1070
   177
1070
     5
1070
   178
1070
     5
1002
}
  0
DIMENSION
  5
4DA
100
AcDbEntity
  8
0
  6
Continuous
 62
     5
100
AcDbDimension
  2
*D25
 10
339.642863
 20
209.931678
 30
0.0
 11
349.349397
 21
201.931678
 31
0.0
 71
     5
 72
     1
 41
1.0
 42
0.0
  1
5
  3
STANDARD
100
AcDbAlignedDimension
 13
357.321356
 23
214.913799
 33
0.0
 14
357.080286
 24
209.931678
 34
0.0
 50
-90.0
100
AcDbRotatedDimension
1001
ACAD
1000
DSTYLE
1002
{
1070
   176
1070
     5
1070
   177
1070
     5
1070
   178
1070
     5
1002
}
  0
DIMENSION
  5
4F9
100
AcDbEntity
  8
0
  6
Continuous
 62
     5
100
AcDbDimension
  2
*D26
 10
385.446232
 20
191.108101
 30
0.0
 11
385.446232
 21
206.104686
 31
0.0
 71
     5
 72
     1
 41
1.0
 42
0.0
  1
30
  3
STANDARD
100
AcDbAlignedDimension
 13
363.428472
 23
221.101271
 33
0.0
 14
363.348115
 24
191.108101
 34
0.0
 50
90.0
100
AcDbRotatedDimension
1001
ACAD
1000
DSTYLE
1002
{
1070
   176
1070
     5
1070
   177
1070
     5
1070
   178
1070
     5
1002
}
  0
TEXT
  5
4FA
100
AcDbEntity
  8
0
  6
Continuous
 62
     5
100
AcDbText
 10
402.949246
 20
191.931158
 30
0.0
 40
9.785007
  1
Anyaga 5x5 mm fenyő
  7
_TCW_TXTSTY_1
 72
     5
 11
508.600673
 21
191.931158
 31
0.0
100
AcDbText
1001
TCAD
1000
TCW40_TEXT
1002
{
1000
Times New Roman CE
1070
     0
1070
   257
1002
}
  0
TEXT
  5
4FB
100
AcDbEntity
  8
0
  6
Continuous
 62
     5
100
AcDbText
 10
403.172084
 20
208.297536
 30
0.0
 40
9.785007
  1
MOTOR TÁMASZTÓ (x2)
  7
_TCW_TXTSTY_1
 72
     5
 11
532.146964
 21
208.297536
 31
0.0
100
AcDbText
1001
TCAD
1000
TCW40_TEXT
1002
{
1000
Times New Roman CE
1070
     0
1070
   257
1002
}
  0
ENDSEC
  0
SECTION
  2
OBJECTS
  0
DICTIONARY
  5
19
100
AcDbDictionary
280
     0
281
     1
  3
ACAD_GROUP
350
1A
  3
ACAD_MLINESTYLE
350
1B
  3
ACAD_LAYOUT
350
1E
  3
ACAD_PLOTSETTINGS
350
22
  3
ACAD_PLOTSTYLENAME
350
1F
  3
ACAD_WIPEOUT_VARS
350
23
  0
DICTIONARY
  5
1A
102
{ACAD_REACTORS
330
19
102
}
100
AcDbDictionary
280
     0
281
     1
  0
DICTIONARY
  5
1B
102
{ACAD_REACTORS
330
19
102
}
100
AcDbDictionary
280
     0
281
     1
  3
Standard
350
1C
  0
MLINESTYLE
  5
1C
100
AcDbMlineStyle
  2
STANDARD
 70
     0
  3

 62
   256
 51
90.0
 52
90.0
 71
     3
 49
5.0
 62
     7
  6
Continuous
 49
0.0
 62
     7
  6
Continuous
 49
-5.0
 62
     7
  6
Continuous
  0
ACDBDICTIONARYWDFLT
  5
1F
102
{ACAD_REACTORS
330
19
102
}
100
AcDbDictionary
281
     1
  3
Normal
350
1D
100
AcDbDictionaryWithDefault
340
1D
  0
ACDBPLACEHOLDER
  5
1D
102
{ACAD_REACTORS
330
1F
102
}
  0
LAYOUT
  5
20
102
{ACAD_REACTORS
330
1E
102
}
100
AcDbPlotSettings
  1

  2

  4

  6

 40
0.0
 41
0.0
 42
0.0
 43
0.0
 44
0.0
 45
0.0
 46
0.0
 47
0.0
 48
0.0
 49
0.0
140
0.0
141
0.0
142
1.0
143
1.0
 70
  1024
 72
     0
 73
     0
 74
     0
  7

 75
     0
147
1.0
148
0.0
149
0.0
100
AcDbLayout
  1
Model
 70
     0
 71
     0
 10
0.0
 20
0.0
 11
0.0
 21
0.0
 12
0.0
 22
0.0
 32
0.0
 14
0.0
 24
0.0
 34
0.0
 15
0.0
 25
0.0
 35
0.0
146
0.0
 13
0.0
 23
0.0
 33
0.0
 16
0.0
 26
0.0
 36
0.0
 17
0.0
 27
0.0
 37
0.0
 76
     0
330
A
331
0
345
0
346
0
  0
LAYOUT
  5
21
102
{ACAD_REACTORS
330
1E
102
}
100
AcDbPlotSettings
  1

  2

  4

  6

 40
0.0
 41
0.0
 42
0.0
 43
0.0
 44
0.0
 45
0.0
 46
0.0
 47
0.0
 48
0.0
 49
0.0
140
0.0
141
0.0
142
1.0
143
1.0
 70
     0
 72
     0
 73
     0
 74
     0
  7

 75
     0
147
1.0
148
0.0
149
0.0
100
AcDbLayout
  1
Layout1
 70
     0
 71
     0
 10
0.0
 20
0.0
 11
0.0
 21
0.0
 12
0.0
 22
0.0
 32
0.0
 14
0.0
 24
0.0
 34
0.0
 15
0.0
 25
0.0
 35
0.0
146
0.0
 13
0.0
 23
0.0
 33
0.0
 16
0.0
 26
0.0
 36
0.0
 17
0.0
 27
0.0
 37
0.0
 76
     0
330
B
331
0
345
0
346
0
  0
DICTIONARY
  5
1E
102
{ACAD_REACTORS
330
19
102
}
100
AcDbDictionary
280
     0
281
     1
  3
Layout1
350
21
  3
Model
350
20
  0
DICTIONARY
  5
22
102
{ACAD_REACTORS
330
19
102
}
100
AcDbDictionary
280
     0
281
     1
  0
WIPEOUTVARIABLES
  5
23
100
AcDbWipeoutVariables
 70
     1
  0
ENDSEC
  0
EOF
