  0
SECTION
  2
HEADER
  9
$ACADVER
  1
AC1015
  9
$ACADMAINTVER
 70
     6
  9
$DWGCODEPAGE
  3
ANSI_1250
  9
$INSBASE
 10
0.0
 20
0.0
 30
0.0
  9
$EXTMIN
 10
-310.738678
 20
-180.218552
 30
0.0
  9
$EXTMAX
 10
229.047943
 20
146.937103
 30
0.0
  9
$LIMMIN
 10
-189.345367
 20
-121.640724
  9
$LIMMAX
 10
107.654633
 20
88.359276
  9
$ORTHOMODE
 70
     0
  9
$REGENMODE
 70
     1
  9
$FILLMODE
 70
     1
  9
$QTEXTMODE
 70
     0
  9
$MIRRTEXT
 70
     1
  9
$LTSCALE
 40
1.0
  9
$ATTMODE
 70
     0
  9
$TEXTSIZE
 40
5.044092
  9
$TRACEWID
 40
1.0
  9
$TEXTSTYLE
  7
STANDARD
  9
$CLAYER
  8
0
  9
$CELTYPE
  6
Continuous
  9
$CECOLOR
 62
     5
  9
$CELTSCALE
 40
1.0
  9
$DISPSILH
 70
     0
  9
$DIMSCALE
 40
1.0
  9
$DIMASZ
 40
4.0
  9
$DIMEXO
 40
1.5
  9
$DIMDLI
 40
10.0
  9
$DIMRND
 40
0.1
  9
$DIMDLE
 40
0.0
  9
$DIMEXE
 40
3.0
  9
$DIMTP
 40
0.0
  9
$DIMTM
 40
0.0
  9
$DIMTXT
 40
2.7025
  9
$DIMCEN
 40
0.09
  9
$DIMTSZ
 40
0.0
  9
$DIMTOL
 70
     0
  9
$DIMLIM
 70
     0
  9
$DIMTIH
 70
     1
  9
$DIMTOH
 70
     1
  9
$DIMSE1
 70
     0
  9
$DIMSE2
 70
     0
  9
$DIMTAD
 70
     0
  9
$DIMZIN
 70
     8
  9
$DIMBLK
  1
TC_DIMARROW_FILLED30
  9
$DIMASO
 70
     1
  9
$DIMSHO
 70
     1
  9
$DIMPOST
  1

  9
$DIMAPOST
  1

  9
$DIMALT
 70
     0
  9
$DIMALTD
 70
     2
  9
$DIMALTF
 40
25.4
  9
$DIMLFAC
 40
1.0
  9
$DIMTOFL
 70
     1
  9
$DIMTVP
 40
0.0
  9
$DIMTIX
 70
     0
  9
$DIMSOXD
 70
     0
  9
$DIMSAH
 70
     0
  9
$DIMBLK1
  1

  9
$DIMBLK2
  1

  9
$DIMSTYLE
  2
STANDARD
  9
$DIMCLRD
 70
     5
  9
$DIMCLRE
 70
     5
  9
$DIMCLRT
 70
     5
  9
$DIMTFAC
 40
1.0
  9
$DIMGAP
 40
1.5
  9
$DIMJUST
 70
     0
  9
$DIMSD1
 70
     0
  9
$DIMSD2
 70
     0
  9
$DIMTOLJ
 70
     1
  9
$DIMTZIN
 70
     0
  9
$DIMALTZ
 70
     0
  9
$DIMALTTZ
 70
     0
  9
$DIMUPT
 70
     0
  9
$DIMDEC
 70
     4
  9
$DIMTDEC
 70
     4
  9
$DIMALTU
 70
     2
  9
$DIMALTTD
 70
     2
  9
$DIMTXSTY
  7
STANDARD
  9
$DIMAUNIT
 70
     0
  9
$DIMADEC
 70
     0
  9
$DIMALTRND
 40
0.0
  9
$DIMAZIN
 70
     0
  9
$DIMDSEP
 70
     0
  9
$DIMATFIT
 70
     0
  9
$DIMFRAC
 70
     0
  9
$DIMLDRBLK
  1
TC_DIMARROW_FILLED30
  9
$DIMLUNIT
 70
     2
  9
$DIMLWD
 70
     0
  9
$DIMLWE
 70
     0
  9
$DIMTMOVE
 70
     0
  9
$LUNITS
 70
     2
  9
$LUPREC
 70
     1
  9
$SKETCHINC
 40
1.0
  9
$FILLETRAD
 40
1.0
  9
$AUNITS
 70
     0
  9
$AUPREC
 70
     2
  9
$MENU
  1
acad
  9
$ELEVATION
 40
0.0
  9
$PELEVATION
 40
0.0
  9
$THICKNESS
 40
0.0
  9
$LIMCHECK
 70
     0
  9
$CHAMFERA
 40
0.0
  9
$CHAMFERB
 40
0.0
  9
$CHAMFERC
 40
0.0
  9
$CHAMFERD
 40
0.0
  9
$SKPOLY
 70
     0
  9
$TDCREATE
 40
0.000000000
  9
$TDUCREATE
 40
0.000000000
  9
$TDUPDATE
 40
2449702.667959363
  9
$TDUUPDATE
 40
0.000000000
  9
$TDINDWG
 40
0.0000000000
  9
$TDUSRTIMER
 40
0.0000000000
  9
$USRTIMER
 70
     1
  9
$ANGBASE
 50
0.0
  9
$ANGDIR
 70
     0
  9
$PDMODE
 70
     0
  9
$PDSIZE
 40
0.0
  9
$PLINEWID
 40
0.0
  9
$SPLFRAME
 70
     0
  9
$SPLINETYPE
 70
     6
  9
$SPLINESEGS
 70
    20
  9
$HANDSEED
  5
725
  9
$SURFTAB1
 70
     6
  9
$SURFTAB2
 70
     6
  9
$SURFTYPE
 70
     6
  9
$SURFU
 70
     6
  9
$SURFV
 70
     6
  9
$UCSBASE
  2

  9
$UCSNAME
  2

  9
$UCSORG
 10
0.0
 20
0.0
 30
0.0
  9
$UCSXDIR
 10
1.0
 20
0.0
 30
0.0
  9
$UCSYDIR
 10
0.0
 20
1.0
 30
0.0
  9
$UCSORTHOREF
  2

  9
$UCSORTHOVIEW
 70
     0
  9
$UCSORGTOP
 10
0.0
 20
0.0
 30
0.0
  9
$UCSORGBOTTOM
 10
0.0
 20
0.0
 30
0.0
  9
$UCSORGLEFT
 10
0.0
 20
0.0
 30
0.0
  9
$UCSORGRIGHT
 10
0.0
 20
0.0
 30
0.0
  9
$UCSORGFRONT
 10
0.0
 20
0.0
 30
0.0
  9
$UCSORGBACK
 10
0.0
 20
0.0
 30
0.0
  9
$PUCSBASE
  2

  9
$PUCSNAME
  2

  9
$PUCSORG
 10
0.0
 20
0.0
 30
0.0
  9
$PUCSXDIR
 10
1.0
 20
0.0
 30
0.0
  9
$PUCSYDIR
 10
0.0
 20
1.0
 30
0.0
  9
$PUCSORTHOREF
  2

  9
$PUCSORTHOVIEW
 70
     0
  9
$PUCSORGTOP
 10
0.0
 20
0.0
 30
0.0
  9
$PUCSORGBOTTOM
 10
0.0
 20
0.0
 30
0.0
  9
$PUCSORGLEFT
 10
0.0
 20
0.0
 30
0.0
  9
$PUCSORGRIGHT
 10
0.0
 20
0.0
 30
0.0
  9
$PUCSORGFRONT
 10
0.0
 20
0.0
 30
0.0
  9
$PUCSORGBACK
 10
0.0
 20
0.0
 30
0.0
  9
$USERI1
 70
     0
  9
$USERI2
 70
     0
  9
$USERI3
 70
     0
  9
$USERI4
 70
     0
  9
$USERI5
 70
     0
  9
$USERR1
 40
0.0
  9
$USERR2
 40
0.0
  9
$USERR3
 40
0.0
  9
$USERR4
 40
0.0
  9
$USERR5
 40
0.0
  9
$WORLDVIEW
 70
     1
  9
$SHADEDGE
 70
     3
  9
$SHADEDIF
 70
    70
  9
$TILEMODE
 70
     1
  9
$MAXACTVP
 70
    16
  9
$PINSBASE
 10
0.0
 20
0.0
 30
0.0
  9
$PLIMCHECK
 70
     0
  9
$PEXTMIN
 10
0.0
 20
0.0
 30
0.0
  9
$PEXTMAX
 10
297.0
 20
210.0
 30
0.0
  9
$PLIMMIN
 10
0.0
 20
0.0
  9
$PLIMMAX
 10
297.0
 20
210.0
  9
$UNITMODE
 70
     0
  9
$VISRETAIN
 70
     0
  9
$PLINEGEN
 70
     1
  9
$PSLTSCALE
 70
     1
  9
$TREEDEPTH
 70
  3020
  9
$CMLSTYLE
  2
STANDARD
  9
$CMLJUST
 70
     0
  9
$CMLSCALE
 40
1.0
  9
$PROXYGRAPHICS
 70
     0
  9
$MEASUREMENT
 70
     0
  9
$CELWEIGHT
370
     0
  9
$ENDCAPS
280
     0
  9
$JOINSTYLE
280
     0
  9
$LWDISPLAY
290
     0
  9
$INSUNITS
 70
     0
  9
$HYPERLINKBASE
  1

  9
$XEDIT
290
     1
  9
$CEPSNTYPE
380
     0
  9
$PSTYLEMODE
290
     1
  9
$FINGERPRINTGUID
  2

  9
$VERSIONGUID
  2

  9
$EXTNAMES
290
     1
  9
$PSVPSCALE
 40
0.0
  0
ENDSEC
  0
SECTION
  2
CLASSES
  0
CLASS
  1
LWPOLYLINE
  2
AcDbPolyline
  3
"AutoCAD"
 90
        0
280
     0
281
     1
  0
CLASS
  1
IMAGE
  2
AcDbRasterImage
  3
ISM
 90
      127
280
     0
281
     1
  0
CLASS
  1
OLE2FRAME
  2
AcDbOle2Frame
  3
""
 90
        0
280
     0
281
     1
  0
CLASS
  1
HATCH
  2
AcDbHatch
  3
"ACAD_SEDONA"
 90
        0
280
     0
281
     1
  0
CLASS
  1
DICTIONARYVAR
  2
AcDbDictionaryVar
  3
"AutoCAD"
 90
        0
280
     0
281
     0
  0
CLASS
  1
RASTERVARIABLES
  2
AcDbRasterVariables
  3
ISM
 90
        0
280
     0
281
     0
  0
CLASS
  1
IMAGEDEF
  2
AcDbRasterImageDef
  3
ISM
 90
        0
280
     0
281
     0
  0
CLASS
  1
IMAGEDEF_REACTOR
  2
AcDbRasterImageDefReactor
  3
ISM
 90
        1
280
     0
281
     0
  0
CLASS
  1
IDBUFFER
  2
AcDbIdBuffer
  3
"Acad"
 90
        0
280
     0
281
     0
  0
CLASS
  1
SPATIAL_FILTER
  2
AcDbSpatialFilter
  3
"Acad"
 90
        0
280
     0
281
     0
  0
CLASS
  1
XRECORD
  2
AcDbXrecord
  3
"<Built In>"
 90
        0
280
     0
281
     0
  0
CLASS
  1
SORTENTSTABLE
  2
AcDbSortentsTable
  3
"AutoCAD"
 90
        0
280
     0
281
     0
  0
CLASS
  1
LAYER_INDEX
  2
AcDbLayerIndex
  3
"Acad"
 90
        0
280
     0
281
     0
  0
CLASS
  1
SPATIAL_INDEX
  2
AcDbSpatialIndex
  3
"Acad"
 90
        0
280
     0
281
     0
  0
CLASS
  1
OBJECT_PTR
  2
CAseDLPNTableRecord
  3
"ASE-LPNTableRecord"
 90
        1
280
     0
281
     0
  0
CLASS
  1
LAYOUT
  2
AcDbLayout
  3
"AutoCAD 2000"
 90
        1
280
     0
281
     0
  0
CLASS
  1
PLOTSETTINGS
  2
AcDbPlotSettings
  3
"AutoCAD 2000"
 90
        1
280
     0
281
     0
  0
CLASS
  1
ACDBDICTIONARYWDFLT
  2
AcDbDictionaryWithDefault
  3
"AutoCAD 2000"
 90
        1
280
     0
281
     0
  0
CLASS
  1
ACDBPLACEHOLDER
  2
AcDbPlaceHolder
  3
"AutoCAD 2000"
 90
        1
280
     0
281
     0
  0
CLASS
  1
VBA_PROJECT
  2
AcDbVbaProject
  3
"acadvba"
 90
        1
280
     0
281
     0
  0
CLASS
  1
WIPEOUT
  2
AcDbWipeout
  3
WipeOut|AutoCAD Express Tool|expresstools@autodesk.com
 90
      127
280
     0
281
     1
  0
CLASS
  1
WIPEOUTVARIABLES
  2
AcDbWipeoutVariables
  3
WipeOut|AutoCAD Express Tool|expresstools@autodesk.com
 90
        0
280
     0
281
     0
  0
CLASS
  1
RTEXT
  2
RText
  3
RText|AutoCAD Express Tool|expresstools@autodesk.com
 90
        0
280
     0
281
     1
  0
CLASS
  1
ARCALIGNEDTEXT
  2
AcDbArcAlignedText
  3
ATEXT|AutoCAD Express Tool|expresstools@autodesk.com
 90
        0
280
     0
281
     1
  0
ENDSEC
  0
SECTION
  2
TABLES
  0
TABLE
  2
VPORT
  5
7
100
AcDbSymbolTable
 70
     1
  0
VPORT
  5
15
100
AcDbSymbolTableRecord
100
AcDbViewportTableRecord
  2
*ACTIVE
 70
     0
 10
0.0
 20
0.0
 11
1.0
 21
1.0
 12
0.0
 22
0.0
 13
0.0
 23
0.0
 14
5.0
 24
5.0
 15
5.0
 25
5.0
 16
0.0
 26
0.0
 36
1.0
 17
-40.845369
 27
0.226138
 37
0.0
 40
333.698761
 41
1.763303
 42
50.0
 43
0.0
 44
0.0
 50
0.0
 51
0.0
 71
     0
 72
   100
 73
     1
 74
     1
 75
     0
 76
     1
 77
     0
 78
     0
281
     0
 65
     0
110
0.0
120
0.0
130
0.0
111
1.0
121
0.0
131
0.0
112
0.0
122
1.0
132
0.0
345
0
346
0
 79
     0
146
0.0
  0
ENDTAB
  0
TABLE
  2
LTYPE
  5
4
100
AcDbSymbolTable
 70
    15
  0
LTYPE
  5
11
100
AcDbSymbolTableRecord
100
AcDbLinetypeTableRecord
  2
ByBlock
 70
    64
  3

 72
    65
 73
     0
 40
0.0
  0
LTYPE
  5
12
100
AcDbSymbolTableRecord
100
AcDbLinetypeTableRecord
  2
ByLayer
 70
    64
  3

 72
    65
 73
     0
 40
0.0
  0
LTYPE
  5
13
100
AcDbSymbolTableRecord
100
AcDbLinetypeTableRecord
  2
Continuous
 70
    64
  3
Solid line
 72
    65
 73
     0
 40
0.0
  0
LTYPE
  5
25
100
AcDbSymbolTableRecord
100
AcDbLinetypeTableRecord
  2
BORDER
 70
     0
  3
BORDER
 72
    65
 73
     6
 40
1.75
 49
0.5
 74
     0
 49
-0.25
 74
     0
 49
0.5
 74
     0
 49
-0.25
 74
     0
 49
0.0
 74
     0
 49
-0.25
 74
     0
  0
LTYPE
  5
26
100
AcDbSymbolTableRecord
100
AcDbLinetypeTableRecord
  2
CENTER
 70
     0
  3
CENTER
 72
    65
 73
     4
 40
2.0
 49
1.25
 74
     0
 49
-0.25
 74
     0
 49
0.25
 74
     0
 49
-0.25
 74
     0
  0
LTYPE
  5
27
100
AcDbSymbolTableRecord
100
AcDbLinetypeTableRecord
  2
DASHDOT
 70
     0
  3
DASHDOT
 72
    65
 73
     4
 40
1.0
 49
0.5
 74
     0
 49
-0.25
 74
     0
 49
0.0
 74
     0
 49
-0.25
 74
     0
  0
LTYPE
  5
28
100
AcDbSymbolTableRecord
100
AcDbLinetypeTableRecord
  2
DASHED
 70
     0
  3
DASHED
 72
    65
 73
     2
 40
0.75
 49
0.5
 74
     0
 49
-0.25
 74
     0
  0
LTYPE
  5
29
100
AcDbSymbolTableRecord
100
AcDbLinetypeTableRecord
  2
DIVIDE
 70
     0
  3
DIVIDE
 72
    65
 73
     6
 40
1.25
 49
0.5
 74
     0
 49
-0.25
 74
     0
 49
0.0
 74
     0
 49
-0.25
 74
     0
 49
0.0
 74
     0
 49
-0.25
 74
     0
  0
LTYPE
  5
2A
100
AcDbSymbolTableRecord
100
AcDbLinetypeTableRecord
  2
DOT
 70
     0
  3
DOT
 72
    65
 73
     2
 40
0.25
 49
0.0
 74
     0
 49
-0.25
 74
     0
  0
LTYPE
  5
2B
100
AcDbSymbolTableRecord
100
AcDbLinetypeTableRecord
  2
HIDDEN
 70
     0
  3
HIDDEN
 72
    65
 73
     2
 40
0.375
 49
0.25
 74
     0
 49
-0.125
 74
     0
  0
LTYPE
  5
2C
100
AcDbSymbolTableRecord
100
AcDbLinetypeTableRecord
  2
PHANTOM
 70
     0
  3
PHANTOM
 72
    65
 73
     6
 40
2.5
 49
1.25
 74
     0
 49
-0.25
 74
     0
 49
0.25
 74
     0
 49
-0.25
 74
     0
 49
0.25
 74
     0
 49
-0.25
 74
     0
  0
LTYPE
  5
2D
100
AcDbSymbolTableRecord
100
AcDbLinetypeTableRecord
  2
$INVISIBLE
 70
     0
  3
$INVISIBLE
 72
    65
 73
     2
 40
200.0
 49
-100.0
 74
     0
 49
-100.0
 74
     0
  0
LTYPE
  5
2E
100
AcDbSymbolTableRecord
100
AcDbLinetypeTableRecord
  2
$AUXILIARY
 70
     0
  3
$AUXILIARY
 72
    65
 73
     2
 40
0.1
 49
0.05
 74
     0
 49
-0.05
 74
     0
  0
LTYPE
  5
2F
100
AcDbSymbolTableRecord
100
AcDbLinetypeTableRecord
  2
$CONSTRUCTION
 70
     0
  3
$CONSTRUCTION
 72
    65
 73
     4
 40
0.3
 49
0.2
 74
     0
 49
-0.05
 74
     0
 49
0.0
 74
     0
 49
-0.05
 74
     0
  0
LTYPE
  5
30
100
AcDbSymbolTableRecord
100
AcDbLinetypeTableRecord
  2
$SNAPEXT
 70
     0
  3
$SNAPEXT
 72
    65
 73
     2
 40
0.04
 49
0.02
 74
     0
 49
-0.02
 74
     0
  0
ENDTAB
  0
TABLE
  2
LAYER
  5
2
100
AcDbSymbolTable
 70
     1
  0
LAYER
  5
14
100
AcDbSymbolTableRecord
100
AcDbLayerTableRecord
  2
0
 70
     0
 62
     7
  6
Continuous
290
     1
370
    -3
390
1F
1001
TCAD
1000
TCW_LAYER_ORDER
1002
{
1071
        0
1002
}
  0
ENDTAB
  0
TABLE
  2
STYLE
  5
3
100
AcDbSymbolTable
 70
     1
  0
STYLE
  5
17
100
AcDbSymbolTableRecord
100
AcDbTextStyleTableRecord
  2
STANDARD
 70
     0
 40
0.0
 41
1.0
 50
0.0
 71
     0
 42
3.222614
  3
ARIAL.TTF
  4

1001
ACAD
1000
Arial
1071
       34
  0
ENDTAB
  0
TABLE
  2
VIEW
  5
5
100
AcDbSymbolTable
 70
     1
  0
VIEW
  5
31
100
AcDbSymbolTableRecord
100
AcDbViewTableRecord
  2
View_0
 70
     0
 40
210.0
 10
148.5
 20
105.0
 41
297.0
 11
0.0
 21
0.0
 31
1.0
 12
0.0
 22
0.0
 32
0.0
 42
50.0
 43
0.0
 44
0.0
 50
0.0
 71
     0
281
     0
 72
     0
110
0.0
120
0.0
130
0.0
111
1.0
121
0.0
131
0.0
112
0.0
122
1.0
132
0.0
  0
ENDTAB
  0
TABLE
  2
UCS
  5
6
100
AcDbSymbolTable
 70
     0
  0
ENDTAB
  0
TABLE
  2
APPID
  5
8
100
AcDbSymbolTable
 70
     2
  0
APPID
  5
16
100
AcDbSymbolTableRecord
100
AcDbRegAppTableRecord
  2
ACAD
 70
     0
  0
APPID
  5
24
100
AcDbSymbolTableRecord
100
AcDbRegAppTableRecord
  2
TCAD
 70
     0
  0
ENDTAB
  0
TABLE
  2
DIMSTYLE
  5
9
100
AcDbSymbolTable
 70
     1
100
AcDbDimStyleTable
 71
     0
  0
DIMSTYLE
105
18
100
AcDbSymbolTableRecord
100
AcDbDimStyleTableRecord
  2
STANDARD
 70
     0
  3

  4

 40
1.0
 41
4.0
 42
1.5
 43
10.0
 44
3.0
 45
0.1
 46
0.0
 47
0.0
 48
0.0
 71
     0
 72
     0
 73
     1
 74
     1
 75
     0
 76
     0
 77
     0
 78
     8
 79
     0
140
2.7025
141
0.09
142
0.0
143
25.4
144
1.0
145
0.0
146
1.0
147
1.5
148
0.0
170
     0
171
     2
172
     1
173
     0
174
     0
175
     0
176
     5
177
     5
178
     5
179
     0
271
     4
272
     4
273
     2
274
     2
275
     0
276
     0
277
     2
278
    46
279
     0
280
     0
281
     0
282
     0
283
     1
284
     0
285
     0
286
     0
288
     0
340
17
341
32
342
32
343
0
344
0
371
    -2
372
    -2
  0
ENDTAB
  0
TABLE
  2
BLOCK_RECORD
  5
1
100
AcDbSymbolTable
 70
    43
  0
BLOCK_RECORD
  5
A
100
AcDbSymbolTableRecord
100
AcDbBlockTableRecord
  2
*MODEL_SPACE
340
20
  0
BLOCK_RECORD
  5
B
100
AcDbSymbolTableRecord
100
AcDbBlockTableRecord
  2
*PAPER_SPACE
340
21
  0
BLOCK_RECORD
  5
32
100
AcDbSymbolTableRecord
100
AcDbBlockTableRecord
  2
TC_DIMARROW_FILLED30
340
0
  0
BLOCK_RECORD
  5
7C
100
AcDbSymbolTableRecord
100
AcDbBlockTableRecord
  2
*E1
340
0
  0
BLOCK_RECORD
  5
AB
100
AcDbSymbolTableRecord
100
AcDbBlockTableRecord
  2
*E2
340
0
  0
BLOCK_RECORD
  5
10B
100
AcDbSymbolTableRecord
100
AcDbBlockTableRecord
  2
*E3
340
0
  0
BLOCK_RECORD
  5
1C4
100
AcDbSymbolTableRecord
100
AcDbBlockTableRecord
  2
*D4
340
0
  0
BLOCK_RECORD
  5
1E3
100
AcDbSymbolTableRecord
100
AcDbBlockTableRecord
  2
*D5
340
0
  0
BLOCK_RECORD
  5
202
100
AcDbSymbolTableRecord
100
AcDbBlockTableRecord
  2
*D6
340
0
  0
BLOCK_RECORD
  5
221
100
AcDbSymbolTableRecord
100
AcDbBlockTableRecord
  2
*D7
340
0
  0
BLOCK_RECORD
  5
240
100
AcDbSymbolTableRecord
100
AcDbBlockTableRecord
  2
*D8
340
0
  0
BLOCK_RECORD
  5
25F
100
AcDbSymbolTableRecord
100
AcDbBlockTableRecord
  2
*D9
340
0
  0
BLOCK_RECORD
  5
270
100
AcDbSymbolTableRecord
100
AcDbBlockTableRecord
  2
*D10
340
0
  0
BLOCK_RECORD
  5
281
100
AcDbSymbolTableRecord
100
AcDbBlockTableRecord
  2
*D11
340
0
  0
BLOCK_RECORD
  5
293
100
AcDbSymbolTableRecord
100
AcDbBlockTableRecord
  2
*D12
340
0
  0
BLOCK_RECORD
  5
2A8
100
AcDbSymbolTableRecord
100
AcDbBlockTableRecord
  2
*D13
340
0
  0
BLOCK_RECORD
  5
2C0
100
AcDbSymbolTableRecord
100
AcDbBlockTableRecord
  2
*D14
340
0
  0
BLOCK_RECORD
  5
2E7
100
AcDbSymbolTableRecord
100
AcDbBlockTableRecord
  2
*D15
340
0
  0
BLOCK_RECORD
  5
307
100
AcDbSymbolTableRecord
100
AcDbBlockTableRecord
  2
*D16
340
0
  0
BLOCK_RECORD
  5
32D
100
AcDbSymbolTableRecord
100
AcDbBlockTableRecord
  2
*D17
340
0
  0
BLOCK_RECORD
  5
352
100
AcDbSymbolTableRecord
100
AcDbBlockTableRecord
  2
*D18
340
0
  0
BLOCK_RECORD
  5
387
100
AcDbSymbolTableRecord
100
AcDbBlockTableRecord
  2
*D19
340
0
  0
BLOCK_RECORD
  5
3A5
100
AcDbSymbolTableRecord
100
AcDbBlockTableRecord
  2
*E20
340
0
  0
BLOCK_RECORD
  5
3DE
100
AcDbSymbolTableRecord
100
AcDbBlockTableRecord
  2
*E21
340
0
  0
BLOCK_RECORD
  5
43D
100
AcDbSymbolTableRecord
100
AcDbBlockTableRecord
  2
*D22
340
0
  0
BLOCK_RECORD
  5
45C
100
AcDbSymbolTableRecord
100
AcDbBlockTableRecord
  2
*D23
340
0
  0
BLOCK_RECORD
  5
4AE
100
AcDbSymbolTableRecord
100
AcDbBlockTableRecord
  2
*D24
340
0
  0
BLOCK_RECORD
  5
4CE
100
AcDbSymbolTableRecord
100
AcDbBlockTableRecord
  2
*D25
340
0
  0
BLOCK_RECORD
  5
4ED
100
AcDbSymbolTableRecord
100
AcDbBlockTableRecord
  2
*D26
340
0
  0
BLOCK_RECORD
  5
50D
100
AcDbSymbolTableRecord
100
AcDbBlockTableRecord
  2
*D27
340
0
  0
BLOCK_RECORD
  5
52C
100
AcDbSymbolTableRecord
100
AcDbBlockTableRecord
  2
*D28
340
0
  0
BLOCK_RECORD
  5
54C
100
AcDbSymbolTableRecord
100
AcDbBlockTableRecord
  2
*D29
340
0
  0
BLOCK_RECORD
  5
56B
100
AcDbSymbolTableRecord
100
AcDbBlockTableRecord
  2
*D30
340
0
  0
BLOCK_RECORD
  5
58A
100
AcDbSymbolTableRecord
100
AcDbBlockTableRecord
  2
*D31
340
0
  0
BLOCK_RECORD
  5
5AA
100
AcDbSymbolTableRecord
100
AcDbBlockTableRecord
  2
*D32
340
0
  0
BLOCK_RECORD
  5
5D4
100
AcDbSymbolTableRecord
100
AcDbBlockTableRecord
  2
*D33
340
0
  0
BLOCK_RECORD
  5
5F3
100
AcDbSymbolTableRecord
100
AcDbBlockTableRecord
  2
*D34
340
0
  0
BLOCK_RECORD
  5
612
100
AcDbSymbolTableRecord
100
AcDbBlockTableRecord
  2
*D35
340
0
  0
BLOCK_RECORD
  5
631
100
AcDbSymbolTableRecord
100
AcDbBlockTableRecord
  2
*D36
340
0
  0
BLOCK_RECORD
  5
650
100
AcDbSymbolTableRecord
100
AcDbBlockTableRecord
  2
*D37
340
0
  0
BLOCK_RECORD
  5
66F
100
AcDbSymbolTableRecord
100
AcDbBlockTableRecord
  2
*D38
340
0
  0
BLOCK_RECORD
  5
690
100
AcDbSymbolTableRecord
100
AcDbBlockTableRecord
  2
*D39
340
0
  0
BLOCK_RECORD
  5
6AF
100
AcDbSymbolTableRecord
100
AcDbBlockTableRecord
  2
*D40
340
0
  0
BLOCK_RECORD
  5
6CE
100
AcDbSymbolTableRecord
100
AcDbBlockTableRecord
  2
*D41
340
0
  0
BLOCK_RECORD
  5
6ED
100
AcDbSymbolTableRecord
100
AcDbBlockTableRecord
  2
*D42
340
0
  0
ENDTAB
  0
ENDSEC
  0
SECTION
  2
BLOCKS
  0
BLOCK
  5
D
100
AcDbEntity
  8
0
100
AcDbBlockBegin
  2
*MODEL_SPACE
 70
     0
 10
0.0
 20
0.0
 30
0.0
  3
*MODEL_SPACE
  1

  0
ENDBLK
  5
E
100
AcDbEntity
  8
0
100
AcDbBlockEnd
  0
BLOCK
  5
F
100
AcDbEntity
 67
     1
  8
0
100
AcDbBlockBegin
  2
*PAPER_SPACE
 70
     0
 10
0.0
 20
0.0
 30
0.0
  3
*PAPER_SPACE
  1

  0
ENDBLK
  5
10
100
AcDbEntity
 67
     1
  8
0
100
AcDbBlockEnd
  0
BLOCK
  5
33
100
AcDbEntity
  8
0
100
AcDbBlockBegin
  2
TC_DIMARROW_FILLED30
 70
     0
 10
0.0
 20
0.0
 30
0.0
  3
TC_DIMARROW_FILLED30
  1

  0
SOLID
  5
34
100
AcDbEntity
  8
0
  6
ByBlock
 62
     0
100
AcDbTrace
 10
0.0
 20
0.0
 30
0.0
 11
-1.0
 21
0.267949
 31
0.0
 12
-1.0
 22
-0.267949
 32
0.0
 13
-1.0
 23
-0.267949
 33
0.0
  0
ENDBLK
  5
35
100
AcDbEntity
  8
0
100
AcDbBlockEnd
  0
BLOCK
  5
7D
100
AcDbEntity
  8
0
100
AcDbBlockBegin
  2
*E1
 70
     1
 10
0.0
 20
0.0
 30
0.0
  3
*E1
  1

  0
POLYLINE
  5
7E
100
AcDbEntity
  8
0
370
     0
  6
Continuous
 62
     7
100
AcDb2dPolyline
 66
     1
 10
0.0
 20
0.0
 30
0.0
  0
VERTEX
  5
7F
100
AcDbEntity
  8
0
  6
Continuous
 62
     7
100
AcDbVertex
100
AcDb2dVertex
 10
169.117715
 20
53.019154
 30
0.0
  0
VERTEX
  5
80
100
AcDbEntity
  8
0
  6
Continuous
 62
     7
100
AcDbVertex
100
AcDb2dVertex
 10
169.916708
 20
51.702266
 30
0.0
  0
VERTEX
  5
81
100
AcDbEntity
  8
0
  6
Continuous
 62
     7
100
AcDbVertex
100
AcDb2dVertex
 10
170.698757
 20
50.373876
 30
0.0
  0
VERTEX
  5
82
100
AcDbEntity
  8
0
  6
Continuous
 62
     7
100
AcDbVertex
100
AcDb2dVertex
 10
171.463699
 20
49.034345
 30
0.0
  0
VERTEX
  5
83
100
AcDbEntity
  8
0
  6
Continuous
 62
     7
100
AcDbVertex
100
AcDb2dVertex
 10
172.211371
 20
47.684038
 30
0.0
  0
VERTEX
  5
84
100
AcDbEntity
  8
0
  6
Continuous
 62
     7
100
AcDbVertex
100
AcDb2dVertex
 10
172.941612
 20
46.323317
 30
0.0
  0
VERTEX
  5
85
100
AcDbEntity
  8
0
  6
Continuous
 62
     7
100
AcDbVertex
100
AcDb2dVertex
 10
173.654258
 20
44.952546
 30
0.0
  0
VERTEX
  5
86
100
AcDbEntity
  8
0
  6
Continuous
 62
     7
100
AcDbVertex
100
AcDb2dVertex
 10
174.349148
 20
43.572088
 30
0.0
  0
VERTEX
  5
87
100
AcDbEntity
  8
0
  6
Continuous
 62
     7
100
AcDbVertex
100
AcDb2dVertex
 10
175.026119
 20
42.182306
 30
0.0
  0
VERTEX
  5
88
100
AcDbEntity
  8
0
  6
Continuous
 62
     7
100
AcDbVertex
100
AcDb2dVertex
 10
175.685008
 20
40.783564
 30
0.0
  0
VERTEX
  5
89
100
AcDbEntity
  8
0
  6
Continuous
 62
     7
100
AcDbVertex
100
AcDb2dVertex
 10
176.325653
 20
39.376223
 30
0.0
  0
VERTEX
  5
8A
100
AcDbEntity
  8
0
  6
Continuous
 62
     7
100
AcDbVertex
100
AcDb2dVertex
 10
176.947891
 20
37.960648
 30
0.0
  0
VERTEX
  5
8B
100
AcDbEntity
  8
0
  6
Continuous
 62
     7
100
AcDbVertex
100
AcDb2dVertex
 10
177.551561
 20
36.537202
 30
0.0
  0
VERTEX
  5
8C
100
AcDbEntity
  8
0
  6
Continuous
 62
     7
100
AcDbVertex
100
AcDb2dVertex
 10
178.136498
 20
35.106247
 30
0.0
  0
VERTEX
  5
8D
100
AcDbEntity
  8
0
  6
Continuous
 62
     7
100
AcDbVertex
100
AcDb2dVertex
 10
178.702542
 20
33.668147
 30
0.0
  0
VERTEX
  5
8E
100
AcDbEntity
  8
0
  6
Continuous
 62
     7
100
AcDbVertex
100
AcDb2dVertex
 10
179.24953
 20
32.223266
 30
0.0
  0
VERTEX
  5
8F
100
AcDbEntity
  8
0
  6
Continuous
 62
     7
100
AcDbVertex
100
AcDb2dVertex
 10
179.777298
 20
30.771966
 30
0.0
  0
VERTEX
  5
90
100
AcDbEntity
  8
0
  6
Continuous
 62
     7
100
AcDbVertex
100
AcDb2dVertex
 10
180.285685
 20
29.31461
 30
0.0
  0
VERTEX
  5
91
100
AcDbEntity
  8
0
  6
Continuous
 62
     7
100
AcDbVertex
100
AcDb2dVertex
 10
180.774529
 20
27.851561
 30
0.0
  0
VERTEX
  5
92
100
AcDbEntity
  8
0
  6
Continuous
 62
     7
100
AcDbVertex
100
AcDb2dVertex
 10
181.243666
 20
26.383184
 30
0.0
  0
VERTEX
  5
93
100
AcDbEntity
  8
0
  6
Continuous
 62
     7
100
AcDbVertex
100
AcDb2dVertex
 10
181.692934
 20
24.90984
 30
0.0
  0
VERTEX
  5
94
100
AcDbEntity
  8
0
  6
Continuous
 62
     7
100
AcDbVertex
100
AcDb2dVertex
 10
182.041423
 20
23.702924
 30
0.0
  0
VERTEX
  5
95
100
AcDbEntity
  8
0
  6
Continuous
 62
     7
100
AcDbVertex
100
AcDb2dVertex
 10
182.370475
 20
22.489068
 30
0.0
  0
VERTEX
  5
96
100
AcDbEntity
  8
0
  6
Continuous
 62
     7
100
AcDbVertex
100
AcDb2dVertex
 10
182.680026
 20
21.268759
 30
0.0
  0
VERTEX
  5
97
100
AcDbEntity
  8
0
  6
Continuous
 62
     7
100
AcDbVertex
100
AcDb2dVertex
 10
182.970015
 20
20.04248
 30
0.0
  0
VERTEX
  5
98
100
AcDbEntity
  8
0
  6
Continuous
 62
     7
100
AcDbVertex
100
AcDb2dVertex
 10
183.240378
 20
18.810717
 30
0.0
  0
VERTEX
  5
99
100
AcDbEntity
  8
0
  6
Continuous
 62
     7
100
AcDbVertex
100
AcDb2dVertex
 10
183.491055
 20
17.573956
 30
0.0
  0
VERTEX
  5
9A
100
AcDbEntity
  8
0
  6
Continuous
 62
     7
100
AcDbVertex
100
AcDb2dVertex
 10
183.721981
 20
16.33268
 30
0.0
  0
VERTEX
  5
9B
100
AcDbEntity
  8
0
  6
Continuous
 62
     7
100
AcDbVertex
100
AcDb2dVertex
 10
183.933095
 20
15.087375
 30
0.0
  0
VERTEX
  5
9C
100
AcDbEntity
  8
0
  6
Continuous
 62
     7
100
AcDbVertex
100
AcDb2dVertex
 10
184.124334
 20
13.838525
 30
0.0
  0
VERTEX
  5
9D
100
AcDbEntity
  8
0
  6
Continuous
 62
     7
100
AcDbVertex
100
AcDb2dVertex
 10
184.295636
 20
12.586617
 30
0.0
  0
VERTEX
  5
9E
100
AcDbEntity
  8
0
  6
Continuous
 62
     7
100
AcDbVertex
100
AcDb2dVertex
 10
184.446939
 20
11.332135
 30
0.0
  0
VERTEX
  5
9F
100
AcDbEntity
  8
0
  6
Continuous
 62
     7
100
AcDbVertex
100
AcDb2dVertex
 10
184.57818
 20
10.075563
 30
0.0
  0
VERTEX
  5
A0
100
AcDbEntity
  8
0
  6
Continuous
 62
     7
100
AcDbVertex
100
AcDb2dVertex
 10
184.689296
 20
8.817387
 30
0.0
  0
VERTEX
  5
A1
100
AcDbEntity
  8
0
  6
Continuous
 62
     7
100
AcDbVertex
100
AcDb2dVertex
 10
184.780225
 20
7.558091
 30
0.0
  0
VERTEX
  5
A2
100
AcDbEntity
  8
0
  6
Continuous
 62
     7
100
AcDbVertex
100
AcDb2dVertex
 10
184.850905
 20
6.298162
 30
0.0
  0
VERTEX
  5
A3
100
AcDbEntity
  8
0
  6
Continuous
 62
     7
100
AcDbVertex
100
AcDb2dVertex
 10
184.901274
 20
5.038083
 30
0.0
  0
VERTEX
  5
A4
100
AcDbEntity
  8
0
  6
Continuous
 62
     7
100
AcDbVertex
100
AcDb2dVertex
 10
184.931268
 20
3.77834
 30
0.0
  0
VERTEX
  5
A5
100
AcDbEntity
  8
0
  6
Continuous
 62
     7
100
AcDbVertex
100
AcDb2dVertex
 10
184.940826
 20
2.519417
 30
0.0
  0
VERTEX
  5
A6
100
AcDbEntity
  8
0
  6
Continuous
 62
     7
100
AcDbVertex
100
AcDb2dVertex
 10
184.929885
 20
1.2618
 30
0.0
  0
VERTEX
  5
A7
100
AcDbEntity
  8
0
  6
Continuous
 62
     7
100
AcDbVertex
100
AcDb2dVertex
 10
184.898382
 20
0.005974
 30
0.0
  0
SEQEND
  5
A8
100
AcDbEntity
  8
0
  6
Continuous
 62
     7
  0
ENDBLK
  5
A9
100
AcDbEntity
  8
0
100
AcDbBlockEnd
  0
BLOCK
  5
AC
100
AcDbEntity
  8
0
100
AcDbBlockBegin
  2
*E2
 70
     1
 10
0.0
 20
0.0
 30
0.0
  3
*E2
  1

  0
POLYLINE
  5
AD
100
AcDbEntity
  8
0
370
     0
  6
Continuous
 62
     7
100
AcDb2dPolyline
 66
     1
 10
0.0
 20
0.0
 30
0.0
  0
VERTEX
  5
AE
100
AcDbEntity
  8
0
  6
Continuous
 62
     7
100
AcDbVertex
100
AcDb2dVertex
 10
114.0
 20
45.0
 30
0.0
  0
VERTEX
  5
AF
100
AcDbEntity
  8
0
  6
Continuous
 62
     7
100
AcDbVertex
100
AcDb2dVertex
 10
114.722652
 20
44.651389
 30
0.0
  0
VERTEX
  5
B0
100
AcDbEntity
  8
0
  6
Continuous
 62
     7
100
AcDbVertex
100
AcDb2dVertex
 10
115.441969
 20
44.295078
 30
0.0
  0
VERTEX
  5
B1
100
AcDbEntity
  8
0
  6
Continuous
 62
     7
100
AcDbVertex
100
AcDb2dVertex
 10
116.15784
 20
43.931134
 30
0.0
  0
VERTEX
  5
B2
100
AcDbEntity
  8
0
  6
Continuous
 62
     7
100
AcDbVertex
100
AcDb2dVertex
 10
116.870157
 20
43.559626
 30
0.0
  0
VERTEX
  5
B3
100
AcDbEntity
  8
0
  6
Continuous
 62
     7
100
AcDbVertex
100
AcDb2dVertex
 10
117.578806
 20
43.18062
 30
0.0
  0
VERTEX
  5
B4
100
AcDbEntity
  8
0
  6
Continuous
 62
     7
100
AcDbVertex
100
AcDb2dVertex
 10
118.28368
 20
42.794185
 30
0.0
  0
VERTEX
  5
B5
100
AcDbEntity
  8
0
  6
Continuous
 62
     7
100
AcDbVertex
100
AcDb2dVertex
 10
118.984665
 20
42.400387
 30
0.0
  0
VERTEX
  5
B6
100
AcDbEntity
  8
0
  6
Continuous
 62
     7
100
AcDbVertex
100
AcDb2dVertex
 10
119.681654
 20
41.999293
 30
0.0
  0
VERTEX
  5
B7
100
AcDbEntity
  8
0
  6
Continuous
 62
     7
100
AcDbVertex
100
AcDb2dVertex
 10
120.374534
 20
41.590973
 30
0.0
  0
VERTEX
  5
B8
100
AcDbEntity
  8
0
  6
Continuous
 62
     7
100
AcDbVertex
100
AcDb2dVertex
 10
121.063195
 20
41.175492
 30
0.0
  0
VERTEX
  5
B9
100
AcDbEntity
  8
0
  6
Continuous
 62
     7
100
AcDbVertex
100
AcDb2dVertex
 10
121.747527
 20
40.752918
 30
0.0
  0
VERTEX
  5
BA
100
AcDbEntity
  8
0
  6
Continuous
 62
     7
100
AcDbVertex
100
AcDb2dVertex
 10
122.427419
 20
40.323319
 30
0.0
  0
VERTEX
  5
BB
100
AcDbEntity
  8
0
  6
Continuous
 62
     7
100
AcDbVertex
100
AcDb2dVertex
 10
123.10276
 20
39.886763
 30
0.0
  0
VERTEX
  5
BC
100
AcDbEntity
  8
0
  6
Continuous
 62
     7
100
AcDbVertex
100
AcDb2dVertex
 10
123.773441
 20
39.443316
 30
0.0
  0
VERTEX
  5
BD
100
AcDbEntity
  8
0
  6
Continuous
 62
     7
100
AcDbVertex
100
AcDb2dVertex
 10
124.439351
 20
38.993046
 30
0.0
  0
VERTEX
  5
BE
100
AcDbEntity
  8
0
  6
Continuous
 62
     7
100
AcDbVertex
100
AcDb2dVertex
 10
125.100379
 20
38.536021
 30
0.0
  0
VERTEX
  5
BF
100
AcDbEntity
  8
0
  6
Continuous
 62
     7
100
AcDbVertex
100
AcDb2dVertex
 10
125.756415
 20
38.072307
 30
0.0
  0
VERTEX
  5
C0
100
AcDbEntity
  8
0
  6
Continuous
 62
     7
100
AcDbVertex
100
AcDb2dVertex
 10
126.407347
 20
37.601974
 30
0.0
  0
VERTEX
  5
C1
100
AcDbEntity
  8
0
  6
Continuous
 62
     7
100
AcDbVertex
100
AcDb2dVertex
 10
127.053067
 20
37.125087
 30
0.0
  0
VERTEX
  5
C2
100
AcDbEntity
  8
0
  6
Continuous
 62
     7
100
AcDbVertex
100
AcDb2dVertex
 10
127.693462
 20
36.641714
 30
0.0
  0
VERTEX
  5
C3
100
AcDbEntity
  8
0
  6
Continuous
 62
     7
100
AcDbVertex
100
AcDb2dVertex
 10
128.243123
 20
36.223453
 30
0.0
  0
VERTEX
  5
C4
100
AcDbEntity
  8
0
  6
Continuous
 62
     7
100
AcDbVertex
100
AcDb2dVertex
 10
128.795984
 20
35.803719
 30
0.0
  0
VERTEX
  5
C5
100
AcDbEntity
  8
0
  6
Continuous
 62
     7
100
AcDbVertex
100
AcDb2dVertex
 10
129.35052
 20
35.381661
 30
0.0
  0
VERTEX
  5
C6
100
AcDbEntity
  8
0
  6
Continuous
 62
     7
100
AcDbVertex
100
AcDb2dVertex
 10
129.905206
 20
34.956425
 30
0.0
  0
VERTEX
  5
C7
100
AcDbEntity
  8
0
  6
Continuous
 62
     7
100
AcDbVertex
100
AcDb2dVertex
 10
130.458517
 20
34.52716
 30
0.0
  0
VERTEX
  5
C8
100
AcDbEntity
  8
0
  6
Continuous
 62
     7
100
AcDbVertex
100
AcDb2dVertex
 10
131.008929
 20
34.093015
 30
0.0
  0
VERTEX
  5
C9
100
AcDbEntity
  8
0
  6
Continuous
 62
     7
100
AcDbVertex
100
AcDb2dVertex
 10
131.554917
 20
33.653137
 30
0.0
  0
VERTEX
  5
CA
100
AcDbEntity
  8
0
  6
Continuous
 62
     7
100
AcDbVertex
100
AcDb2dVertex
 10
132.094956
 20
33.206674
 30
0.0
  0
VERTEX
  5
CB
100
AcDbEntity
  8
0
  6
Continuous
 62
     7
100
AcDbVertex
100
AcDb2dVertex
 10
132.627521
 20
32.752774
 30
0.0
  0
VERTEX
  5
CC
100
AcDbEntity
  8
0
  6
Continuous
 62
     7
100
AcDbVertex
100
AcDb2dVertex
 10
133.151088
 20
32.290585
 30
0.0
  0
VERTEX
  5
CD
100
AcDbEntity
  8
0
  6
Continuous
 62
     7
100
AcDbVertex
100
AcDb2dVertex
 10
133.664131
 20
31.819255
 30
0.0
  0
VERTEX
  5
CE
100
AcDbEntity
  8
0
  6
Continuous
 62
     7
100
AcDbVertex
100
AcDb2dVertex
 10
134.165127
 20
31.337933
 30
0.0
  0
VERTEX
  5
CF
100
AcDbEntity
  8
0
  6
Continuous
 62
     7
100
AcDbVertex
100
AcDb2dVertex
 10
134.652549
 20
30.845765
 30
0.0
  0
VERTEX
  5
D0
100
AcDbEntity
  8
0
  6
Continuous
 62
     7
100
AcDbVertex
100
AcDb2dVertex
 10
135.124873
 20
30.341901
 30
0.0
  0
VERTEX
  5
D1
100
AcDbEntity
  8
0
  6
Continuous
 62
     7
100
AcDbVertex
100
AcDb2dVertex
 10
135.580575
 20
29.825488
 30
0.0
  0
VERTEX
  5
D2
100
AcDbEntity
  8
0
  6
Continuous
 62
     7
100
AcDbVertex
100
AcDb2dVertex
 10
136.01813
 20
29.295674
 30
0.0
  0
VERTEX
  5
D3
100
AcDbEntity
  8
0
  6
Continuous
 62
     7
100
AcDbVertex
100
AcDb2dVertex
 10
136.436013
 20
28.751607
 30
0.0
  0
VERTEX
  5
D4
100
AcDbEntity
  8
0
  6
Continuous
 62
     7
100
AcDbVertex
100
AcDb2dVertex
 10
136.832698
 20
28.192436
 30
0.0
  0
VERTEX
  5
D5
100
AcDbEntity
  8
0
  6
Continuous
 62
     7
100
AcDbVertex
100
AcDb2dVertex
 10
137.206662
 20
27.617307
 30
0.0
  0
VERTEX
  5
D6
100
AcDbEntity
  8
0
  6
Continuous
 62
     7
100
AcDbVertex
100
AcDb2dVertex
 10
137.556379
 20
27.02537
 30
0.0
  0
VERTEX
  5
D7
100
AcDbEntity
  8
0
  6
Continuous
 62
     7
100
AcDbVertex
100
AcDb2dVertex
 10
137.908945
 20
26.364394
 30
0.0
  0
VERTEX
  5
D8
100
AcDbEntity
  8
0
  6
Continuous
 62
     7
100
AcDbVertex
100
AcDb2dVertex
 10
138.233185
 20
25.691064
 30
0.0
  0
VERTEX
  5
D9
100
AcDbEntity
  8
0
  6
Continuous
 62
     7
100
AcDbVertex
100
AcDb2dVertex
 10
138.530879
 20
25.006272
 30
0.0
  0
VERTEX
  5
DA
100
AcDbEntity
  8
0
  6
Continuous
 62
     7
100
AcDbVertex
100
AcDb2dVertex
 10
138.803807
 20
24.310913
 30
0.0
  0
VERTEX
  5
DB
100
AcDbEntity
  8
0
  6
Continuous
 62
     7
100
AcDbVertex
100
AcDb2dVertex
 10
139.05375
 20
23.605881
 30
0.0
  0
VERTEX
  5
DC
100
AcDbEntity
  8
0
  6
Continuous
 62
     7
100
AcDbVertex
100
AcDb2dVertex
 10
139.282486
 20
22.89207
 30
0.0
  0
VERTEX
  5
DD
100
AcDbEntity
  8
0
  6
Continuous
 62
     7
100
AcDbVertex
100
AcDb2dVertex
 10
139.491797
 20
22.170374
 30
0.0
  0
VERTEX
  5
DE
100
AcDbEntity
  8
0
  6
Continuous
 62
     7
100
AcDbVertex
100
AcDb2dVertex
 10
139.683463
 20
21.441687
 30
0.0
  0
VERTEX
  5
DF
100
AcDbEntity
  8
0
  6
Continuous
 62
     7
100
AcDbVertex
100
AcDb2dVertex
 10
139.859262
 20
20.706903
 30
0.0
  0
VERTEX
  5
E0
100
AcDbEntity
  8
0
  6
Continuous
 62
     7
100
AcDbVertex
100
AcDb2dVertex
 10
140.020975
 20
19.966916
 30
0.0
  0
VERTEX
  5
E1
100
AcDbEntity
  8
0
  6
Continuous
 62
     7
100
AcDbVertex
100
AcDb2dVertex
 10
140.170382
 20
19.22262
 30
0.0
  0
VERTEX
  5
E2
100
AcDbEntity
  8
0
  6
Continuous
 62
     7
100
AcDbVertex
100
AcDb2dVertex
 10
140.309264
 20
18.474909
 30
0.0
  0
VERTEX
  5
E3
100
AcDbEntity
  8
0
  6
Continuous
 62
     7
100
AcDbVertex
100
AcDb2dVertex
 10
140.439399
 20
17.724678
 30
0.0
  0
VERTEX
  5
E4
100
AcDbEntity
  8
0
  6
Continuous
 62
     7
100
AcDbVertex
100
AcDb2dVertex
 10
140.562568
 20
16.972819
 30
0.0
  0
VERTEX
  5
E5
100
AcDbEntity
  8
0
  6
Continuous
 62
     7
100
AcDbVertex
100
AcDb2dVertex
 10
140.680551
 20
16.220227
 30
0.0
  0
VERTEX
  5
E6
100
AcDbEntity
  8
0
  6
Continuous
 62
     7
100
AcDbVertex
100
AcDb2dVertex
 10
140.795128
 20
15.467797
 30
0.0
  0
VERTEX
  5
E7
100
AcDbEntity
  8
0
  6
Continuous
 62
     7
100
AcDbVertex
100
AcDb2dVertex
 10
140.908079
 20
14.716422
 30
0.0
  0
VERTEX
  5
E8
100
AcDbEntity
  8
0
  6
Continuous
 62
     7
100
AcDbVertex
100
AcDb2dVertex
 10
141.021183
 20
13.966996
 30
0.0
  0
VERTEX
  5
E9
100
AcDbEntity
  8
0
  6
Continuous
 62
     7
100
AcDbVertex
100
AcDb2dVertex
 10
141.136222
 20
13.220413
 30
0.0
  0
VERTEX
  5
EA
100
AcDbEntity
  8
0
  6
Continuous
 62
     7
100
AcDbVertex
100
AcDb2dVertex
 10
141.254973
 20
12.477567
 30
0.0
  0
VERTEX
  5
EB
100
AcDbEntity
  8
0
  6
Continuous
 62
     7
100
AcDbVertex
100
AcDb2dVertex
 10
141.353469
 20
11.855308
 30
0.0
  0
VERTEX
  5
EC
100
AcDbEntity
  8
0
  6
Continuous
 62
     7
100
AcDbVertex
100
AcDb2dVertex
 10
141.445526
 20
11.231759
 30
0.0
  0
VERTEX
  5
ED
100
AcDbEntity
  8
0
  6
Continuous
 62
     7
100
AcDbVertex
100
AcDb2dVertex
 10
141.531137
 20
10.607022
 30
0.0
  0
VERTEX
  5
EE
100
AcDbEntity
  8
0
  6
Continuous
 62
     7
100
AcDbVertex
100
AcDb2dVertex
 10
141.610298
 20
9.981198
 30
0.0
  0
VERTEX
  5
EF
100
AcDbEntity
  8
0
  6
Continuous
 62
     7
100
AcDbVertex
100
AcDb2dVertex
 10
141.683001
 20
9.354386
 30
0.0
  0
VERTEX
  5
F0
100
AcDbEntity
  8
0
  6
Continuous
 62
     7
100
AcDbVertex
100
AcDb2dVertex
 10
141.749242
 20
8.726688
 30
0.0
  0
VERTEX
  5
F1
100
AcDbEntity
  8
0
  6
Continuous
 62
     7
100
AcDbVertex
100
AcDb2dVertex
 10
141.809014
 20
8.098205
 30
0.0
  0
VERTEX
  5
F2
100
AcDbEntity
  8
0
  6
Continuous
 62
     7
100
AcDbVertex
100
AcDb2dVertex
 10
141.862311
 20
7.469038
 30
0.0
  0
VERTEX
  5
F3
100
AcDbEntity
  8
0
  6
Continuous
 62
     7
100
AcDbVertex
100
AcDb2dVertex
 10
141.909128
 20
6.839287
 30
0.0
  0
VERTEX
  5
F4
100
AcDbEntity
  8
0
  6
Continuous
 62
     7
100
AcDbVertex
100
AcDb2dVertex
 10
141.949458
 20
6.209053
 30
0.0
  0
VERTEX
  5
F5
100
AcDbEntity
  8
0
  6
Continuous
 62
     7
100
AcDbVertex
100
AcDb2dVertex
 10
141.983295
 20
5.578437
 30
0.0
  0
VERTEX
  5
F6
100
AcDbEntity
  8
0
  6
Continuous
 62
     7
100
AcDbVertex
100
AcDb2dVertex
 10
142.010635
 20
4.947541
 30
0.0
  0
VERTEX
  5
F7
100
AcDbEntity
  8
0
  6
Continuous
 62
     7
100
AcDbVertex
100
AcDb2dVertex
 10
142.031469
 20
4.316464
 30
0.0
  0
VERTEX
  5
F8
100
AcDbEntity
  8
0
  6
Continuous
 62
     7
100
AcDbVertex
100
AcDb2dVertex
 10
142.045794
 20
3.685307
 30
0.0
  0
VERTEX
  5
F9
100
AcDbEntity
  8
0
  6
Continuous
 62
     7
100
AcDbVertex
100
AcDb2dVertex
 10
142.053602
 20
3.054172
 30
0.0
  0
VERTEX
  5
FA
100
AcDbEntity
  8
0
  6
Continuous
 62
     7
100
AcDbVertex
100
AcDb2dVertex
 10
142.054888
 20
2.42316
 30
0.0
  0
VERTEX
  5
FB
100
AcDbEntity
  8
0
  6
Continuous
 62
     7
100
AcDbVertex
100
AcDb2dVertex
 10
142.049646
 20
1.79237
 30
0.0
  0
VERTEX
  5
FC
100
AcDbEntity
  8
0
  6
Continuous
 62
     7
100
AcDbVertex
100
AcDb2dVertex
 10
142.03787
 20
1.161904
 30
0.0
  0
VERTEX
  5
FD
100
AcDbEntity
  8
0
  6
Continuous
 62
     7
100
AcDbVertex
100
AcDb2dVertex
 10
142.019554
 20
0.531863
 30
0.0
  0
VERTEX
  5
FE
100
AcDbEntity
  8
0
  6
Continuous
 62
     7
100
AcDbVertex
100
AcDb2dVertex
 10
141.994692
 20
-0.097652
 30
0.0
  0
SEQEND
  5
FF
100
AcDbEntity
  8
0
  6
Continuous
 62
     7
  0
ENDBLK
  5
100
100
AcDbEntity
  8
0
100
AcDbBlockEnd
  0
BLOCK
  5
10C
100
AcDbEntity
  8
0
100
AcDbBlockBegin
  2
*E3
 70
     1
 10
0.0
 20
0.0
 30
0.0
  3
*E3
  1

  0
POLYLINE
  5
10D
100
AcDbEntity
  8
0
370
     0
  6
Continuous
 62
     7
100
AcDb2dPolyline
 66
     1
 10
0.0
 20
0.0
 30
0.0
  0
VERTEX
  5
10E
100
AcDbEntity
  8
0
  6
Continuous
 62
     7
100
AcDbVertex
100
AcDb2dVertex
 10
152.019189
 20
31.09403
 30
0.0
  0
VERTEX
  5
10F
100
AcDbEntity
  8
0
  6
Continuous
 62
     7
100
AcDbVertex
100
AcDb2dVertex
 10
152.079807
 20
30.989803
 30
0.0
  0
VERTEX
  5
110
100
AcDbEntity
  8
0
  6
Continuous
 62
     7
100
AcDbVertex
100
AcDb2dVertex
 10
152.14143
 20
30.886111
 30
0.0
  0
VERTEX
  5
111
100
AcDbEntity
  8
0
  6
Continuous
 62
     7
100
AcDbVertex
100
AcDb2dVertex
 10
152.204049
 20
30.782968
 30
0.0
  0
VERTEX
  5
112
100
AcDbEntity
  8
0
  6
Continuous
 62
     7
100
AcDbVertex
100
AcDb2dVertex
 10
152.267653
 20
30.680386
 30
0.0
  0
VERTEX
  5
113
100
AcDbEntity
  8
0
  6
Continuous
 62
     7
100
AcDbVertex
100
AcDb2dVertex
 10
152.332234
 20
30.578379
 30
0.0
  0
VERTEX
  5
114
100
AcDbEntity
  8
0
  6
Continuous
 62
     7
100
AcDbVertex
100
AcDb2dVertex
 10
152.397783
 20
30.476959
 30
0.0
  0
VERTEX
  5
115
100
AcDbEntity
  8
0
  6
Continuous
 62
     7
100
AcDbVertex
100
AcDb2dVertex
 10
152.46429
 20
30.37614
 30
0.0
  0
VERTEX
  5
116
100
AcDbEntity
  8
0
  6
Continuous
 62
     7
100
AcDbVertex
100
AcDb2dVertex
 10
152.531747
 20
30.275934
 30
0.0
  0
VERTEX
  5
117
100
AcDbEntity
  8
0
  6
Continuous
 62
     7
100
AcDbVertex
100
AcDb2dVertex
 10
152.600143
 20
30.176354
 30
0.0
  0
VERTEX
  5
118
100
AcDbEntity
  8
0
  6
Continuous
 62
     7
100
AcDbVertex
100
AcDb2dVertex
 10
152.669471
 20
30.077414
 30
0.0
  0
VERTEX
  5
119
100
AcDbEntity
  8
0
  6
Continuous
 62
     7
100
AcDbVertex
100
AcDb2dVertex
 10
152.739721
 20
29.979125
 30
0.0
  0
VERTEX
  5
11A
100
AcDbEntity
  8
0
  6
Continuous
 62
     7
100
AcDbVertex
100
AcDb2dVertex
 10
152.810882
 20
29.881503
 30
0.0
  0
VERTEX
  5
11B
100
AcDbEntity
  8
0
  6
Continuous
 62
     7
100
AcDbVertex
100
AcDb2dVertex
 10
152.882948
 20
29.784558
 30
0.0
  0
VERTEX
  5
11C
100
AcDbEntity
  8
0
  6
Continuous
 62
     7
100
AcDbVertex
100
AcDb2dVertex
 10
152.955907
 20
29.688305
 30
0.0
  0
VERTEX
  5
11D
100
AcDbEntity
  8
0
  6
Continuous
 62
     7
100
AcDbVertex
100
AcDb2dVertex
 10
153.029752
 20
29.592756
 30
0.0
  0
VERTEX
  5
11E
100
AcDbEntity
  8
0
  6
Continuous
 62
     7
100
AcDbVertex
100
AcDb2dVertex
 10
153.104472
 20
29.497924
 30
0.0
  0
VERTEX
  5
11F
100
AcDbEntity
  8
0
  6
Continuous
 62
     7
100
AcDbVertex
100
AcDb2dVertex
 10
153.180059
 20
29.403823
 30
0.0
  0
VERTEX
  5
120
100
AcDbEntity
  8
0
  6
Continuous
 62
     7
100
AcDbVertex
100
AcDb2dVertex
 10
153.256504
 20
29.310464
 30
0.0
  0
VERTEX
  5
121
100
AcDbEntity
  8
0
  6
Continuous
 62
     7
100
AcDbVertex
100
AcDb2dVertex
 10
153.333796
 20
29.217862
 30
0.0
  0
VERTEX
  5
122
100
AcDbEntity
  8
0
  6
Continuous
 62
     7
100
AcDbVertex
100
AcDb2dVertex
 10
153.411928
 20
29.126029
 30
0.0
  0
VERTEX
  5
123
100
AcDbEntity
  8
0
  6
Continuous
 62
     7
100
AcDbVertex
100
AcDb2dVertex
 10
153.436749
 20
29.097541
 30
0.0
  0
VERTEX
  5
124
100
AcDbEntity
  8
0
  6
Continuous
 62
     7
100
AcDbVertex
100
AcDb2dVertex
 10
153.46247
 20
29.068921
 30
0.0
  0
VERTEX
  5
125
100
AcDbEntity
  8
0
  6
Continuous
 62
     7
100
AcDbVertex
100
AcDb2dVertex
 10
153.489062
 20
29.040344
 30
0.0
  0
VERTEX
  5
126
100
AcDbEntity
  8
0
  6
Continuous
 62
     7
100
AcDbVertex
100
AcDb2dVertex
 10
153.516497
 20
29.011988
 30
0.0
  0
VERTEX
  5
127
100
AcDbEntity
  8
0
  6
Continuous
 62
     7
100
AcDbVertex
100
AcDb2dVertex
 10
153.544749
 20
28.984029
 30
0.0
  0
VERTEX
  5
128
100
AcDbEntity
  8
0
  6
Continuous
 62
     7
100
AcDbVertex
100
AcDb2dVertex
 10
153.57379
 20
28.956644
 30
0.0
  0
VERTEX
  5
129
100
AcDbEntity
  8
0
  6
Continuous
 62
     7
100
AcDbVertex
100
AcDb2dVertex
 10
153.603592
 20
28.93001
 30
0.0
  0
VERTEX
  5
12A
100
AcDbEntity
  8
0
  6
Continuous
 62
     7
100
AcDbVertex
100
AcDb2dVertex
 10
153.634128
 20
28.904303
 30
0.0
  0
VERTEX
  5
12B
100
AcDbEntity
  8
0
  6
Continuous
 62
     7
100
AcDbVertex
100
AcDb2dVertex
 10
153.665369
 20
28.879699
 30
0.0
  0
VERTEX
  5
12C
100
AcDbEntity
  8
0
  6
Continuous
 62
     7
100
AcDbVertex
100
AcDb2dVertex
 10
153.69729
 20
28.856376
 30
0.0
  0
VERTEX
  5
12D
100
AcDbEntity
  8
0
  6
Continuous
 62
     7
100
AcDbVertex
100
AcDb2dVertex
 10
153.729861
 20
28.83451
 30
0.0
  0
VERTEX
  5
12E
100
AcDbEntity
  8
0
  6
Continuous
 62
     7
100
AcDbVertex
100
AcDb2dVertex
 10
153.763055
 20
28.814277
 30
0.0
  0
VERTEX
  5
12F
100
AcDbEntity
  8
0
  6
Continuous
 62
     7
100
AcDbVertex
100
AcDb2dVertex
 10
153.796845
 20
28.795855
 30
0.0
  0
VERTEX
  5
130
100
AcDbEntity
  8
0
  6
Continuous
 62
     7
100
AcDbVertex
100
AcDb2dVertex
 10
153.831204
 20
28.77942
 30
0.0
  0
VERTEX
  5
131
100
AcDbEntity
  8
0
  6
Continuous
 62
     7
100
AcDbVertex
100
AcDb2dVertex
 10
153.866103
 20
28.765149
 30
0.0
  0
VERTEX
  5
132
100
AcDbEntity
  8
0
  6
Continuous
 62
     7
100
AcDbVertex
100
AcDb2dVertex
 10
153.901515
 20
28.753217
 30
0.0
  0
VERTEX
  5
133
100
AcDbEntity
  8
0
  6
Continuous
 62
     7
100
AcDbVertex
100
AcDb2dVertex
 10
153.937413
 20
28.743803
 30
0.0
  0
VERTEX
  5
134
100
AcDbEntity
  8
0
  6
Continuous
 62
     7
100
AcDbVertex
100
AcDb2dVertex
 10
153.973769
 20
28.737082
 30
0.0
  0
VERTEX
  5
135
100
AcDbEntity
  8
0
  6
Continuous
 62
     7
100
AcDbVertex
100
AcDb2dVertex
 10
154.010555
 20
28.733232
 30
0.0
  0
VERTEX
  5
136
100
AcDbEntity
  8
0
  6
Continuous
 62
     7
100
AcDbVertex
100
AcDb2dVertex
 10
154.047744
 20
28.732428
 30
0.0
  0
VERTEX
  5
137
100
AcDbEntity
  8
0
  6
Continuous
 62
     7
100
AcDbVertex
100
AcDb2dVertex
 10
154.093827
 20
28.734676
 30
0.0
  0
VERTEX
  5
138
100
AcDbEntity
  8
0
  6
Continuous
 62
     7
100
AcDbVertex
100
AcDb2dVertex
 10
154.139948
 20
28.739444
 30
0.0
  0
VERTEX
  5
139
100
AcDbEntity
  8
0
  6
Continuous
 62
     7
100
AcDbVertex
100
AcDb2dVertex
 10
154.186009
 20
28.746643
 30
0.0
  0
VERTEX
  5
13A
100
AcDbEntity
  8
0
  6
Continuous
 62
     7
100
AcDbVertex
100
AcDb2dVertex
 10
154.231912
 20
28.756187
 30
0.0
  0
VERTEX
  5
13B
100
AcDbEntity
  8
0
  6
Continuous
 62
     7
100
AcDbVertex
100
AcDb2dVertex
 10
154.27756
 20
28.767987
 30
0.0
  0
VERTEX
  5
13C
100
AcDbEntity
  8
0
  6
Continuous
 62
     7
100
AcDbVertex
100
AcDb2dVertex
 10
154.322854
 20
28.781957
 30
0.0
  0
VERTEX
  5
13D
100
AcDbEntity
  8
0
  6
Continuous
 62
     7
100
AcDbVertex
100
AcDb2dVertex
 10
154.367698
 20
28.798009
 30
0.0
  0
VERTEX
  5
13E
100
AcDbEntity
  8
0
  6
Continuous
 62
     7
100
AcDbVertex
100
AcDb2dVertex
 10
154.411994
 20
28.816055
 30
0.0
  0
VERTEX
  5
13F
100
AcDbEntity
  8
0
  6
Continuous
 62
     7
100
AcDbVertex
100
AcDb2dVertex
 10
154.455644
 20
28.836008
 30
0.0
  0
VERTEX
  5
140
100
AcDbEntity
  8
0
  6
Continuous
 62
     7
100
AcDbVertex
100
AcDb2dVertex
 10
154.49855
 20
28.85778
 30
0.0
  0
VERTEX
  5
141
100
AcDbEntity
  8
0
  6
Continuous
 62
     7
100
AcDbVertex
100
AcDb2dVertex
 10
154.540614
 20
28.881284
 30
0.0
  0
VERTEX
  5
142
100
AcDbEntity
  8
0
  6
Continuous
 62
     7
100
AcDbVertex
100
AcDb2dVertex
 10
154.58174
 20
28.906432
 30
0.0
  0
VERTEX
  5
143
100
AcDbEntity
  8
0
  6
Continuous
 62
     7
100
AcDbVertex
100
AcDb2dVertex
 10
154.621829
 20
28.933137
 30
0.0
  0
VERTEX
  5
144
100
AcDbEntity
  8
0
  6
Continuous
 62
     7
100
AcDbVertex
100
AcDb2dVertex
 10
154.660783
 20
28.961311
 30
0.0
  0
VERTEX
  5
145
100
AcDbEntity
  8
0
  6
Continuous
 62
     7
100
AcDbVertex
100
AcDb2dVertex
 10
154.698506
 20
28.990867
 30
0.0
  0
VERTEX
  5
146
100
AcDbEntity
  8
0
  6
Continuous
 62
     7
100
AcDbVertex
100
AcDb2dVertex
 10
154.734899
 20
29.021716
 30
0.0
  0
VERTEX
  5
147
100
AcDbEntity
  8
0
  6
Continuous
 62
     7
100
AcDbVertex
100
AcDb2dVertex
 10
154.769865
 20
29.053773
 30
0.0
  0
VERTEX
  5
148
100
AcDbEntity
  8
0
  6
Continuous
 62
     7
100
AcDbVertex
100
AcDb2dVertex
 10
154.803305
 20
29.086948
 30
0.0
  0
VERTEX
  5
149
100
AcDbEntity
  8
0
  6
Continuous
 62
     7
100
AcDbVertex
100
AcDb2dVertex
 10
154.835124
 20
29.121155
 30
0.0
  0
VERTEX
  5
14A
100
AcDbEntity
  8
0
  6
Continuous
 62
     7
100
AcDbVertex
100
AcDb2dVertex
 10
154.865221
 20
29.156306
 30
0.0
  0
VERTEX
  5
14B
100
AcDbEntity
  8
0
  6
Continuous
 62
     7
100
AcDbVertex
100
AcDb2dVertex
 10
154.935666
 20
29.243819
 30
0.0
  0
VERTEX
  5
14C
100
AcDbEntity
  8
0
  6
Continuous
 62
     7
100
AcDbVertex
100
AcDb2dVertex
 10
155.004992
 20
29.333253
 30
0.0
  0
VERTEX
  5
14D
100
AcDbEntity
  8
0
  6
Continuous
 62
     7
100
AcDbVertex
100
AcDb2dVertex
 10
155.073148
 20
29.424493
 30
0.0
  0
VERTEX
  5
14E
100
AcDbEntity
  8
0
  6
Continuous
 62
     7
100
AcDbVertex
100
AcDb2dVertex
 10
155.140084
 20
29.517429
 30
0.0
  0
VERTEX
  5
14F
100
AcDbEntity
  8
0
  6
Continuous
 62
     7
100
AcDbVertex
100
AcDb2dVertex
 10
155.20575
 20
29.611948
 30
0.0
  0
VERTEX
  5
150
100
AcDbEntity
  8
0
  6
Continuous
 62
     7
100
AcDbVertex
100
AcDb2dVertex
 10
155.270096
 20
29.707937
 30
0.0
  0
VERTEX
  5
151
100
AcDbEntity
  8
0
  6
Continuous
 62
     7
100
AcDbVertex
100
AcDb2dVertex
 10
155.333071
 20
29.805284
 30
0.0
  0
VERTEX
  5
152
100
AcDbEntity
  8
0
  6
Continuous
 62
     7
100
AcDbVertex
100
AcDb2dVertex
 10
155.394625
 20
29.903876
 30
0.0
  0
VERTEX
  5
153
100
AcDbEntity
  8
0
  6
Continuous
 62
     7
100
AcDbVertex
100
AcDb2dVertex
 10
155.454708
 20
30.003602
 30
0.0
  0
VERTEX
  5
154
100
AcDbEntity
  8
0
  6
Continuous
 62
     7
100
AcDbVertex
100
AcDb2dVertex
 10
155.513269
 20
30.104349
 30
0.0
  0
VERTEX
  5
155
100
AcDbEntity
  8
0
  6
Continuous
 62
     7
100
AcDbVertex
100
AcDb2dVertex
 10
155.570259
 20
30.206005
 30
0.0
  0
VERTEX
  5
156
100
AcDbEntity
  8
0
  6
Continuous
 62
     7
100
AcDbVertex
100
AcDb2dVertex
 10
155.625627
 20
30.308457
 30
0.0
  0
VERTEX
  5
157
100
AcDbEntity
  8
0
  6
Continuous
 62
     7
100
AcDbVertex
100
AcDb2dVertex
 10
155.679322
 20
30.411593
 30
0.0
  0
VERTEX
  5
158
100
AcDbEntity
  8
0
  6
Continuous
 62
     7
100
AcDbVertex
100
AcDb2dVertex
 10
155.731295
 20
30.5153
 30
0.0
  0
VERTEX
  5
159
100
AcDbEntity
  8
0
  6
Continuous
 62
     7
100
AcDbVertex
100
AcDb2dVertex
 10
155.781495
 20
30.619467
 30
0.0
  0
VERTEX
  5
15A
100
AcDbEntity
  8
0
  6
Continuous
 62
     7
100
AcDbVertex
100
AcDb2dVertex
 10
155.829872
 20
30.723981
 30
0.0
  0
VERTEX
  5
15B
100
AcDbEntity
  8
0
  6
Continuous
 62
     7
100
AcDbVertex
100
AcDb2dVertex
 10
155.876376
 20
30.828729
 30
0.0
  0
VERTEX
  5
15C
100
AcDbEntity
  8
0
  6
Continuous
 62
     7
100
AcDbVertex
100
AcDb2dVertex
 10
155.920956
 20
30.9336
 30
0.0
  0
VERTEX
  5
15D
100
AcDbEntity
  8
0
  6
Continuous
 62
     7
100
AcDbVertex
100
AcDb2dVertex
 10
155.963562
 20
31.03848
 30
0.0
  0
VERTEX
  5
15E
100
AcDbEntity
  8
0
  6
Continuous
 62
     7
100
AcDbVertex
100
AcDb2dVertex
 10
156.004144
 20
31.143259
 30
0.0
  0
SEQEND
  5
15F
100
AcDbEntity
  8
0
  6
Continuous
 62
     7
  0
ENDBLK
  5
160
100
AcDbEntity
  8
0
100
AcDbBlockEnd
  0
BLOCK
  5
1C5
100
AcDbEntity
  8
0
100
AcDbBlockBegin
  2
*D4
 70
     1
 10
0.0
 20
0.0
 30
0.0
  3
*D4
  1

  0
LINE
  5
1C6
100
AcDbEntity
  8
0
370
     0
  6
Continuous
 62
     5
100
AcDbLine
 10
-274.986411
 20
-2.125226
 30
0.0
 11
-274.986411
 21
-13.775746
 31
0.0
  0
LINE
  5
1C7
100
AcDbEntity
  8
0
370
     0
  6
Continuous
 62
     5
100
AcDbLine
 10
-184.911689
 20
-2.125226
 30
0.0
 11
-184.911689
 21
-13.775746
 31
0.0
  0
POLYLINE
  5
1C8
100
AcDbEntity
  8
0
370
     0
  6
Continuous
 62
     5
100
AcDb2dPolyline
 66
     1
 10
0.0
 20
0.0
 30
0.0
 70
   128
  0
VERTEX
  5
1C9
100
AcDbEntity
  8
0
  6
Continuous
 62
     5
100
AcDbVertex
100
AcDb2dVertex
 10
-270.986411
 20
-10.775746
 30
0.0
  0
VERTEX
  5
1CA
100
AcDbEntity
  8
0
  6
Continuous
 62
     5
100
AcDbVertex
100
AcDb2dVertex
 10
-270.986411
 20
-10.775746
 30
0.0
  0
VERTEX
  5
1CB
100
AcDbEntity
  8
0
  6
Continuous
 62
     5
100
AcDbVertex
100
AcDb2dVertex
 10
-270.986411
 20
-10.775746
 30
0.0
  0
VERTEX
  5
1CC
100
AcDbEntity
  8
0
  6
Continuous
 62
     5
100
AcDbVertex
100
AcDb2dVertex
 10
-233.554806
 20
-10.775746
 30
0.0
  0
SEQEND
  5
1CD
100
AcDbEntity
  8
0
  6
Continuous
 62
     5
  0
POLYLINE
  5
1CE
100
AcDbEntity
  8
0
370
     0
  6
Continuous
 62
     5
100
AcDb2dPolyline
 66
     1
 10
0.0
 20
0.0
 30
0.0
 70
   128
  0
VERTEX
  5
1CF
100
AcDbEntity
  8
0
  6
Continuous
 62
     5
100
AcDbVertex
100
AcDb2dVertex
 10
-188.911689
 20
-10.775746
 30
0.0
  0
VERTEX
  5
1D0
100
AcDbEntity
  8
0
  6
Continuous
 62
     5
100
AcDbVertex
100
AcDb2dVertex
 10
-188.911689
 20
-10.775746
 30
0.0
  0
VERTEX
  5
1D1
100
AcDbEntity
  8
0
  6
Continuous
 62
     5
100
AcDbVertex
100
AcDb2dVertex
 10
-188.911689
 20
-10.775746
 30
0.0
  0
VERTEX
  5
1D2
100
AcDbEntity
  8
0
  6
Continuous
 62
     5
100
AcDbVertex
100
AcDb2dVertex
 10
-226.343294
 20
-10.775746
 30
0.0
  0
SEQEND
  5
1D3
100
AcDbEntity
  8
0
  6
Continuous
 62
     5
  0
POLYLINE
  5
1D5
102
{ACAD_REACTORS
330
1D4
102
}
100
AcDbEntity
  8
0
370
     0
  6
Continuous
 62
     5
100
AcDb2dPolyline
 66
     1
 10
0.0
 20
0.0
 30
0.0
 70
   129
  0
VERTEX
  5
1D6
100
AcDbEntity
  8
0
  6
Continuous
 62
     5
100
AcDbVertex
100
AcDb2dVertex
 10
-274.986411
 20
-10.775746
 30
0.0
  0
VERTEX
  5
1D7
100
AcDbEntity
  8
0
  6
Continuous
 62
     5
100
AcDbVertex
100
AcDb2dVertex
 10
-270.986411
 20
-11.442413
 30
0.0
  0
VERTEX
  5
1D8
100
AcDbEntity
  8
0
  6
Continuous
 62
     5
100
AcDbVertex
100
AcDb2dVertex
 10
-270.986411
 20
-10.109079
 30
0.0
  0
SEQEND
  5
1D9
100
AcDbEntity
  8
0
  6
Continuous
 62
     5
  0
HATCH
  5
1D4
100
AcDbEntity
  8
0
  6
Continuous
 62
     5
100
AcDbHatch
 10
0.0
 20
0.0
 30
0.0
210
0.0
220
0.0
230
1.0
  2
SOLID
 70
     1
 71
     1
 91
        1
 92
        3
 72
     0
 73
     1
 93
        3
 10
-274.98641053438428
 20
-10.775746016536429
 10
-270.98641053438428
 20
-11.442412683203095
 10
-270.98641053438428
 20
-10.109079349869763
 97
        1
330
1D5
 75
     0
 76
     0
 98
        0
  0
POLYLINE
  5
1DB
102
{ACAD_REACTORS
330
1DA
102
}
100
AcDbEntity
  8
0
370
     0
  6
Continuous
 62
     5
100
AcDb2dPolyline
 66
     1
 10
0.0
 20
0.0
 30
0.0
 70
   129
  0
VERTEX
  5
1DC
100
AcDbEntity
  8
0
  6
Continuous
 62
     5
100
AcDbVertex
100
AcDb2dVertex
 10
-184.911689
 20
-10.775746
 30
0.0
  0
VERTEX
  5
1DD
100
AcDbEntity
  8
0
  6
Continuous
 62
     5
100
AcDbVertex
100
AcDb2dVertex
 10
-188.911689
 20
-10.109079
 30
0.0
  0
VERTEX
  5
1DE
100
AcDbEntity
  8
0
  6
Continuous
 62
     5
100
AcDbVertex
100
AcDb2dVertex
 10
-188.911689
 20
-11.442413
 30
0.0
  0
SEQEND
  5
1DF
100
AcDbEntity
  8
0
  6
Continuous
 62
     5
  0
HATCH
  5
1DA
100
AcDbEntity
  8
0
  6
Continuous
 62
     5
100
AcDbHatch
 10
0.0
 20
0.0
 30
0.0
210
0.0
220
0.0
230
1.0
  2
SOLID
 70
     1
 71
     1
 91
        1
 92
        3
 72
     0
 73
     1
 93
        3
 10
-184.91168880430075
 20
-10.775746016536417
 10
-188.91168880430075
 20
-10.10907934986975
 10
-188.91168880430075
 20
-11.442412683203083
 97
        1
330
1DB
 75
     0
 76
     0
 98
        0
  0
TEXT
  5
1E0
100
AcDbEntity
  8
0
  6
Continuous
 62
     5
100
AcDbText
 10
-232.054806
 20
-12.068246
 30
0.0
 40
2.7025
  1
90
 72
     5
 11
-227.843294
 21
-12.068246
 31
0.0
100
AcDbText
  0
ENDBLK
  5
1E1
100
AcDbEntity
  8
0
100
AcDbBlockEnd
  0
BLOCK
  5
1E4
100
AcDbEntity
  8
0
100
AcDbBlockBegin
  2
*D5
 70
     1
 10
0.0
 20
0.0
 30
0.0
  3
*D5
  1

  0
LINE
  5
1E5
100
AcDbEntity
  8
0
370
     0
  6
Continuous
 62
     5
100
AcDbLine
 10
-181.931008
 20
0.255586
 30
0.0
 11
-161.660915
 21
0.255586
 31
0.0
  0
LINE
  5
1E6
100
AcDbEntity
  8
0
370
     0
  6
Continuous
 62
     5
100
AcDbLine
 10
-181.746988
 20
40.233956
 30
0.0
 11
-161.660915
 21
40.233956
 31
0.0
  0
POLYLINE
  5
1E7
100
AcDbEntity
  8
0
370
     0
  6
Continuous
 62
     5
100
AcDb2dPolyline
 66
     1
 10
0.0
 20
0.0
 30
0.0
 70
   128
  0
VERTEX
  5
1E8
100
AcDbEntity
  8
0
  6
Continuous
 62
     5
100
AcDbVertex
100
AcDb2dVertex
 10
-164.660915
 20
4.255586
 30
0.0
  0
VERTEX
  5
1E9
100
AcDbEntity
  8
0
  6
Continuous
 62
     5
100
AcDbVertex
100
AcDb2dVertex
 10
-164.660915
 20
4.255586
 30
0.0
  0
VERTEX
  5
1EA
100
AcDbEntity
  8
0
  6
Continuous
 62
     5
100
AcDbVertex
100
AcDb2dVertex
 10
-164.660915
 20
4.255586
 30
0.0
  0
VERTEX
  5
1EB
100
AcDbEntity
  8
0
  6
Continuous
 62
     5
100
AcDbVertex
100
AcDb2dVertex
 10
-164.660915
 20
17.706771
 30
0.0
  0
SEQEND
  5
1EC
100
AcDbEntity
  8
0
  6
Continuous
 62
     5
  0
POLYLINE
  5
1ED
100
AcDbEntity
  8
0
370
     0
  6
Continuous
 62
     5
100
AcDb2dPolyline
 66
     1
 10
0.0
 20
0.0
 30
0.0
 70
   128
  0
VERTEX
  5
1EE
100
AcDbEntity
  8
0
  6
Continuous
 62
     5
100
AcDbVertex
100
AcDb2dVertex
 10
-164.660915
 20
36.233956
 30
0.0
  0
VERTEX
  5
1EF
100
AcDbEntity
  8
0
  6
Continuous
 62
     5
100
AcDbVertex
100
AcDb2dVertex
 10
-164.660915
 20
36.233956
 30
0.0
  0
VERTEX
  5
1F0
100
AcDbEntity
  8
0
  6
Continuous
 62
     5
100
AcDbVertex
100
AcDb2dVertex
 10
-164.660915
 20
36.233956
 30
0.0
  0
VERTEX
  5
1F1
100
AcDbEntity
  8
0
  6
Continuous
 62
     5
100
AcDbVertex
100
AcDb2dVertex
 10
-164.660915
 20
22.782771
 30
0.0
  0
SEQEND
  5
1F2
100
AcDbEntity
  8
0
  6
Continuous
 62
     5
  0
POLYLINE
  5
1F4
102
{ACAD_REACTORS
330
1F3
102
}
100
AcDbEntity
  8
0
370
     0
  6
Continuous
 62
     5
100
AcDb2dPolyline
 66
     1
 10
0.0
 20
0.0
 30
0.0
 70
   129
  0
VERTEX
  5
1F5
100
AcDbEntity
  8
0
  6
Continuous
 62
     5
100
AcDbVertex
100
AcDb2dVertex
 10
-164.660915
 20
0.255586
 30
0.0
  0
VERTEX
  5
1F6
100
AcDbEntity
  8
0
  6
Continuous
 62
     5
100
AcDbVertex
100
AcDb2dVertex
 10
-163.994248
 20
4.255586
 30
0.0
  0
VERTEX
  5
1F7
100
AcDbEntity
  8
0
  6
Continuous
 62
     5
100
AcDbVertex
100
AcDb2dVertex
 10
-165.327582
 20
4.255586
 30
0.0
  0
SEQEND
  5
1F8
100
AcDbEntity
  8
0
  6
Continuous
 62
     5
  0
HATCH
  5
1F3
100
AcDbEntity
  8
0
  6
Continuous
 62
     5
100
AcDbHatch
 10
0.0
 20
0.0
 30
0.0
210
0.0
220
0.0
230
1.0
  2
SOLID
 70
     1
 71
     1
 91
        1
 92
        3
 72
     0
 73
     1
 93
        3
 10
-164.66091487844525
 20
0.2555860788181761
 10
-163.9942482117786
 20
4.2555860788181761
 10
-165.32758154511191
 20
4.2555860788181761
 97
        1
330
1F4
 75
     0
 76
     0
 98
        0
  0
POLYLINE
  5
1FA
102
{ACAD_REACTORS
330
1F9
102
}
100
AcDbEntity
  8
0
370
     0
  6
Continuous
 62
     5
100
AcDb2dPolyline
 66
     1
 10
0.0
 20
0.0
 30
0.0
 70
   129
  0
VERTEX
  5
1FB
100
AcDbEntity
  8
0
  6
Continuous
 62
     5
100
AcDbVertex
100
AcDb2dVertex
 10
-164.660915
 20
40.233956
 30
0.0
  0
VERTEX
  5
1FC
100
AcDbEntity
  8
0
  6
Continuous
 62
     5
100
AcDbVertex
100
AcDb2dVertex
 10
-165.327582
 20
36.233956
 30
0.0
  0
VERTEX
  5
1FD
100
AcDbEntity
  8
0
  6
Continuous
 62
     5
100
AcDbVertex
100
AcDb2dVertex
 10
-163.994248
 20
36.233956
 30
0.0
  0
SEQEND
  5
1FE
100
AcDbEntity
  8
0
  6
Continuous
 62
     5
  0
HATCH
  5
1F9
100
AcDbEntity
  8
0
  6
Continuous
 62
     5
100
AcDbHatch
 10
0.0
 20
0.0
 30
0.0
210
0.0
220
0.0
230
1.0
  2
SOLID
 70
     1
 71
     1
 91
        1
 92
        3
 72
     0
 73
     1
 93
        3
 10
-164.66091487844525
 20
40.233955723403199
 10
-165.32758154511191
 20
36.233955723403199
 10
-163.9942482117786
 20
36.233955723403199
 97
        1
330
1FA
 75
     0
 76
     0
 98
        0
  0
TEXT
  5
1FF
100
AcDbEntity
  8
0
  6
Continuous
 62
     5
100
AcDbText
 10
-166.766671
 20
18.952271
 30
0.0
 40
2.7025
  1
40
 72
     5
 11
-162.555159
 21
18.952271
 31
0.0
100
AcDbText
  0
ENDBLK
  5
200
100
AcDbEntity
  8
0
100
AcDbBlockEnd
  0
BLOCK
  5
203
100
AcDbEntity
  8
0
100
AcDbBlockBegin
  2
*D6
 70
     1
 10
0.0
 20
0.0
 30
0.0
  3
*D6
  1

  0
LINE
  5
204
100
AcDbEntity
  8
0
370
     0
  6
Continuous
 62
     5
100
AcDbLine
 10
-183.411689
 20
0.255586
 30
0.0
 11
-153.178471
 21
0.255586
 31
0.0
  0
LINE
  5
205
100
AcDbEntity
  8
0
370
     0
  6
Continuous
 62
     5
100
AcDbLine
 10
-180.600831
 20
45.169557
 30
0.0
 11
-153.178471
 21
45.169557
 31
0.0
  0
POLYLINE
  5
206
100
AcDbEntity
  8
0
370
     0
  6
Continuous
 62
     5
100
AcDb2dPolyline
 66
     1
 10
0.0
 20
0.0
 30
0.0
 70
   128
  0
VERTEX
  5
207
100
AcDbEntity
  8
0
  6
Continuous
 62
     5
100
AcDbVertex
100
AcDb2dVertex
 10
-156.178471
 20
4.255586
 30
0.0
  0
VERTEX
  5
208
100
AcDbEntity
  8
0
  6
Continuous
 62
     5
100
AcDbVertex
100
AcDb2dVertex
 10
-156.178471
 20
4.255586
 30
0.0
  0
VERTEX
  5
209
100
AcDbEntity
  8
0
  6
Continuous
 62
     5
100
AcDbVertex
100
AcDb2dVertex
 10
-156.178471
 20
4.255586
 30
0.0
  0
VERTEX
  5
20A
100
AcDbEntity
  8
0
  6
Continuous
 62
     5
100
AcDbVertex
100
AcDb2dVertex
 10
-156.178471
 20
20.174571
 30
0.0
  0
SEQEND
  5
20B
100
AcDbEntity
  8
0
  6
Continuous
 62
     5
  0
POLYLINE
  5
20C
100
AcDbEntity
  8
0
370
     0
  6
Continuous
 62
     5
100
AcDb2dPolyline
 66
     1
 10
0.0
 20
0.0
 30
0.0
 70
   128
  0
VERTEX
  5
20D
100
AcDbEntity
  8
0
  6
Continuous
 62
     5
100
AcDbVertex
100
AcDb2dVertex
 10
-156.178471
 20
41.169557
 30
0.0
  0
VERTEX
  5
20E
100
AcDbEntity
  8
0
  6
Continuous
 62
     5
100
AcDbVertex
100
AcDb2dVertex
 10
-156.178471
 20
41.169557
 30
0.0
  0
VERTEX
  5
20F
100
AcDbEntity
  8
0
  6
Continuous
 62
     5
100
AcDbVertex
100
AcDb2dVertex
 10
-156.178471
 20
41.169557
 30
0.0
  0
VERTEX
  5
210
100
AcDbEntity
  8
0
  6
Continuous
 62
     5
100
AcDbVertex
100
AcDb2dVertex
 10
-156.178471
 20
25.250571
 30
0.0
  0
SEQEND
  5
211
100
AcDbEntity
  8
0
  6
Continuous
 62
     5
  0
POLYLINE
  5
213
102
{ACAD_REACTORS
330
212
102
}
100
AcDbEntity
  8
0
370
     0
  6
Continuous
 62
     5
100
AcDb2dPolyline
 66
     1
 10
0.0
 20
0.0
 30
0.0
 70
   129
  0
VERTEX
  5
214
100
AcDbEntity
  8
0
  6
Continuous
 62
     5
100
AcDbVertex
100
AcDb2dVertex
 10
-156.178471
 20
0.255586
 30
0.0
  0
VERTEX
  5
215
100
AcDbEntity
  8
0
  6
Continuous
 62
     5
100
AcDbVertex
100
AcDb2dVertex
 10
-155.511805
 20
4.255586
 30
0.0
  0
VERTEX
  5
216
100
AcDbEntity
  8
0
  6
Continuous
 62
     5
100
AcDbVertex
100
AcDb2dVertex
 10
-156.845138
 20
4.255586
 30
0.0
  0
SEQEND
  5
217
100
AcDbEntity
  8
0
  6
Continuous
 62
     5
  0
HATCH
  5
212
100
AcDbEntity
  8
0
  6
Continuous
 62
     5
100
AcDbHatch
 10
0.0
 20
0.0
 30
0.0
210
0.0
220
0.0
230
1.0
  2
SOLID
 70
     1
 71
     1
 91
        1
 92
        3
 72
     0
 73
     1
 93
        3
 10
-156.17847137078957
 20
0.2555860788181761
 10
-155.51180470412291
 20
4.2555860788181761
 10
-156.84513803745622
 20
4.2555860788181761
 97
        1
330
213
 75
     0
 76
     0
 98
        0
  0
POLYLINE
  5
219
102
{ACAD_REACTORS
330
218
102
}
100
AcDbEntity
  8
0
370
     0
  6
Continuous
 62
     5
100
AcDb2dPolyline
 66
     1
 10
0.0
 20
0.0
 30
0.0
 70
   129
  0
VERTEX
  5
21A
100
AcDbEntity
  8
0
  6
Continuous
 62
     5
100
AcDbVertex
100
AcDb2dVertex
 10
-156.178471
 20
45.169557
 30
0.0
  0
VERTEX
  5
21B
100
AcDbEntity
  8
0
  6
Continuous
 62
     5
100
AcDbVertex
100
AcDb2dVertex
 10
-156.845138
 20
41.169557
 30
0.0
  0
VERTEX
  5
21C
100
AcDbEntity
  8
0
  6
Continuous
 62
     5
100
AcDbVertex
100
AcDb2dVertex
 10
-155.511805
 20
41.169557
 30
0.0
  0
SEQEND
  5
21D
100
AcDbEntity
  8
0
  6
Continuous
 62
     5
  0
HATCH
  5
218
100
AcDbEntity
  8
0
  6
Continuous
 62
     5
100
AcDbHatch
 10
0.0
 20
0.0
 30
0.0
210
0.0
220
0.0
230
1.0
  2
SOLID
 70
     1
 71
     1
 91
        1
 92
        3
 72
     0
 73
     1
 93
        3
 10
-156.17847137078957
 20
45.169556914092709
 10
-156.84513803745622
 20
41.169556914092709
 10
-155.51180470412291
 20
41.169556914092709
 97
        1
330
219
 75
     0
 76
     0
 98
        0
  0
TEXT
  5
21E
100
AcDbEntity
  8
0
  6
Continuous
 62
     5
100
AcDbText
 10
-158.284227
 20
21.420072
 30
0.0
 40
2.7025
  1
45
 72
     5
 11
-154.072715
 21
21.420072
 31
0.0
100
AcDbText
  0
ENDBLK
  5
21F
100
AcDbEntity
  8
0
100
AcDbBlockEnd
  0
BLOCK
  5
222
100
AcDbEntity
  8
0
100
AcDbBlockBegin
  2
*D7
 70
     1
 10
0.0
 20
0.0
 30
0.0
  3
*D7
  1

  0
LINE
  5
223
100
AcDbEntity
  8
0
370
     0
  6
Continuous
 62
     5
100
AcDbLine
 10
-190.198809
 20
0.255586
 30
0.0
 11
-145.717898
 21
0.255586
 31
0.0
  0
LINE
  5
224
100
AcDbEntity
  8
0
370
     0
  6
Continuous
 62
     5
100
AcDbLine
 10
-210.063935
 20
65.158742
 30
0.0
 11
-145.717898
 21
65.158742
 31
0.0
  0
POLYLINE
  5
225
100
AcDbEntity
  8
0
370
     0
  6
Continuous
 62
     5
100
AcDb2dPolyline
 66
     1
 10
0.0
 20
0.0
 30
0.0
 70
   128
  0
VERTEX
  5
226
100
AcDbEntity
  8
0
  6
Continuous
 62
     5
100
AcDbVertex
100
AcDb2dVertex
 10
-148.717898
 20
4.255586
 30
0.0
  0
VERTEX
  5
227
100
AcDbEntity
  8
0
  6
Continuous
 62
     5
100
AcDbVertex
100
AcDb2dVertex
 10
-148.717898
 20
4.255586
 30
0.0
  0
VERTEX
  5
228
100
AcDbEntity
  8
0
  6
Continuous
 62
     5
100
AcDbVertex
100
AcDb2dVertex
 10
-148.717898
 20
4.255586
 30
0.0
  0
VERTEX
  5
229
100
AcDbEntity
  8
0
  6
Continuous
 62
     5
100
AcDbVertex
100
AcDb2dVertex
 10
-148.717898
 20
30.169164
 30
0.0
  0
SEQEND
  5
22A
100
AcDbEntity
  8
0
  6
Continuous
 62
     5
  0
POLYLINE
  5
22B
100
AcDbEntity
  8
0
370
     0
  6
Continuous
 62
     5
100
AcDb2dPolyline
 66
     1
 10
0.0
 20
0.0
 30
0.0
 70
   128
  0
VERTEX
  5
22C
100
AcDbEntity
  8
0
  6
Continuous
 62
     5
100
AcDbVertex
100
AcDb2dVertex
 10
-148.717898
 20
61.158742
 30
0.0
  0
VERTEX
  5
22D
100
AcDbEntity
  8
0
  6
Continuous
 62
     5
100
AcDbVertex
100
AcDb2dVertex
 10
-148.717898
 20
61.158742
 30
0.0
  0
VERTEX
  5
22E
100
AcDbEntity
  8
0
  6
Continuous
 62
     5
100
AcDbVertex
100
AcDb2dVertex
 10
-148.717898
 20
61.158742
 30
0.0
  0
VERTEX
  5
22F
100
AcDbEntity
  8
0
  6
Continuous
 62
     5
100
AcDbVertex
100
AcDb2dVertex
 10
-148.717898
 20
35.245164
 30
0.0
  0
SEQEND
  5
230
100
AcDbEntity
  8
0
  6
Continuous
 62
     5
  0
POLYLINE
  5
232
102
{ACAD_REACTORS
330
231
102
}
100
AcDbEntity
  8
0
370
     0
  6
Continuous
 62
     5
100
AcDb2dPolyline
 66
     1
 10
0.0
 20
0.0
 30
0.0
 70
   129
  0
VERTEX
  5
233
100
AcDbEntity
  8
0
  6
Continuous
 62
     5
100
AcDbVertex
100
AcDb2dVertex
 10
-148.717898
 20
0.255586
 30
0.0
  0
VERTEX
  5
234
100
AcDbEntity
  8
0
  6
Continuous
 62
     5
100
AcDbVertex
100
AcDb2dVertex
 10
-148.051231
 20
4.255586
 30
0.0
  0
VERTEX
  5
235
100
AcDbEntity
  8
0
  6
Continuous
 62
     5
100
AcDbVertex
100
AcDb2dVertex
 10
-149.384565
 20
4.255586
 30
0.0
  0
SEQEND
  5
236
100
AcDbEntity
  8
0
  6
Continuous
 62
     5
  0
HATCH
  5
231
100
AcDbEntity
  8
0
  6
Continuous
 62
     5
100
AcDbHatch
 10
0.0
 20
0.0
 30
0.0
210
0.0
220
0.0
230
1.0
  2
SOLID
 70
     1
 71
     1
 91
        1
 92
        3
 72
     0
 73
     1
 93
        3
 10
-148.71789814148417
 20
0.255586078818169
 10
-148.05123147481751
 20
4.255586078818169
 10
-149.38456480815083
 20
4.255586078818169
 97
        1
330
232
 75
     0
 76
     0
 98
        0
  0
POLYLINE
  5
238
102
{ACAD_REACTORS
330
237
102
}
100
AcDbEntity
  8
0
370
     0
  6
Continuous
 62
     5
100
AcDb2dPolyline
 66
     1
 10
0.0
 20
0.0
 30
0.0
 70
   129
  0
VERTEX
  5
239
100
AcDbEntity
  8
0
  6
Continuous
 62
     5
100
AcDbVertex
100
AcDb2dVertex
 10
-148.717898
 20
65.158742
 30
0.0
  0
VERTEX
  5
23A
100
AcDbEntity
  8
0
  6
Continuous
 62
     5
100
AcDbVertex
100
AcDb2dVertex
 10
-149.384565
 20
61.158742
 30
0.0
  0
VERTEX
  5
23B
100
AcDbEntity
  8
0
  6
Continuous
 62
     5
100
AcDbVertex
100
AcDb2dVertex
 10
-148.051231
 20
61.158742
 30
0.0
  0
SEQEND
  5
23C
100
AcDbEntity
  8
0
  6
Continuous
 62
     5
  0
HATCH
  5
237
100
AcDbEntity
  8
0
  6
Continuous
 62
     5
100
AcDbHatch
 10
0.0
 20
0.0
 30
0.0
210
0.0
220
0.0
230
1.0
  2
SOLID
 70
     1
 71
     1
 91
        1
 92
        3
 72
     0
 73
     1
 93
        3
 10
-148.71789814148417
 20
65.158741736385196
 10
-149.38456480815083
 20
61.158741736385196
 10
-148.05123147481751
 20
61.158741736385196
 97
        1
330
238
 75
     0
 76
     0
 98
        0
  0
TEXT
  5
23D
100
AcDbEntity
  8
0
  6
Continuous
 62
     5
100
AcDbText
 10
-150.823654
 20
31.414664
 30
0.0
 40
2.7025
  1
65
 72
     5
 11
-146.612142
 21
31.414664
 31
0.0
100
AcDbText
  0
ENDBLK
  5
23E
100
AcDbEntity
  8
0
100
AcDbBlockEnd
  0
BLOCK
  5
241
100
AcDbEntity
  8
0
100
AcDbBlockBegin
  2
*D8
 70
     1
 10
0.0
 20
0.0
 30
0.0
  3
*D8
  1

  0
LINE
  5
242
100
AcDbEntity
  8
0
370
     0
  6
Continuous
 62
     5
100
AcDbLine
 10
-194.256882
 20
0.255586
 30
0.0
 11
-135.108334
 21
0.255586
 31
0.0
  0
LINE
  5
243
100
AcDbEntity
  8
0
370
     0
  6
Continuous
 62
     5
100
AcDbLine
 10
-225.857859
 20
130.370372
 30
0.0
 11
-135.108334
 21
130.370372
 31
0.0
  0
POLYLINE
  5
244
100
AcDbEntity
  8
0
370
     0
  6
Continuous
 62
     5
100
AcDb2dPolyline
 66
     1
 10
0.0
 20
0.0
 30
0.0
 70
   128
  0
VERTEX
  5
245
100
AcDbEntity
  8
0
  6
Continuous
 62
     5
100
AcDbVertex
100
AcDb2dVertex
 10
-138.108334
 20
4.255586
 30
0.0
  0
VERTEX
  5
246
100
AcDbEntity
  8
0
  6
Continuous
 62
     5
100
AcDbVertex
100
AcDb2dVertex
 10
-138.108334
 20
4.255586
 30
0.0
  0
VERTEX
  5
247
100
AcDbEntity
  8
0
  6
Continuous
 62
     5
100
AcDbVertex
100
AcDb2dVertex
 10
-138.108334
 20
4.255586
 30
0.0
  0
VERTEX
  5
248
100
AcDbEntity
  8
0
  6
Continuous
 62
     5
100
AcDbVertex
100
AcDb2dVertex
 10
-138.108334
 20
62.774979
 30
0.0
  0
SEQEND
  5
249
100
AcDbEntity
  8
0
  6
Continuous
 62
     5
  0
POLYLINE
  5
24A
100
AcDbEntity
  8
0
370
     0
  6
Continuous
 62
     5
100
AcDb2dPolyline
 66
     1
 10
0.0
 20
0.0
 30
0.0
 70
   128
  0
VERTEX
  5
24B
100
AcDbEntity
  8
0
  6
Continuous
 62
     5
100
AcDbVertex
100
AcDb2dVertex
 10
-138.108334
 20
126.370372
 30
0.0
  0
VERTEX
  5
24C
100
AcDbEntity
  8
0
  6
Continuous
 62
     5
100
AcDbVertex
100
AcDb2dVertex
 10
-138.108334
 20
126.370372
 30
0.0
  0
VERTEX
  5
24D
100
AcDbEntity
  8
0
  6
Continuous
 62
     5
100
AcDbVertex
100
AcDb2dVertex
 10
-138.108334
 20
126.370372
 30
0.0
  0
VERTEX
  5
24E
100
AcDbEntity
  8
0
  6
Continuous
 62
     5
100
AcDbVertex
100
AcDb2dVertex
 10
-138.108334
 20
67.850979
 30
0.0
  0
SEQEND
  5
24F
100
AcDbEntity
  8
0
  6
Continuous
 62
     5
  0
POLYLINE
  5
251
102
{ACAD_REACTORS
330
250
102
}
100
AcDbEntity
  8
0
370
     0
  6
Continuous
 62
     5
100
AcDb2dPolyline
 66
     1
 10
0.0
 20
0.0
 30
0.0
 70
   129
  0
VERTEX
  5
252
100
AcDbEntity
  8
0
  6
Continuous
 62
     5
100
AcDbVertex
100
AcDb2dVertex
 10
-138.108334
 20
0.255586
 30
0.0
  0
VERTEX
  5
253
100
AcDbEntity
  8
0
  6
Continuous
 62
     5
100
AcDbVertex
100
AcDb2dVertex
 10
-137.441668
 20
4.255586
 30
0.0
  0
VERTEX
  5
254
100
AcDbEntity
  8
0
  6
Continuous
 62
     5
100
AcDbVertex
100
AcDb2dVertex
 10
-138.775001
 20
4.255586
 30
0.0
  0
SEQEND
  5
255
100
AcDbEntity
  8
0
  6
Continuous
 62
     5
  0
HATCH
  5
250
100
AcDbEntity
  8
0
  6
Continuous
 62
     5
100
AcDbHatch
 10
0.0
 20
0.0
 30
0.0
210
0.0
220
0.0
230
1.0
  2
SOLID
 70
     1
 71
     1
 91
        1
 92
        3
 72
     0
 73
     1
 93
        3
 10
-138.10833445169322
 20
0.255586078818169
 10
-137.44166778502657
 20
4.255586078818169
 10
-138.77500111835988
 20
4.255586078818169
 97
        1
330
251
 75
     0
 76
     0
 98
        0
  0
POLYLINE
  5
257
102
{ACAD_REACTORS
330
256
102
}
100
AcDbEntity
  8
0
370
     0
  6
Continuous
 62
     5
100
AcDb2dPolyline
 66
     1
 10
0.0
 20
0.0
 30
0.0
 70
   129
  0
VERTEX
  5
258
100
AcDbEntity
  8
0
  6
Continuous
 62
     5
100
AcDbVertex
100
AcDb2dVertex
 10
-138.108334
 20
130.370372
 30
0.0
  0
VERTEX
  5
259
100
AcDbEntity
  8
0
  6
Continuous
 62
     5
100
AcDbVertex
100
AcDb2dVertex
 10
-138.775001
 20
126.370372
 30
0.0
  0
VERTEX
  5
25A
100
AcDbEntity
  8
0
  6
Continuous
 62
     5
100
AcDbVertex
100
AcDb2dVertex
 10
-137.441668
 20
126.370372
 30
0.0
  0
SEQEND
  5
25B
100
AcDbEntity
  8
0
  6
Continuous
 62
     5
  0
HATCH
  5
256
100
AcDbEntity
  8
0
  6
Continuous
 62
     5
100
AcDbHatch
 10
0.0
 20
0.0
 30
0.0
210
0.0
220
0.0
230
1.0
  2
SOLID
 70
     1
 71
     1
 91
        1
 92
        3
 72
     0
 73
     1
 93
        3
 10
-138.10833445169322
 20
130.37037246837033
 10
-138.77500111835988
 20
126.37037246837033
 10
-137.44166778502657
 20
126.37037246837033
 97
        1
330
257
 75
     0
 76
     0
 98
        0
  0
TEXT
  5
25C
100
AcDbEntity
  8
0
  6
Continuous
 62
     5
100
AcDbText
 10
-142.527834
 20
64.020479
 30
0.0
 40
2.7025
  1
(130)
 72
     5
 11
-133.688835
 21
64.020479
 31
0.0
100
AcDbText
  0
ENDBLK
  5
25D
100
AcDbEntity
  8
0
100
AcDbBlockEnd
  0
BLOCK
  5
260
100
AcDbEntity
  8
0
100
AcDbBlockBegin
  2
*D9
 70
     1
 10
0.0
 20
0.0
 30
0.0
  3
*D9
  1

  0
TEXT
  5
261
100
AcDbEntity
  8
0
  6
Continuous
 62
     5
100
AcDbText
 10
-199.123246
 20
52.411164
 30
0.0
 40
2.7025
  1
R5
 72
     5
 11
-194.28315
 21
52.411164
 31
0.0
100
AcDbText
  0
POLYLINE
  5
262
100
AcDbEntity
  8
0
370
     0
  6
Continuous
 62
     5
100
AcDb2dPolyline
 66
     1
 10
0.0
 20
0.0
 30
0.0
 70
   128
  0
VERTEX
  5
263
100
AcDbEntity
  8
0
  6
Continuous
 62
     5
100
AcDbVertex
100
AcDb2dVertex
 10
-208.619324
 20
49.553051
 30
0.0
  0
VERTEX
  5
264
100
AcDbEntity
  8
0
  6
Continuous
 62
     5
100
AcDbVertex
100
AcDb2dVertex
 10
-204.623246
 20
53.703664
 30
0.0
  0
VERTEX
  5
265
100
AcDbEntity
  8
0
  6
Continuous
 62
     5
100
AcDbVertex
100
AcDb2dVertex
 10
-200.623246
 20
53.703664
 30
0.0
  0
SEQEND
  5
266
100
AcDbEntity
  8
0
  6
Continuous
 62
     5
  0
LINE
  5
267
100
AcDbEntity
  8
0
370
     0
  6
Continuous
 62
     5
100
AcDbLine
 10
-207.919467
 20
50.279973
 30
0.0
 11
-207.919467
 21
50.279973
 31
0.0
  0
POLYLINE
  5
269
102
{ACAD_REACTORS
330
268
102
}
100
AcDbEntity
  8
0
370
     0
  6
Continuous
 62
     5
100
AcDb2dPolyline
 66
     1
 10
0.0
 20
0.0
 30
0.0
 70
   129
  0
VERTEX
  5
26A
100
AcDbEntity
  8
0
  6
Continuous
 62
     5
100
AcDbVertex
100
AcDb2dVertex
 10
-211.393599
 20
46.67149
 30
0.0
  0
VERTEX
  5
26B
100
AcDbEntity
  8
0
  6
Continuous
 62
     5
100
AcDbVertex
100
AcDb2dVertex
 10
-208.139064
 20
49.090672
 30
0.0
  0
VERTEX
  5
26C
100
AcDbEntity
  8
0
  6
Continuous
 62
     5
100
AcDbVertex
100
AcDb2dVertex
 10
-209.099584
 20
50.01543
 30
0.0
  0
SEQEND
  5
26D
100
AcDbEntity
  8
0
  6
Continuous
 62
     5
  0
HATCH
  5
268
100
AcDbEntity
  8
0
  6
Continuous
 62
     5
100
AcDbHatch
 10
0.0
 20
0.0
 30
0.0
210
0.0
220
0.0
230
1.0
  2
SOLID
 70
     1
 71
     1
 91
        1
 92
        3
 72
     0
 73
     1
 93
        3
 10
-211.39359936315032
 20
46.671489598372283
 10
-208.13906363669662
 20
49.090671619155522
 10
-209.09958406108325
 20
50.015430123908978
 97
        1
330
269
 75
     0
 76
     0
 98
        0
  0
ENDBLK
  5
26E
100
AcDbEntity
  8
0
100
AcDbBlockEnd
  0
BLOCK
  5
271
100
AcDbEntity
  8
0
100
AcDbBlockBegin
  2
*D10
 70
     1
 10
0.0
 20
0.0
 30
0.0
  3
*D10
  1

  0
TEXT
  5
272
100
AcDbEntity
  8
0
  6
Continuous
 62
     5
100
AcDbText
 10
-264.812914
 20
51.670824
 30
0.0
 40
2.7025
  1
R5
 72
     5
 11
-259.972818
 21
51.670824
 31
0.0
100
AcDbText
  0
POLYLINE
  5
273
100
AcDbEntity
  8
0
370
     0
  6
Continuous
 62
     5
100
AcDb2dPolyline
 66
     1
 10
0.0
 20
0.0
 30
0.0
 70
   128
  0
VERTEX
  5
274
100
AcDbEntity
  8
0
  6
Continuous
 62
     5
100
AcDbVertex
100
AcDb2dVertex
 10
-251.232773
 20
49.559902
 30
0.0
  0
VERTEX
  5
275
100
AcDbEntity
  8
0
  6
Continuous
 62
     5
100
AcDbVertex
100
AcDb2dVertex
 10
-254.472818
 20
52.963324
 30
0.0
  0
VERTEX
  5
276
100
AcDbEntity
  8
0
  6
Continuous
 62
     5
100
AcDbVertex
100
AcDb2dVertex
 10
-258.472818
 20
52.963324
 30
0.0
  0
SEQEND
  5
277
100
AcDbEntity
  8
0
  6
Continuous
 62
     5
  0
LINE
  5
278
100
AcDbEntity
  8
0
370
     0
  6
Continuous
 62
     5
100
AcDbLine
 10
-251.918278
 20
50.279973
 30
0.0
 11
-251.918278
 21
50.279973
 31
0.0
  0
POLYLINE
  5
27A
102
{ACAD_REACTORS
330
279
102
}
100
AcDbEntity
  8
0
370
     0
  6
Continuous
 62
     5
100
AcDb2dPolyline
 66
     1
 10
0.0
 20
0.0
 30
0.0
 70
   129
  0
VERTEX
  5
27B
100
AcDbEntity
  8
0
  6
Continuous
 62
     5
100
AcDbVertex
100
AcDb2dVertex
 10
-248.474737
 20
46.662794
 30
0.0
  0
VERTEX
  5
27C
100
AcDbEntity
  8
0
  6
Continuous
 62
     5
100
AcDbVertex
100
AcDb2dVertex
 10
-250.749922
 20
50.019575
 30
0.0
  0
VERTEX
  5
27D
100
AcDbEntity
  8
0
  6
Continuous
 62
     5
100
AcDbVertex
100
AcDb2dVertex
 10
-251.715625
 20
49.100229
 30
0.0
  0
SEQEND
  5
27E
100
AcDbEntity
  8
0
  6
Continuous
 62
     5
  0
HATCH
  5
279
100
AcDbEntity
  8
0
  6
Continuous
 62
     5
100
AcDbHatch
 10
0.0
 20
0.0
 30
0.0
210
0.0
220
0.0
230
1.0
  2
SOLID
 70
     1
 71
     1
 91
        1
 92
        3
 72
     0
 73
     1
 93
        3
 10
-248.47473697281185
 20
46.662793875868843
 10
-250.74992182608815
 20
50.019574823125694
 10
-251.71562457367003
 20
49.100229414103282
 97
        1
330
27A
 75
     0
 76
     0
 98
        0
  0
ENDBLK
  5
27F
100
AcDbEntity
  8
0
100
AcDbBlockEnd
  0
BLOCK
  5
282
100
AcDbEntity
  8
0
100
AcDbBlockBegin
  2
*D11
 70
     1
 10
0.0
 20
0.0
 30
0.0
  3
*D11
  1

  0
TEXT
  5
283
100
AcDbEntity
  8
0
  6
Continuous
 62
     5
100
AcDbText
 10
-252.859403
 20
70.919668
 30
0.0
 40
2.7025
  1
R11,9 *
 72
     5
 11
-240.230413
 21
70.919668
 31
0.0
100
AcDbText
  0
POLYLINE
  5
284
100
AcDbEntity
  8
0
370
     0
  6
Continuous
 62
     5
100
AcDb2dPolyline
 66
     1
 10
0.0
 20
0.0
 30
0.0
 70
   128
  0
VERTEX
  5
285
100
AcDbEntity
  8
0
  6
Continuous
 62
     5
100
AcDbVertex
100
AcDb2dVertex
 10
-225.413677
 20
58.781181
 30
0.0
  0
VERTEX
  5
286
100
AcDbEntity
  8
0
  6
Continuous
 62
     5
100
AcDbVertex
100
AcDb2dVertex
 10
-234.730413
 20
72.212168
 30
0.0
  0
VERTEX
  5
287
100
AcDbEntity
  8
0
  6
Continuous
 62
     5
100
AcDbVertex
100
AcDb2dVertex
 10
-238.730413
 20
72.212168
 30
0.0
  0
SEQEND
  5
288
100
AcDbEntity
  8
0
  6
Continuous
 62
     5
  0
LINE
  5
289
100
AcDbEntity
  8
0
370
     0
  6
Continuous
 62
     5
100
AcDbLine
 10
-229.917931
 20
65.274504
 30
0.0
 11
-229.917931
 21
65.274504
 31
0.0
  0
POLYLINE
  5
28B
102
{ACAD_REACTORS
330
28A
102
}
100
AcDbEntity
  8
0
370
     0
  6
Continuous
 62
     5
100
AcDb2dPolyline
 66
     1
 10
0.0
 20
0.0
 30
0.0
 70
   129
  0
VERTEX
  5
28C
100
AcDbEntity
  8
0
  6
Continuous
 62
     5
100
AcDbVertex
100
AcDb2dVertex
 10
-223.133801
 20
55.494516
 30
0.0
  0
VERTEX
  5
28D
100
AcDbEntity
  8
0
  6
Continuous
 62
     5
100
AcDbVertex
100
AcDb2dVertex
 10
-224.8659
 20
59.16116
 30
0.0
  0
VERTEX
  5
28E
100
AcDbEntity
  8
0
  6
Continuous
 62
     5
100
AcDbVertex
100
AcDb2dVertex
 10
-225.961455
 20
58.401201
 30
0.0
  0
SEQEND
  5
28F
100
AcDbEntity
  8
0
  6
Continuous
 62
     5
  0
HATCH
  5
28A
100
AcDbEntity
  8
0
  6
Continuous
 62
     5
100
AcDbHatch
 10
0.0
 20
0.0
 30
0.0
210
0.0
220
0.0
230
1.0
  2
SOLID
 70
     1
 71
     1
 91
        1
 92
        3
 72
     0
 73
     1
 93
        3
 10
-223.13380127393322
 20
55.494515745591841
 10
-224.8658998393812
 20
59.161159852130886
 10
-225.96145476228855
 20
58.401201176497004
 97
        1
330
28B
 75
     0
 76
     0
 98
        0
  0
ENDBLK
  5
290
100
AcDbEntity
  8
0
100
AcDbBlockEnd
  0
BLOCK
  5
294
100
AcDbEntity
  8
0
100
AcDbBlockBegin
  2
*D12
 70
     1
 10
0.0
 20
0.0
 30
0.0
  3
*D12
  1

  0
LINE
  5
295
100
AcDbEntity
  8
0
370
     0
  6
Continuous
 62
     5
100
AcDbLine
 10
-309.238671
 20
0.21817
 30
0.0
 11
-303.417218
 21
0.21817
 31
0.0
  0
LINE
  5
296
100
AcDbEntity
  8
0
370
     0
  6
Continuous
 62
     5
100
AcDbLine
 10
-291.242867
 20
43.875704
 30
0.0
 11
-284.898107
 21
26.922564
 31
0.0
  0
ARC
  5
297
100
AcDbEntity
  8
0
370
     0
  6
Continuous
 62
     5
100
AcDbCircle
 10
-274.903912
 20
0.21817
 30
0.0
 40
31.513306
100
AcDbArc
 50
150.703671
 51
172.72252
  0
ARC
  5
298
100
AcDbEntity
  8
0
370
     0
  6
Continuous
 62
     5
100
AcDbCircle
 10
-274.903912
 20
0.21817
 30
0.0
 40
31.513306
100
AcDbArc
 50
117.795983
 51
139.428121
  0
POLYLINE
  5
29A
102
{ACAD_REACTORS
330
299
102
}
100
AcDbEntity
  8
0
370
     0
  6
Continuous
 62
     5
100
AcDb2dPolyline
 66
     1
 10
0.0
 20
0.0
 30
0.0
 70
   129
  0
VERTEX
  5
29B
100
AcDbEntity
  8
0
  6
Continuous
 62
     5
100
AcDbVertex
100
AcDb2dVertex
 10
-285.949636
 20
29.732242
 30
0.0
  0
VERTEX
  5
29C
100
AcDbEntity
  8
0
  6
Continuous
 62
     5
100
AcDbVertex
100
AcDb2dVertex
 10
-289.872168
 20
28.703557
 30
0.0
  0
VERTEX
  5
29D
100
AcDbEntity
  8
0
  6
Continuous
 62
     5
100
AcDbVertex
100
AcDb2dVertex
 10
-289.326511
 20
27.486989
 30
0.0
  0
SEQEND
  5
29E
100
AcDbEntity
  8
0
  6
Continuous
 62
     5
  0
HATCH
  5
299
100
AcDbEntity
  8
0
  6
Continuous
 62
     5
100
AcDbHatch
 10
0.0
 20
0.0
 30
0.0
210
0.0
220
0.0
230
1.0
  2
SOLID
 70
     1
 71
     1
 91
        1
 92
        3
 72
     0
 73
     1
 93
        3
 10
-285.94963625825562
 20
29.732241592371587
 10
-289.87216754600985
 20
28.703556635237526
 10
-289.32651127408775
 20
27.486988917973143
 97
        1
330
29A
 75
     0
 76
     0
 98
        0
  0
POLYLINE
  5
2A0
102
{ACAD_REACTORS
330
29F
102
}
100
AcDbEntity
  8
0
370
     0
  6
Continuous
 62
     5
100
AcDb2dPolyline
 66
     1
 10
0.0
 20
0.0
 30
0.0
 70
   129
  0
VERTEX
  5
2A1
100
AcDbEntity
  8
0
  6
Continuous
 62
     5
100
AcDbVertex
100
AcDb2dVertex
 10
-306.417218
 20
0.21817
 30
0.0
  0
VERTEX
  5
2A2
100
AcDbEntity
  8
0
  6
Continuous
 62
     5
100
AcDbVertex
100
AcDb2dVertex
 10
-305.498034
 20
4.167796
 30
0.0
  0
VERTEX
  5
2A3
100
AcDbEntity
  8
0
  6
Continuous
 62
     5
100
AcDbVertex
100
AcDb2dVertex
 10
-306.828679
 20
4.252417
 30
0.0
  0
SEQEND
  5
2A4
100
AcDbEntity
  8
0
  6
Continuous
 62
     5
  0
HATCH
  5
29F
100
AcDbEntity
  8
0
  6
Continuous
 62
     5
100
AcDbHatch
 10
0.0
 20
0.0
 30
0.0
210
0.0
220
0.0
230
1.0
  2
SOLID
 70
     1
 71
     1
 91
        1
 92
        3
 72
     0
 73
     1
 93
        3
 10
-306.41721760039042
 20
0.2181703546737026
 10
-305.49803387737148
 20
4.1677963784614569
 10
-306.82867927551985
 20
4.2524167197763738
 97
        1
330
2A0
 75
     0
 76
     0
 98
        0
  0
TEXT
  5
2A5
100
AcDbEntity
  8
0
  6
Continuous
 62
     5
100
AcDbText
 10
-305.767285
 20
16.883971
 30
0.0
 40
2.7025
  1
69,5 %%d
 72
     5
 11
-295.831961
 21
16.883971
 31
0.0
100
AcDbText
  0
ENDBLK
  5
2A6
100
AcDbEntity
  8
0
100
AcDbBlockEnd
  0
BLOCK
  5
2A9
100
AcDbEntity
  8
0
100
AcDbBlockBegin
  2
*D13
 70
     1
 10
0.0
 20
0.0
 30
0.0
  3
*D13
  1

  0
TEXT
  5
2AA
100
AcDbEntity
  8
0
  6
Continuous
 62
     5
100
AcDbText
 10
-166.160356
 20
119.124119
 30
0.0
 40
2.7025
  1
R55
 72
     5
 11
-159.214504
 21
119.124119
 31
0.0
100
AcDbText
  0
POLYLINE
  5
2AB
100
AcDbEntity
  8
0
370
     0
  6
Continuous
 62
     5
100
AcDb2dPolyline
 66
     1
 10
0.0
 20
0.0
 30
0.0
 70
   128
  0
VERTEX
  5
2AC
100
AcDbEntity
  8
0
  6
Continuous
 62
     5
100
AcDbVertex
100
AcDb2dVertex
 10
-229.916785
 20
65.273962
 30
0.0
  0
VERTEX
  5
2AD
100
AcDbEntity
  8
0
  6
Continuous
 62
     5
100
AcDbVertex
100
AcDb2dVertex
 10
-229.916785
 20
65.273962
 30
0.0
  0
VERTEX
  5
2AE
100
AcDbEntity
  8
0
  6
Continuous
 62
     5
100
AcDbVertex
100
AcDb2dVertex
 10
-229.916785
 20
65.273962
 30
0.0
  0
VERTEX
  5
2AF
100
AcDbEntity
  8
0
  6
Continuous
 62
     5
100
AcDbVertex
100
AcDb2dVertex
 10
-192.880962
 20
100.330242
 30
0.0
  0
SEQEND
  5
2B0
100
AcDbEntity
  8
0
  6
Continuous
 62
     5
  0
POLYLINE
  5
2B1
100
AcDbEntity
  8
0
370
     0
  6
Continuous
 62
     5
100
AcDb2dPolyline
 66
     1
 10
0.0
 20
0.0
 30
0.0
 70
   128
  0
VERTEX
  5
2B2
100
AcDbEntity
  8
0
  6
Continuous
 62
     5
100
AcDbVertex
100
AcDb2dVertex
 10
-189.975965
 20
103.079969
 30
0.0
  0
VERTEX
  5
2B3
100
AcDbEntity
  8
0
  6
Continuous
 62
     5
100
AcDbVertex
100
AcDb2dVertex
 10
-187.070969
 20
105.829695
 30
0.0
  0
VERTEX
  5
2B4
100
AcDbEntity
  8
0
  6
Continuous
 62
     5
100
AcDbVertex
100
AcDb2dVertex
 10
-171.660356
 20
120.416619
 30
0.0
  0
VERTEX
  5
2B5
100
AcDbEntity
  8
0
  6
Continuous
 62
     5
100
AcDbVertex
100
AcDb2dVertex
 10
-167.660356
 20
120.416619
 30
0.0
  0
SEQEND
  5
2B6
100
AcDbEntity
  8
0
  6
Continuous
 62
     5
  0
LINE
  5
2B7
100
AcDbEntity
  8
0
370
     0
  6
Continuous
 62
     5
100
AcDbLine
 10
-229.916785
 20
65.273962
 30
0.0
 11
-229.916785
 21
65.273962
 31
0.0
  0
POLYLINE
  5
2B9
102
{ACAD_REACTORS
330
2B8
102
}
100
AcDbEntity
  8
0
370
     0
  6
Continuous
 62
     5
100
AcDb2dPolyline
 66
     1
 10
0.0
 20
0.0
 30
0.0
 70
   129
  0
VERTEX
  5
2BA
100
AcDbEntity
  8
0
  6
Continuous
 62
     5
100
AcDbVertex
100
AcDb2dVertex
 10
-189.975965
 20
103.079969
 30
0.0
  0
VERTEX
  5
2BB
100
AcDbEntity
  8
0
  6
Continuous
 62
     5
100
AcDbVertex
100
AcDb2dVertex
 10
-193.33925
 20
100.814409
 30
0.0
  0
VERTEX
  5
2BC
100
AcDbEntity
  8
0
  6
Continuous
 62
     5
100
AcDbVertex
100
AcDb2dVertex
 10
-192.422674
 20
99.846076
 30
0.0
  0
SEQEND
  5
2BD
100
AcDbEntity
  8
0
  6
Continuous
 62
     5
  0
HATCH
  5
2B8
100
AcDbEntity
  8
0
  6
Continuous
 62
     5
100
AcDbHatch
 10
0.0
 20
0.0
 30
0.0
210
0.0
220
0.0
230
1.0
  2
SOLID
 70
     1
 71
     1
 91
        1
 92
        3
 72
     0
 73
     1
 93
        3
 10
-189.97596532692063
 20
103.07996876936406
 10
-193.33924967192891
 20
100.81440860484257
 10
-192.42267424857013
 20
99.846076393732929
 97
        1
330
2B9
 75
     0
 76
     0
 98
        0
  0
ENDBLK
  5
2BE
100
AcDbEntity
  8
0
100
AcDbBlockEnd
  0
BLOCK
  5
2C1
100
AcDbEntity
  8
0
100
AcDbBlockBegin
  2
*D14
 70
     1
 10
0.0
 20
0.0
 30
0.0
  3
*D14
  1

  0
TEXT
  5
2C2
100
AcDbEntity
  8
0
  6
Continuous
 62
     5
100
AcDbText
 10
-156.042374
 20
98.394594
 30
0.0
 40
2.7025
  1
R65
 72
     5
 11
-149.096521
 21
98.394594
 31
0.0
100
AcDbText
  0
POLYLINE
  5
2C3
100
AcDbEntity
  8
0
370
     0
  6
Continuous
 62
     5
100
AcDb2dPolyline
 66
     1
 10
0.0
 20
0.0
 30
0.0
 70
   128
  0
VERTEX
  5
2C4
100
AcDbEntity
  8
0
  6
Continuous
 62
     5
100
AcDbVertex
100
AcDb2dVertex
 10
-229.921499
 20
65.273889
 30
0.0
  0
VERTEX
  5
2C5
100
AcDbEntity
  8
0
  6
Continuous
 62
     5
100
AcDbVertex
100
AcDb2dVertex
 10
-229.921499
 20
65.273889
 30
0.0
  0
VERTEX
  5
2C6
100
AcDbEntity
  8
0
  6
Continuous
 62
     5
100
AcDbVertex
100
AcDb2dVertex
 10
-229.921499
 20
65.273889
 30
0.0
  0
VERTEX
  5
2C7
100
AcDbEntity
  8
0
  6
Continuous
 62
     5
100
AcDbVertex
100
AcDb2dVertex
 10
-175.417046
 20
92.704379
 30
0.0
  0
SEQEND
  5
2C8
100
AcDbEntity
  8
0
  6
Continuous
 62
     5
  0
POLYLINE
  5
2C9
100
AcDbEntity
  8
0
370
     0
  6
Continuous
 62
     5
100
AcDb2dPolyline
 66
     1
 10
0.0
 20
0.0
 30
0.0
 70
   128
  0
VERTEX
  5
2CA
100
AcDbEntity
  8
0
  6
Continuous
 62
     5
100
AcDbVertex
100
AcDb2dVertex
 10
-171.844024
 20
94.502576
 30
0.0
  0
VERTEX
  5
2CB
100
AcDbEntity
  8
0
  6
Continuous
 62
     5
100
AcDbVertex
100
AcDb2dVertex
 10
-168.271002
 20
96.300773
 30
0.0
  0
VERTEX
  5
2CC
100
AcDbEntity
  8
0
  6
Continuous
 62
     5
100
AcDbVertex
100
AcDb2dVertex
 10
-161.542374
 20
99.687094
 30
0.0
  0
VERTEX
  5
2CD
100
AcDbEntity
  8
0
  6
Continuous
 62
     5
100
AcDbVertex
100
AcDb2dVertex
 10
-157.542374
 20
99.687094
 30
0.0
  0
SEQEND
  5
2CE
100
AcDbEntity
  8
0
  6
Continuous
 62
     5
  0
LINE
  5
2CF
100
AcDbEntity
  8
0
370
     0
  6
Continuous
 62
     5
100
AcDbLine
 10
-229.921499
 20
65.273889
 30
0.0
 11
-229.921499
 21
65.273889
 31
0.0
  0
POLYLINE
  5
2D1
102
{ACAD_REACTORS
330
2D0
102
}
100
AcDbEntity
  8
0
370
     0
  6
Continuous
 62
     5
100
AcDb2dPolyline
 66
     1
 10
0.0
 20
0.0
 30
0.0
 70
   129
  0
VERTEX
  5
2D2
100
AcDbEntity
  8
0
  6
Continuous
 62
     5
100
AcDbVertex
100
AcDb2dVertex
 10
-171.844024
 20
94.502576
 30
0.0
  0
VERTEX
  5
2D3
100
AcDbEntity
  8
0
  6
Continuous
 62
     5
100
AcDbVertex
100
AcDb2dVertex
 10
-175.716746
 20
93.299883
 30
0.0
  0
VERTEX
  5
2D4
100
AcDbEntity
  8
0
  6
Continuous
 62
     5
100
AcDbVertex
100
AcDb2dVertex
 10
-175.117347
 20
92.108876
 30
0.0
  0
SEQEND
  5
2D5
100
AcDbEntity
  8
0
  6
Continuous
 62
     5
  0
HATCH
  5
2D0
100
AcDbEntity
  8
0
  6
Continuous
 62
     5
100
AcDbHatch
 10
0.0
 20
0.0
 30
0.0
210
0.0
220
0.0
230
1.0
  2
SOLID
 70
     1
 71
     1
 91
        1
 92
        3
 72
     0
 73
     1
 93
        3
 10
-171.844024170566
 20
94.502576394141329
 10
-175.71674583426508
 20
93.299883016775198
 10
-175.11734681113555
 20
92.108875632730417
 97
        1
330
2D1
 75
     0
 76
     0
 98
        0
  0
ENDBLK
  5
2D6
100
AcDbEntity
  8
0
100
AcDbBlockEnd
  0
BLOCK
  5
2E8
100
AcDbEntity
  8
0
100
AcDbBlockBegin
  2
*D15
 70
     1
 10
0.0
 20
0.0
 30
0.0
  3
*D15
  1

  0
LINE
  5
2E9
100
AcDbEntity
  8
0
370
     0
  6
Continuous
 62
     5
100
AcDbLine
 10
-220.861562
 20
-55.245272
 30
0.0
 11
-220.861562
 21
-60.235787
 31
0.0
  0
LINE
  5
2EA
100
AcDbEntity
  8
0
370
     0
  6
Continuous
 62
     5
100
AcDbLine
 10
-210.781198
 20
-55.245272
 30
0.0
 11
-210.781198
 21
-60.235787
 31
0.0
  0
POLYLINE
  5
2EB
100
AcDbEntity
  8
0
370
     0
  6
Continuous
 62
     5
100
AcDb2dPolyline
 66
     1
 10
0.0
 20
0.0
 30
0.0
 70
   128
  0
VERTEX
  5
2EC
100
AcDbEntity
  8
0
  6
Continuous
 62
     5
100
AcDbVertex
100
AcDb2dVertex
 10
-228.861562
 20
-57.235787
 30
0.0
  0
VERTEX
  5
2ED
100
AcDbEntity
  8
0
  6
Continuous
 62
     5
100
AcDbVertex
100
AcDb2dVertex
 10
-224.861562
 20
-57.235787
 30
0.0
  0
SEQEND
  5
2EE
100
AcDbEntity
  8
0
  6
Continuous
 62
     5
  0
POLYLINE
  5
2EF
100
AcDbEntity
  8
0
370
     0
  6
Continuous
 62
     5
100
AcDb2dPolyline
 66
     1
 10
0.0
 20
0.0
 30
0.0
 70
   128
  0
VERTEX
  5
2F0
100
AcDbEntity
  8
0
  6
Continuous
 62
     5
100
AcDbVertex
100
AcDb2dVertex
 10
-220.861562
 20
-57.235787
 30
0.0
  0
VERTEX
  5
2F1
100
AcDbEntity
  8
0
  6
Continuous
 62
     5
100
AcDbVertex
100
AcDb2dVertex
 10
-210.781198
 20
-57.235787
 30
0.0
  0
SEQEND
  5
2F2
100
AcDbEntity
  8
0
  6
Continuous
 62
     5
  0
POLYLINE
  5
2F3
100
AcDbEntity
  8
0
370
     0
  6
Continuous
 62
     5
100
AcDb2dPolyline
 66
     1
 10
0.0
 20
0.0
 30
0.0
 70
   128
  0
VERTEX
  5
2F4
100
AcDbEntity
  8
0
  6
Continuous
 62
     5
100
AcDbVertex
100
AcDb2dVertex
 10
-198.781198
 20
-57.235787
 30
0.0
  0
VERTEX
  5
2F5
100
AcDbEntity
  8
0
  6
Continuous
 62
     5
100
AcDbVertex
100
AcDb2dVertex
 10
-202.781198
 20
-57.235787
 30
0.0
  0
VERTEX
  5
2F6
100
AcDbEntity
  8
0
  6
Continuous
 62
     5
100
AcDbVertex
100
AcDb2dVertex
 10
-206.781198
 20
-57.235787
 30
0.0
  0
SEQEND
  5
2F7
100
AcDbEntity
  8
0
  6
Continuous
 62
     5
  0
POLYLINE
  5
2F9
102
{ACAD_REACTORS
330
2F8
102
}
100
AcDbEntity
  8
0
370
     0
  6
Continuous
 62
     5
100
AcDb2dPolyline
 66
     1
 10
0.0
 20
0.0
 30
0.0
 70
   129
  0
VERTEX
  5
2FA
100
AcDbEntity
  8
0
  6
Continuous
 62
     5
100
AcDbVertex
100
AcDb2dVertex
 10
-210.781198
 20
-57.235787
 30
0.0
  0
VERTEX
  5
2FB
100
AcDbEntity
  8
0
  6
Continuous
 62
     5
100
AcDbVertex
100
AcDb2dVertex
 10
-206.781198
 20
-57.902453
 30
0.0
  0
VERTEX
  5
2FC
100
AcDbEntity
  8
0
  6
Continuous
 62
     5
100
AcDbVertex
100
AcDb2dVertex
 10
-206.781198
 20
-56.56912
 30
0.0
  0
SEQEND
  5
2FD
100
AcDbEntity
  8
0
  6
Continuous
 62
     5
  0
HATCH
  5
2F8
100
AcDbEntity
  8
0
  6
Continuous
 62
     5
100
AcDbHatch
 10
0.0
 20
0.0
 30
0.0
210
0.0
220
0.0
230
1.0
  2
SOLID
 70
     1
 71
     1
 91
        1
 92
        3
 72
     0
 73
     1
 93
        3
 10
-210.78119761249718
 20
-57.235786526930298
 10
-206.78119761249718
 20
-57.902453193596962
 10
-206.78119761249718
 20
-56.569119860263633
 97
        1
330
2F9
 75
     0
 76
     0
 98
        0
  0
POLYLINE
  5
2FF
102
{ACAD_REACTORS
330
2FE
102
}
100
AcDbEntity
  8
0
370
     0
  6
Continuous
 62
     5
100
AcDb2dPolyline
 66
     1
 10
0.0
 20
0.0
 30
0.0
 70
   129
  0
VERTEX
  5
300
100
AcDbEntity
  8
0
  6
Continuous
 62
     5
100
AcDbVertex
100
AcDb2dVertex
 10
-220.861562
 20
-57.235787
 30
0.0
  0
VERTEX
  5
301
100
AcDbEntity
  8
0
  6
Continuous
 62
     5
100
AcDbVertex
100
AcDb2dVertex
 10
-224.861562
 20
-56.56912
 30
0.0
  0
VERTEX
  5
302
100
AcDbEntity
  8
0
  6
Continuous
 62
     5
100
AcDbVertex
100
AcDb2dVertex
 10
-224.861562
 20
-57.902453
 30
0.0
  0
SEQEND
  5
303
100
AcDbEntity
  8
0
  6
Continuous
 62
     5
  0
HATCH
  5
2FE
100
AcDbEntity
  8
0
  6
Continuous
 62
     5
100
AcDbHatch
 10
0.0
 20
0.0
 30
0.0
210
0.0
220
0.0
230
1.0
  2
SOLID
 70
     1
 71
     1
 91
        1
 92
        3
 72
     0
 73
     1
 93
        3
 10
-220.86156230787992
 20
-57.235786526930298
 10
-224.86156230787992
 20
-56.569119860263633
 10
-224.86156230787992
 20
-57.902453193596962
 97
        1
330
2FF
 75
     0
 76
     0
 98
        0
  0
TEXT
  5
304
100
AcDbEntity
  8
0
  6
Continuous
 62
     5
100
AcDbText
 10
-197.281198
 20
-58.528287
 30
0.0
 40
2.7025
  1
10
 72
     5
 11
-193.069685
 21
-58.528287
 31
0.0
100
AcDbText
  0
ENDBLK
  5
305
100
AcDbEntity
  8
0
100
AcDbBlockEnd
  0
BLOCK
  5
308
100
AcDbEntity
  8
0
100
AcDbBlockBegin
  2
*D16
 70
     1
 10
0.0
 20
0.0
 30
0.0
  3
*D16
  1

  0
LINE
  5
309
100
AcDbEntity
  8
0
370
     0
  6
Continuous
 62
     5
100
AcDbLine
 10
-225.826516
 20
-37.320315
 30
0.0
 11
-225.826516
 21
-29.802187
 31
0.0
  0
LINE
  5
30A
100
AcDbEntity
  8
0
370
     0
  6
Continuous
 62
     5
100
AcDbLine
 10
-205.846331
 20
-37.801765
 30
0.0
 11
-205.846331
 21
-29.802187
 31
0.0
  0
POLYLINE
  5
30B
100
AcDbEntity
  8
0
370
     0
  6
Continuous
 62
     5
100
AcDb2dPolyline
 66
     1
 10
0.0
 20
0.0
 30
0.0
 70
   128
  0
VERTEX
  5
30C
100
AcDbEntity
  8
0
  6
Continuous
 62
     5
100
AcDbVertex
100
AcDb2dVertex
 10
-221.826516
 20
-32.802187
 30
0.0
  0
VERTEX
  5
30D
100
AcDbEntity
  8
0
  6
Continuous
 62
     5
100
AcDbVertex
100
AcDb2dVertex
 10
-221.826516
 20
-32.802187
 30
0.0
  0
VERTEX
  5
30E
100
AcDbEntity
  8
0
  6
Continuous
 62
     5
100
AcDbVertex
100
AcDb2dVertex
 10
-221.826516
 20
-32.802187
 30
0.0
  0
VERTEX
  5
30F
100
AcDbEntity
  8
0
  6
Continuous
 62
     5
100
AcDbVertex
100
AcDb2dVertex
 10
-219.44218
 20
-32.802187
 30
0.0
  0
SEQEND
  5
310
100
AcDbEntity
  8
0
  6
Continuous
 62
     5
  0
POLYLINE
  5
311
100
AcDbEntity
  8
0
370
     0
  6
Continuous
 62
     5
100
AcDb2dPolyline
 66
     1
 10
0.0
 20
0.0
 30
0.0
 70
   128
  0
VERTEX
  5
312
100
AcDbEntity
  8
0
  6
Continuous
 62
     5
100
AcDbVertex
100
AcDb2dVertex
 10
-209.846331
 20
-32.802187
 30
0.0
  0
VERTEX
  5
313
100
AcDbEntity
  8
0
  6
Continuous
 62
     5
100
AcDbVertex
100
AcDb2dVertex
 10
-209.846331
 20
-32.802187
 30
0.0
  0
VERTEX
  5
314
100
AcDbEntity
  8
0
  6
Continuous
 62
     5
100
AcDbVertex
100
AcDb2dVertex
 10
-209.846331
 20
-32.802187
 30
0.0
  0
VERTEX
  5
315
100
AcDbEntity
  8
0
  6
Continuous
 62
     5
100
AcDbVertex
100
AcDb2dVertex
 10
-212.230668
 20
-32.802187
 30
0.0
  0
SEQEND
  5
316
100
AcDbEntity
  8
0
  6
Continuous
 62
     5
  0
POLYLINE
  5
318
102
{ACAD_REACTORS
330
317
102
}
100
AcDbEntity
  8
0
370
     0
  6
Continuous
 62
     5
100
AcDb2dPolyline
 66
     1
 10
0.0
 20
0.0
 30
0.0
 70
   129
  0
VERTEX
  5
319
100
AcDbEntity
  8
0
  6
Continuous
 62
     5
100
AcDbVertex
100
AcDb2dVertex
 10
-225.826516
 20
-32.802187
 30
0.0
  0
VERTEX
  5
31A
100
AcDbEntity
  8
0
  6
Continuous
 62
     5
100
AcDbVertex
100
AcDb2dVertex
 10
-221.826516
 20
-33.468854
 30
0.0
  0
VERTEX
  5
31B
100
AcDbEntity
  8
0
  6
Continuous
 62
     5
100
AcDbVertex
100
AcDb2dVertex
 10
-221.826516
 20
-32.13552
 30
0.0
  0
SEQEND
  5
31C
100
AcDbEntity
  8
0
  6
Continuous
 62
     5
  0
HATCH
  5
317
100
AcDbEntity
  8
0
  6
Continuous
 62
     5
100
AcDbHatch
 10
0.0
 20
0.0
 30
0.0
210
0.0
220
0.0
230
1.0
  2
SOLID
 70
     1
 71
     1
 91
        1
 92
        3
 72
     0
 73
     1
 93
        3
 10
-225.82651621776267
 20
-32.802186841401365
 10
-221.82651621776267
 20
-33.46885350806803
 10
-221.82651621776267
 20
-32.135520174734701
 97
        1
330
318
 75
     0
 76
     0
 98
        0
  0
POLYLINE
  5
31E
102
{ACAD_REACTORS
330
31D
102
}
100
AcDbEntity
  8
0
370
     0
  6
Continuous
 62
     5
100
AcDb2dPolyline
 66
     1
 10
0.0
 20
0.0
 30
0.0
 70
   129
  0
VERTEX
  5
31F
100
AcDbEntity
  8
0
  6
Continuous
 62
     5
100
AcDbVertex
100
AcDb2dVertex
 10
-205.846331
 20
-32.802187
 30
0.0
  0
VERTEX
  5
320
100
AcDbEntity
  8
0
  6
Continuous
 62
     5
100
AcDbVertex
100
AcDb2dVertex
 10
-209.846331
 20
-32.13552
 30
0.0
  0
VERTEX
  5
321
100
AcDbEntity
  8
0
  6
Continuous
 62
     5
100
AcDbVertex
100
AcDb2dVertex
 10
-209.846331
 20
-33.468854
 30
0.0
  0
SEQEND
  5
322
100
AcDbEntity
  8
0
  6
Continuous
 62
     5
  0
HATCH
  5
31D
100
AcDbEntity
  8
0
  6
Continuous
 62
     5
100
AcDbHatch
 10
0.0
 20
0.0
 30
0.0
210
0.0
220
0.0
230
1.0
  2
SOLID
 70
     1
 71
     1
 91
        1
 92
        3
 72
     0
 73
     1
 93
        3
 10
-205.84633125324143
 20
-32.802186841401365
 10
-209.84633125324143
 20
-32.135520174734701
 10
-209.84633125324143
 20
-33.46885350806803
 97
        1
330
31E
 75
     0
 76
     0
 98
        0
  0
TEXT
  5
323
100
AcDbEntity
  8
0
  6
Continuous
 62
     5
100
AcDbText
 10
-217.94218
 20
-34.094687
 30
0.0
 40
2.7025
  1
20
 72
     5
 11
-213.730668
 21
-34.094687
 31
0.0
100
AcDbText
  0
ENDBLK
  5
324
100
AcDbEntity
  8
0
100
AcDbBlockEnd
  0
BLOCK
  5
32E
100
AcDbEntity
  8
0
100
AcDbBlockBegin
  2
*D17
 70
     1
 10
0.0
 20
0.0
 30
0.0
  3
*D17
  1

  0
LINE
  5
32F
100
AcDbEntity
  8
0
370
     0
  6
Continuous
 62
     5
100
AcDbLine
 10
-225.660039
 20
-39.519787
 30
0.0
 11
-264.139458
 21
-39.519787
 31
0.0
  0
LINE
  5
330
100
AcDbEntity
  8
0
370
     0
  6
Continuous
 62
     5
100
AcDbLine
 10
-222.516654
 20
-53.540328
 30
0.0
 11
-264.139458
 21
-53.540328
 31
0.0
  0
POLYLINE
  5
331
100
AcDbEntity
  8
0
370
     0
  6
Continuous
 62
     5
100
AcDb2dPolyline
 66
     1
 10
0.0
 20
0.0
 30
0.0
 70
   128
  0
VERTEX
  5
332
100
AcDbEntity
  8
0
  6
Continuous
 62
     5
100
AcDbVertex
100
AcDb2dVertex
 10
-261.139458
 20
-43.519787
 30
0.0
  0
VERTEX
  5
333
100
AcDbEntity
  8
0
  6
Continuous
 62
     5
100
AcDbVertex
100
AcDb2dVertex
 10
-261.139458
 20
-43.519787
 30
0.0
  0
VERTEX
  5
334
100
AcDbEntity
  8
0
  6
Continuous
 62
     5
100
AcDbVertex
100
AcDb2dVertex
 10
-261.139458
 20
-43.519787
 30
0.0
  0
VERTEX
  5
335
100
AcDbEntity
  8
0
  6
Continuous
 62
     5
100
AcDbVertex
100
AcDb2dVertex
 10
-261.139458
 20
-43.992058
 30
0.0
  0
SEQEND
  5
336
100
AcDbEntity
  8
0
  6
Continuous
 62
     5
  0
POLYLINE
  5
337
100
AcDbEntity
  8
0
370
     0
  6
Continuous
 62
     5
100
AcDb2dPolyline
 66
     1
 10
0.0
 20
0.0
 30
0.0
 70
   128
  0
VERTEX
  5
338
100
AcDbEntity
  8
0
  6
Continuous
 62
     5
100
AcDbVertex
100
AcDb2dVertex
 10
-261.139458
 20
-49.540328
 30
0.0
  0
VERTEX
  5
339
100
AcDbEntity
  8
0
  6
Continuous
 62
     5
100
AcDbVertex
100
AcDb2dVertex
 10
-261.139458
 20
-49.540328
 30
0.0
  0
VERTEX
  5
33A
100
AcDbEntity
  8
0
  6
Continuous
 62
     5
100
AcDbVertex
100
AcDb2dVertex
 10
-261.139458
 20
-49.540328
 30
0.0
  0
VERTEX
  5
33B
100
AcDbEntity
  8
0
  6
Continuous
 62
     5
100
AcDbVertex
100
AcDb2dVertex
 10
-261.139458
 20
-49.068058
 30
0.0
  0
SEQEND
  5
33C
100
AcDbEntity
  8
0
  6
Continuous
 62
     5
  0
POLYLINE
  5
33E
102
{ACAD_REACTORS
330
33D
102
}
100
AcDbEntity
  8
0
370
     0
  6
Continuous
 62
     5
100
AcDb2dPolyline
 66
     1
 10
0.0
 20
0.0
 30
0.0
 70
   129
  0
VERTEX
  5
33F
100
AcDbEntity
  8
0
  6
Continuous
 62
     5
100
AcDbVertex
100
AcDb2dVertex
 10
-261.139458
 20
-39.519787
 30
0.0
  0
VERTEX
  5
340
100
AcDbEntity
  8
0
  6
Continuous
 62
     5
100
AcDbVertex
100
AcDb2dVertex
 10
-261.806125
 20
-43.519787
 30
0.0
  0
VERTEX
  5
341
100
AcDbEntity
  8
0
  6
Continuous
 62
     5
100
AcDbVertex
100
AcDb2dVertex
 10
-260.472792
 20
-43.519787
 30
0.0
  0
SEQEND
  5
342
100
AcDbEntity
  8
0
  6
Continuous
 62
     5
  0
HATCH
  5
33D
100
AcDbEntity
  8
0
  6
Continuous
 62
     5
100
AcDbHatch
 10
0.0
 20
0.0
 30
0.0
210
0.0
220
0.0
230
1.0
  2
SOLID
 70
     1
 71
     1
 91
        1
 92
        3
 72
     0
 73
     1
 93
        3
 10
-261.13945843997141
 20
-39.519786827081319
 10
-261.80612510663809
 20
-43.519786827081319
 10
-260.47279177330472
 20
-43.519786827081319
 97
        1
330
33E
 75
     0
 76
     0
 98
        0
  0
POLYLINE
  5
344
102
{ACAD_REACTORS
330
343
102
}
100
AcDbEntity
  8
0
370
     0
  6
Continuous
 62
     5
100
AcDb2dPolyline
 66
     1
 10
0.0
 20
0.0
 30
0.0
 70
   129
  0
VERTEX
  5
345
100
AcDbEntity
  8
0
  6
Continuous
 62
     5
100
AcDbVertex
100
AcDb2dVertex
 10
-261.139458
 20
-53.540328
 30
0.0
  0
VERTEX
  5
346
100
AcDbEntity
  8
0
  6
Continuous
 62
     5
100
AcDbVertex
100
AcDb2dVertex
 10
-260.472792
 20
-49.540328
 30
0.0
  0
VERTEX
  5
347
100
AcDbEntity
  8
0
  6
Continuous
 62
     5
100
AcDbVertex
100
AcDb2dVertex
 10
-261.806125
 20
-49.540328
 30
0.0
  0
SEQEND
  5
348
100
AcDbEntity
  8
0
  6
Continuous
 62
     5
  0
HATCH
  5
343
100
AcDbEntity
  8
0
  6
Continuous
 62
     5
100
AcDbHatch
 10
0.0
 20
0.0
 30
0.0
210
0.0
220
0.0
230
1.0
  2
SOLID
 70
     1
 71
     1
 91
        1
 92
        3
 72
     0
 73
     1
 93
        3
 10
-261.13945843997141
 20
-53.540328299910058
 10
-260.47279177330472
 20
-49.540328299910058
 10
-261.80612510663809
 20
-49.540328299910058
 97
        1
330
344
 75
     0
 76
     0
 98
        0
  0
TEXT
  5
349
100
AcDbEntity
  8
0
  6
Continuous
 62
     5
100
AcDbText
 10
-271.875302
 20
-47.822558
 30
0.0
 40
2.7025
  1
a szövegben
 72
     5
 11
-250.403615
 21
-47.822558
 31
0.0
100
AcDbText
  0
ENDBLK
  5
34A
100
AcDbEntity
  8
0
100
AcDbBlockEnd
  0
BLOCK
  5
353
100
AcDbEntity
  8
0
100
AcDbBlockBegin
  2
*D18
 70
     1
 10
0.0
 20
0.0
 30
0.0
  3
*D18
  1

  0
TEXT
  5
354
100
AcDbEntity
  8
0
  6
Continuous
 62
     5
100
AcDbText
 10
-118.741637
 20
-42.756256
 30
0.0
 40
2.7025
  1
%%c130
 72
     5
 11
-109.479269
 21
-42.756256
 31
0.0
100
AcDbText
  0
POLYLINE
  5
355
100
AcDbEntity
  8
0
370
     0
  6
Continuous
 62
     5
100
AcDb2dPolyline
 66
     1
 10
0.0
 20
0.0
 30
0.0
 70
   128
  0
VERTEX
  5
356
100
AcDbEntity
  8
0
  6
Continuous
 62
     5
100
AcDbVertex
100
AcDb2dVertex
 10
-6.161923
 20
-133.048509
 30
0.0
  0
VERTEX
  5
357
100
AcDbEntity
  8
0
  6
Continuous
 62
     5
100
AcDbVertex
100
AcDb2dVertex
 10
-50.690714
 20
-91.356942
 30
0.0
  0
VERTEX
  5
358
100
AcDbEntity
  8
0
  6
Continuous
 62
     5
100
AcDbVertex
100
AcDb2dVertex
 10
-50.690714
 20
-91.356942
 30
0.0
  0
VERTEX
  5
359
100
AcDbEntity
  8
0
  6
Continuous
 62
     5
100
AcDbVertex
100
AcDb2dVertex
 10
-95.219506
 20
-49.665376
 30
0.0
  0
SEQEND
  5
35A
100
AcDbEntity
  8
0
  6
Continuous
 62
     5
  0
POLYLINE
  5
35B
100
AcDbEntity
  8
0
370
     0
  6
Continuous
 62
     5
100
AcDb2dPolyline
 66
     1
 10
0.0
 20
0.0
 30
0.0
 70
   128
  0
VERTEX
  5
35C
100
AcDbEntity
  8
0
  6
Continuous
 62
     5
100
AcDbVertex
100
AcDb2dVertex
 10
-98.139427
 20
-46.931503
 30
0.0
  0
VERTEX
  5
35D
100
AcDbEntity
  8
0
  6
Continuous
 62
     5
100
AcDbVertex
100
AcDb2dVertex
 10
-101.059348
 20
-44.19763
 30
0.0
  0
VERTEX
  5
35E
100
AcDbEntity
  8
0
  6
Continuous
 62
     5
100
AcDbVertex
100
AcDb2dVertex
 10
-103.979269
 20
-41.463756
 30
0.0
  0
VERTEX
  5
35F
100
AcDbEntity
  8
0
  6
Continuous
 62
     5
100
AcDbVertex
100
AcDb2dVertex
 10
-107.979269
 20
-41.463756
 30
0.0
  0
SEQEND
  5
360
100
AcDbEntity
  8
0
  6
Continuous
 62
     5
  0
POLYLINE
  5
362
102
{ACAD_REACTORS
330
361
102
}
100
AcDbEntity
  8
0
370
     0
  6
Continuous
 62
     5
100
AcDb2dPolyline
 66
     1
 10
0.0
 20
0.0
 30
0.0
 70
   129
  0
VERTEX
  5
363
100
AcDbEntity
  8
0
  6
Continuous
 62
     5
100
AcDbVertex
100
AcDb2dVertex
 10
-3.242002
 20
-135.782382
 30
0.0
  0
VERTEX
  5
364
100
AcDbEntity
  8
0
  6
Continuous
 62
     5
100
AcDbVertex
100
AcDb2dVertex
 10
-5.706277
 20
-132.561855
 30
0.0
  0
VERTEX
  5
365
100
AcDbEntity
  8
0
  6
Continuous
 62
     5
100
AcDbVertex
100
AcDb2dVertex
 10
-6.617568
 20
-133.535162
 30
0.0
  0
SEQEND
  5
366
100
AcDbEntity
  8
0
  6
Continuous
 62
     5
  0
HATCH
  5
361
100
AcDbEntity
  8
0
  6
Continuous
 62
     5
100
AcDbHatch
 10
0.0
 20
0.0
 30
0.0
210
0.0
220
0.0
230
1.0
  2
SOLID
 70
     1
 71
     1
 91
        1
 92
        3
 72
     0
 73
     1
 93
        3
 10
-3.2420019869082282
 20
-135.78238186773999
 10
-5.7062772227992156
 20
-132.56185520177075
 10
-6.6175682909032361
 20
-133.53516212508509
 97
        1
330
362
 75
     0
 76
     0
 98
        0
  0
POLYLINE
  5
368
102
{ACAD_REACTORS
330
367
102
}
100
AcDbEntity
  8
0
370
     0
  6
Continuous
 62
     5
100
AcDb2dPolyline
 66
     1
 10
0.0
 20
0.0
 30
0.0
 70
   129
  0
VERTEX
  5
369
100
AcDbEntity
  8
0
  6
Continuous
 62
     5
100
AcDbVertex
100
AcDb2dVertex
 10
-98.139427
 20
-46.931503
 30
0.0
  0
VERTEX
  5
36A
100
AcDbEntity
  8
0
  6
Continuous
 62
     5
100
AcDbVertex
100
AcDb2dVertex
 10
-95.675152
 20
-50.152029
 30
0.0
  0
VERTEX
  5
36B
100
AcDbEntity
  8
0
  6
Continuous
 62
     5
100
AcDbVertex
100
AcDb2dVertex
 10
-94.763861
 20
-49.178722
 30
0.0
  0
SEQEND
  5
36C
100
AcDbEntity
  8
0
  6
Continuous
 62
     5
  0
HATCH
  5
367
100
AcDbEntity
  8
0
  6
Continuous
 62
     5
100
AcDbHatch
 10
0.0
 20
0.0
 30
0.0
210
0.0
220
0.0
230
1.0
  2
SOLID
 70
     1
 71
     1
 91
        1
 92
        3
 72
     0
 73
     1
 93
        3
 10
-98.13942701005567
 20
-46.931502727598087
 10
-95.675151774164689
 20
-50.152029393567311
 10
-94.763860706060669
 20
-49.178722470252985
 97
        1
330
368
 75
     0
 76
     0
 98
        0
  0
ENDBLK
  5
36D
100
AcDbEntity
  8
0
100
AcDbBlockEnd
  0
BLOCK
  5
388
100
AcDbEntity
  8
0
100
AcDbBlockBegin
  2
*D19
 70
     1
 10
0.0
 20
0.0
 30
0.0
  3
*D19
  1

  0
TEXT
  5
389
100
AcDbEntity
  8
0
  6
Continuous
 62
     5
100
AcDbText
 10
-130.350028
 20
-64.644154
 30
0.0
 40
2.7025
  1
%%c110
 72
     5
 11
-121.087659
 21
-64.644154
 31
0.0
100
AcDbText
  0
POLYLINE
  5
38A
100
AcDbEntity
  8
0
370
     0
  6
Continuous
 62
     5
100
AcDb2dPolyline
 66
     1
 10
0.0
 20
0.0
 30
0.0
 70
   128
  0
VERTEX
  5
38B
100
AcDbEntity
  8
0
  6
Continuous
 62
     5
100
AcDbVertex
100
AcDb2dVertex
 10
-3.851687
 20
-111.542871
 30
0.0
  0
VERTEX
  5
38C
100
AcDbEntity
  8
0
  6
Continuous
 62
     5
100
AcDbVertex
100
AcDb2dVertex
 10
-50.681772
 20
-91.345268
 30
0.0
  0
VERTEX
  5
38D
100
AcDbEntity
  8
0
  6
Continuous
 62
     5
100
AcDbVertex
100
AcDb2dVertex
 10
-50.681772
 20
-91.345268
 30
0.0
  0
VERTEX
  5
38E
100
AcDbEntity
  8
0
  6
Continuous
 62
     5
100
AcDbVertex
100
AcDb2dVertex
 10
-97.511857
 20
-71.147665
 30
0.0
  0
SEQEND
  5
38F
100
AcDbEntity
  8
0
  6
Continuous
 62
     5
  0
POLYLINE
  5
390
100
AcDbEntity
  8
0
370
     0
  6
Continuous
 62
     5
100
AcDb2dPolyline
 66
     1
 10
0.0
 20
0.0
 30
0.0
 70
   128
  0
VERTEX
  5
391
100
AcDbEntity
  8
0
  6
Continuous
 62
     5
100
AcDbVertex
100
AcDb2dVertex
 10
-101.184804
 20
-69.56354
 30
0.0
  0
VERTEX
  5
392
100
AcDbEntity
  8
0
  6
Continuous
 62
     5
100
AcDbVertex
100
AcDb2dVertex
 10
-104.857752
 20
-67.979414
 30
0.0
  0
VERTEX
  5
393
100
AcDbEntity
  8
0
  6
Continuous
 62
     5
100
AcDbVertex
100
AcDb2dVertex
 10
-115.587659
 20
-63.351654
 30
0.0
  0
VERTEX
  5
394
100
AcDbEntity
  8
0
  6
Continuous
 62
     5
100
AcDbVertex
100
AcDb2dVertex
 10
-119.587659
 20
-63.351654
 30
0.0
  0
SEQEND
  5
395
100
AcDbEntity
  8
0
  6
Continuous
 62
     5
  0
POLYLINE
  5
397
102
{ACAD_REACTORS
330
396
102
}
100
AcDbEntity
  8
0
370
     0
  6
Continuous
 62
     5
100
AcDb2dPolyline
 66
     1
 10
0.0
 20
0.0
 30
0.0
 70
   129
  0
VERTEX
  5
398
100
AcDbEntity
  8
0
  6
Continuous
 62
     5
100
AcDbVertex
100
AcDb2dVertex
 10
-0.178739
 20
-113.126997
 30
0.0
  0
VERTEX
  5
399
100
AcDbEntity
  8
0
  6
Continuous
 62
     5
100
AcDbVertex
100
AcDb2dVertex
 10
-3.587666
 20
-110.930713
 30
0.0
  0
VERTEX
  5
39A
100
AcDbEntity
  8
0
  6
Continuous
 62
     5
100
AcDbVertex
100
AcDb2dVertex
 10
-4.115708
 20
-112.155029
 30
0.0
  0
SEQEND
  5
39B
100
AcDbEntity
  8
0
  6
Continuous
 62
     5
  0
HATCH
  5
396
100
AcDbEntity
  8
0
  6
Continuous
 62
     5
100
AcDbHatch
 10
0.0
 20
0.0
 30
0.0
210
0.0
220
0.0
230
1.0
  2
SOLID
 70
     1
 71
     1
 91
        1
 92
        3
 72
     0
 73
     1
 93
        3
 10
-0.1787394345700122
 20
-113.12699716873119
 10
-3.5876663004173932
 20
-110.93071347399857
 10
-4.1157082086632517
 20
-112.15502941398867
 97
        1
330
397
 75
     0
 76
     0
 98
        0
  0
POLYLINE
  5
39D
102
{ACAD_REACTORS
330
39C
102
}
100
AcDbEntity
  8
0
370
     0
  6
Continuous
 62
     5
100
AcDb2dPolyline
 66
     1
 10
0.0
 20
0.0
 30
0.0
 70
   129
  0
VERTEX
  5
39E
100
AcDbEntity
  8
0
  6
Continuous
 62
     5
100
AcDbVertex
100
AcDb2dVertex
 10
-101.184804
 20
-69.56354
 30
0.0
  0
VERTEX
  5
39F
100
AcDbEntity
  8
0
  6
Continuous
 62
     5
100
AcDbVertex
100
AcDb2dVertex
 10
-97.775878
 20
-71.759823
 30
0.0
  0
VERTEX
  5
3A0
100
AcDbEntity
  8
0
  6
Continuous
 62
     5
100
AcDbVertex
100
AcDb2dVertex
 10
-97.247836
 20
-70.535507
 30
0.0
  0
SEQEND
  5
3A1
100
AcDbEntity
  8
0
  6
Continuous
 62
     5
  0
HATCH
  5
39C
100
AcDbEntity
  8
0
  6
Continuous
 62
     5
100
AcDbHatch
 10
0.0
 20
0.0
 30
0.0
210
0.0
220
0.0
230
1.0
  2
SOLID
 70
     1
 71
     1
 91
        1
 92
        3
 72
     0
 73
     1
 93
        3
 10
-101.18480448375365
 20
-69.563539738448114
 10
-97.775877617906275
 20
-71.759823433180742
 10
-97.247835709660421
 20
-70.535507493190636
 97
        1
330
39D
 75
     0
 76
     0
 98
        0
  0
ENDBLK
  5
3A2
100
AcDbEntity
  8
0
100
AcDbBlockEnd
  0
BLOCK
  5
3A6
100
AcDbEntity
  8
0
100
AcDbBlockBegin
  2
*E20
 70
     1
 10
0.0
 20
0.0
 30
0.0
  3
*E20
  1

  0
POLYLINE
  5
3A7
100
AcDbEntity
  8
0
370
    50
  6
Continuous
 62
     7
100
AcDb2dPolyline
 66
     1
 10
0.0
 20
0.0
 30
0.0
1001
ACAD
1000
TCW40_DEV_WIDTH
1002
{
1040
0.019685
1002
}
  0
VERTEX
  5
3A8
100
AcDbEntity
  8
0
  6
Continuous
 62
     7
100
AcDbVertex
100
AcDb2dVertex
 10
-215.738628
 20
-73.183096
 30
0.0
  0
VERTEX
  5
3A9
100
AcDbEntity
  8
0
  6
Continuous
 62
     7
100
AcDbVertex
100
AcDb2dVertex
 10
-214.939635
 20
-74.499984
 30
0.0
  0
VERTEX
  5
3AA
100
AcDbEntity
  8
0
  6
Continuous
 62
     7
100
AcDbVertex
100
AcDb2dVertex
 10
-214.157586
 20
-75.828375
 30
0.0
  0
VERTEX
  5
3AB
100
AcDbEntity
  8
0
  6
Continuous
 62
     7
100
AcDbVertex
100
AcDb2dVertex
 10
-213.392644
 20
-77.167905
 30
0.0
  0
VERTEX
  5
3AC
100
AcDbEntity
  8
0
  6
Continuous
 62
     7
100
AcDbVertex
100
AcDb2dVertex
 10
-212.644971
 20
-78.518213
 30
0.0
  0
VERTEX
  5
3AD
100
AcDbEntity
  8
0
  6
Continuous
 62
     7
100
AcDbVertex
100
AcDb2dVertex
 10
-211.914731
 20
-79.878933
 30
0.0
  0
VERTEX
  5
3AE
100
AcDbEntity
  8
0
  6
Continuous
 62
     7
100
AcDbVertex
100
AcDb2dVertex
 10
-211.202084
 20
-81.249704
 30
0.0
  0
VERTEX
  5
3AF
100
AcDbEntity
  8
0
  6
Continuous
 62
     7
100
AcDbVertex
100
AcDb2dVertex
 10
-210.507194
 20
-82.630162
 30
0.0
  0
VERTEX
  5
3B0
100
AcDbEntity
  8
0
  6
Continuous
 62
     7
100
AcDbVertex
100
AcDb2dVertex
 10
-209.830223
 20
-84.019944
 30
0.0
  0
VERTEX
  5
3B1
100
AcDbEntity
  8
0
  6
Continuous
 62
     7
100
AcDbVertex
100
AcDb2dVertex
 10
-209.171334
 20
-85.418687
 30
0.0
  0
VERTEX
  5
3B2
100
AcDbEntity
  8
0
  6
Continuous
 62
     7
100
AcDbVertex
100
AcDb2dVertex
 10
-208.53069
 20
-86.826027
 30
0.0
  0
VERTEX
  5
3B3
100
AcDbEntity
  8
0
  6
Continuous
 62
     7
100
AcDbVertex
100
AcDb2dVertex
 10
-207.908451
 20
-88.241602
 30
0.0
  0
VERTEX
  5
3B4
100
AcDbEntity
  8
0
  6
Continuous
 62
     7
100
AcDbVertex
100
AcDb2dVertex
 10
-207.304782
 20
-89.665049
 30
0.0
  0
VERTEX
  5
3B5
100
AcDbEntity
  8
0
  6
Continuous
 62
     7
100
AcDbVertex
100
AcDb2dVertex
 10
-206.719844
 20
-91.096003
 30
0.0
  0
VERTEX
  5
3B6
100
AcDbEntity
  8
0
  6
Continuous
 62
     7
100
AcDbVertex
100
AcDb2dVertex
 10
-206.1538
 20
-92.534103
 30
0.0
  0
VERTEX
  5
3B7
100
AcDbEntity
  8
0
  6
Continuous
 62
     7
100
AcDbVertex
100
AcDb2dVertex
 10
-205.606813
 20
-93.978984
 30
0.0
  0
VERTEX
  5
3B8
100
AcDbEntity
  8
0
  6
Continuous
 62
     7
100
AcDbVertex
100
AcDb2dVertex
 10
-205.079044
 20
-95.430285
 30
0.0
  0
VERTEX
  5
3B9
100
AcDbEntity
  8
0
  6
Continuous
 62
     7
100
AcDbVertex
100
AcDb2dVertex
 10
-204.570657
 20
-96.887641
 30
0.0
  0
VERTEX
  5
3BA
100
AcDbEntity
  8
0
  6
Continuous
 62
     7
100
AcDbVertex
100
AcDb2dVertex
 10
-204.081814
 20
-98.350689
 30
0.0
  0
VERTEX
  5
3BB
100
AcDbEntity
  8
0
  6
Continuous
 62
     7
100
AcDbVertex
100
AcDb2dVertex
 10
-203.612677
 20
-99.819067
 30
0.0
  0
VERTEX
  5
3BC
100
AcDbEntity
  8
0
  6
Continuous
 62
     7
100
AcDbVertex
100
AcDb2dVertex
 10
-203.163408
 20
-101.29241
 30
0.0
  0
VERTEX
  5
3BD
100
AcDbEntity
  8
0
  6
Continuous
 62
     7
100
AcDbVertex
100
AcDb2dVertex
 10
-202.814919
 20
-102.499327
 30
0.0
  0
VERTEX
  5
3BE
100
AcDbEntity
  8
0
  6
Continuous
 62
     7
100
AcDbVertex
100
AcDb2dVertex
 10
-202.485868
 20
-103.713182
 30
0.0
  0
VERTEX
  5
3BF
100
AcDbEntity
  8
0
  6
Continuous
 62
     7
100
AcDbVertex
100
AcDb2dVertex
 10
-202.176316
 20
-104.933492
 30
0.0
  0
VERTEX
  5
3C0
100
AcDbEntity
  8
0
  6
Continuous
 62
     7
100
AcDbVertex
100
AcDb2dVertex
 10
-201.886328
 20
-106.15977
 30
0.0
  0
VERTEX
  5
3C1
100
AcDbEntity
  8
0
  6
Continuous
 62
     7
100
AcDbVertex
100
AcDb2dVertex
 10
-201.615964
 20
-107.391533
 30
0.0
  0
VERTEX
  5
3C2
100
AcDbEntity
  8
0
  6
Continuous
 62
     7
100
AcDbVertex
100
AcDb2dVertex
 10
-201.365288
 20
-108.628295
 30
0.0
  0
VERTEX
  5
3C3
100
AcDbEntity
  8
0
  6
Continuous
 62
     7
100
AcDbVertex
100
AcDb2dVertex
 10
-201.134362
 20
-109.869571
 30
0.0
  0
VERTEX
  5
3C4
100
AcDbEntity
  8
0
  6
Continuous
 62
     7
100
AcDbVertex
100
AcDb2dVertex
 10
-200.923247
 20
-111.114876
 30
0.0
  0
VERTEX
  5
3C5
100
AcDbEntity
  8
0
  6
Continuous
 62
     7
100
AcDbVertex
100
AcDb2dVertex
 10
-200.732008
 20
-112.363725
 30
0.0
  0
VERTEX
  5
3C6
100
AcDbEntity
  8
0
  6
Continuous
 62
     7
100
AcDbVertex
100
AcDb2dVertex
 10
-200.560706
 20
-113.615633
 30
0.0
  0
VERTEX
  5
3C7
100
AcDbEntity
  8
0
  6
Continuous
 62
     7
100
AcDbVertex
100
AcDb2dVertex
 10
-200.409403
 20
-114.870116
 30
0.0
  0
VERTEX
  5
3C8
100
AcDbEntity
  8
0
  6
Continuous
 62
     7
100
AcDbVertex
100
AcDb2dVertex
 10
-200.278163
 20
-116.126688
 30
0.0
  0
VERTEX
  5
3C9
100
AcDbEntity
  8
0
  6
Continuous
 62
     7
100
AcDbVertex
100
AcDb2dVertex
 10
-200.167047
 20
-117.384864
 30
0.0
  0
VERTEX
  5
3CA
100
AcDbEntity
  8
0
  6
Continuous
 62
     7
100
AcDbVertex
100
AcDb2dVertex
 10
-200.076117
 20
-118.644159
 30
0.0
  0
VERTEX
  5
3CB
100
AcDbEntity
  8
0
  6
Continuous
 62
     7
100
AcDbVertex
100
AcDb2dVertex
 10
-200.005437
 20
-119.904089
 30
0.0
  0
VERTEX
  5
3CC
100
AcDbEntity
  8
0
  6
Continuous
 62
     7
100
AcDbVertex
100
AcDb2dVertex
 10
-199.955069
 20
-121.164167
 30
0.0
  0
VERTEX
  5
3CD
100
AcDbEntity
  8
0
  6
Continuous
 62
     7
100
AcDbVertex
100
AcDb2dVertex
 10
-199.925074
 20
-122.423911
 30
0.0
  0
VERTEX
  5
3CE
100
AcDbEntity
  8
0
  6
Continuous
 62
     7
100
AcDbVertex
100
AcDb2dVertex
 10
-199.915516
 20
-123.682833
 30
0.0
  0
VERTEX
  5
3CF
100
AcDbEntity
  8
0
  6
Continuous
 62
     7
100
AcDbVertex
100
AcDb2dVertex
 10
-199.926458
 20
-124.94045
 30
0.0
  0
VERTEX
  5
3D0
100
AcDbEntity
  8
0
  6
Continuous
 62
     7
100
AcDbVertex
100
AcDb2dVertex
 10
-199.95796
 20
-126.196276
 30
0.0
  0
SEQEND
  5
3D1
100
AcDbEntity
  8
0
  6
Continuous
 62
     7
  0
ENDBLK
  5
3D2
100
AcDbEntity
  8
0
100
AcDbBlockEnd
  0
BLOCK
  5
3DF
100
AcDbEntity
  8
0
100
AcDbBlockBegin
  2
*E21
 70
     1
 10
0.0
 20
0.0
 30
0.0
  3
*E21
  1

  0
POLYLINE
  5
3E0
100
AcDbEntity
  8
0
370
    50
  6
Continuous
 62
     7
100
AcDb2dPolyline
 66
     1
 10
0.0
 20
0.0
 30
0.0
1001
ACAD
1000
TCW40_DEV_WIDTH
1002
{
1040
0.019685
1002
}
  0
VERTEX
  5
3E1
100
AcDbEntity
  8
0
  6
Continuous
 62
     7
100
AcDbVertex
100
AcDb2dVertex
 10
-232.837154
 20
-95.108221
 30
0.0
  0
VERTEX
  5
3E2
100
AcDbEntity
  8
0
  6
Continuous
 62
     7
100
AcDbVertex
100
AcDb2dVertex
 10
-232.776535
 20
-95.212448
 30
0.0
  0
VERTEX
  5
3E3
100
AcDbEntity
  8
0
  6
Continuous
 62
     7
100
AcDbVertex
100
AcDb2dVertex
 10
-232.714912
 20
-95.316139
 30
0.0
  0
VERTEX
  5
3E4
100
AcDbEntity
  8
0
  6
Continuous
 62
     7
100
AcDbVertex
100
AcDb2dVertex
 10
-232.652294
 20
-95.419282
 30
0.0
  0
VERTEX
  5
3E5
100
AcDbEntity
  8
0
  6
Continuous
 62
     7
100
AcDbVertex
100
AcDb2dVertex
 10
-232.58869
 20
-95.521864
 30
0.0
  0
VERTEX
  5
3E6
100
AcDbEntity
  8
0
  6
Continuous
 62
     7
100
AcDbVertex
100
AcDb2dVertex
 10
-232.524108
 20
-95.623871
 30
0.0
  0
VERTEX
  5
3E7
100
AcDbEntity
  8
0
  6
Continuous
 62
     7
100
AcDbVertex
100
AcDb2dVertex
 10
-232.45856
 20
-95.725291
 30
0.0
  0
VERTEX
  5
3E8
100
AcDbEntity
  8
0
  6
Continuous
 62
     7
100
AcDbVertex
100
AcDb2dVertex
 10
-232.392052
 20
-95.826111
 30
0.0
  0
VERTEX
  5
3E9
100
AcDbEntity
  8
0
  6
Continuous
 62
     7
100
AcDbVertex
100
AcDb2dVertex
 10
-232.324596
 20
-95.926317
 30
0.0
  0
VERTEX
  5
3EA
100
AcDbEntity
  8
0
  6
Continuous
 62
     7
100
AcDbVertex
100
AcDb2dVertex
 10
-232.256199
 20
-96.025896
 30
0.0
  0
VERTEX
  5
3EB
100
AcDbEntity
  8
0
  6
Continuous
 62
     7
100
AcDbVertex
100
AcDb2dVertex
 10
-232.186871
 20
-96.124837
 30
0.0
  0
VERTEX
  5
3EC
100
AcDbEntity
  8
0
  6
Continuous
 62
     7
100
AcDbVertex
100
AcDb2dVertex
 10
-232.116622
 20
-96.223125
 30
0.0
  0
VERTEX
  5
3ED
100
AcDbEntity
  8
0
  6
Continuous
 62
     7
100
AcDbVertex
100
AcDb2dVertex
 10
-232.04546
 20
-96.320748
 30
0.0
  0
VERTEX
  5
3EE
100
AcDbEntity
  8
0
  6
Continuous
 62
     7
100
AcDbVertex
100
AcDb2dVertex
 10
-231.973395
 20
-96.417692
 30
0.0
  0
VERTEX
  5
3EF
100
AcDbEntity
  8
0
  6
Continuous
 62
     7
100
AcDbVertex
100
AcDb2dVertex
 10
-231.900435
 20
-96.513945
 30
0.0
  0
VERTEX
  5
3F0
100
AcDbEntity
  8
0
  6
Continuous
 62
     7
100
AcDbVertex
100
AcDb2dVertex
 10
-231.826591
 20
-96.609494
 30
0.0
  0
VERTEX
  5
3F1
100
AcDbEntity
  8
0
  6
Continuous
 62
     7
100
AcDbVertex
100
AcDb2dVertex
 10
-231.75187
 20
-96.704326
 30
0.0
  0
VERTEX
  5
3F2
100
AcDbEntity
  8
0
  6
Continuous
 62
     7
100
AcDbVertex
100
AcDb2dVertex
 10
-231.676283
 20
-96.798428
 30
0.0
  0
VERTEX
  5
3F3
100
AcDbEntity
  8
0
  6
Continuous
 62
     7
100
AcDbVertex
100
AcDb2dVertex
 10
-231.599839
 20
-96.891786
 30
0.0
  0
VERTEX
  5
3F4
100
AcDbEntity
  8
0
  6
Continuous
 62
     7
100
AcDbVertex
100
AcDb2dVertex
 10
-231.522546
 20
-96.984389
 30
0.0
  0
VERTEX
  5
3F5
100
AcDbEntity
  8
0
  6
Continuous
 62
     7
100
AcDbVertex
100
AcDb2dVertex
 10
-231.444414
 20
-97.076222
 30
0.0
  0
VERTEX
  5
3F6
100
AcDbEntity
  8
0
  6
Continuous
 62
     7
100
AcDbVertex
100
AcDb2dVertex
 10
-231.419593
 20
-97.104709
 30
0.0
  0
VERTEX
  5
3F7
100
AcDbEntity
  8
0
  6
Continuous
 62
     7
100
AcDbVertex
100
AcDb2dVertex
 10
-231.393873
 20
-97.13333
 30
0.0
  0
VERTEX
  5
3F8
100
AcDbEntity
  8
0
  6
Continuous
 62
     7
100
AcDbVertex
100
AcDb2dVertex
 10
-231.367281
 20
-97.161906
 30
0.0
  0
VERTEX
  5
3F9
100
AcDbEntity
  8
0
  6
Continuous
 62
     7
100
AcDbVertex
100
AcDb2dVertex
 10
-231.339845
 20
-97.190262
 30
0.0
  0
VERTEX
  5
3FA
100
AcDbEntity
  8
0
  6
Continuous
 62
     7
100
AcDbVertex
100
AcDb2dVertex
 10
-231.311593
 20
-97.218221
 30
0.0
  0
VERTEX
  5
3FB
100
AcDbEntity
  8
0
  6
Continuous
 62
     7
100
AcDbVertex
100
AcDb2dVertex
 10
-231.282552
 20
-97.245606
 30
0.0
  0
VERTEX
  5
3FC
100
AcDbEntity
  8
0
  6
Continuous
 62
     7
100
AcDbVertex
100
AcDb2dVertex
 10
-231.25275
 20
-97.27224
 30
0.0
  0
VERTEX
  5
3FD
100
AcDbEntity
  8
0
  6
Continuous
 62
     7
100
AcDbVertex
100
AcDb2dVertex
 10
-231.222215
 20
-97.297948
 30
0.0
  0
VERTEX
  5
3FE
100
AcDbEntity
  8
0
  6
Continuous
 62
     7
100
AcDbVertex
100
AcDb2dVertex
 10
-231.190973
 20
-97.322551
 30
0.0
  0
VERTEX
  5
3FF
100
AcDbEntity
  8
0
  6
Continuous
 62
     7
100
AcDbVertex
100
AcDb2dVertex
 10
-231.159053
 20
-97.345875
 30
0.0
  0
VERTEX
  5
400
100
AcDbEntity
  8
0
  6
Continuous
 62
     7
100
AcDbVertex
100
AcDb2dVertex
 10
-231.126482
 20
-97.367741
 30
0.0
  0
VERTEX
  5
401
100
AcDbEntity
  8
0
  6
Continuous
 62
     7
100
AcDbVertex
100
AcDb2dVertex
 10
-231.093287
 20
-97.387973
 30
0.0
  0
VERTEX
  5
402
100
AcDbEntity
  8
0
  6
Continuous
 62
     7
100
AcDbVertex
100
AcDb2dVertex
 10
-231.059497
 20
-97.406395
 30
0.0
  0
VERTEX
  5
403
100
AcDbEntity
  8
0
  6
Continuous
 62
     7
100
AcDbVertex
100
AcDb2dVertex
 10
-231.025138
 20
-97.42283
 30
0.0
  0
VERTEX
  5
404
100
AcDbEntity
  8
0
  6
Continuous
 62
     7
100
AcDbVertex
100
AcDb2dVertex
 10
-230.990239
 20
-97.437102
 30
0.0
  0
VERTEX
  5
405
100
AcDbEntity
  8
0
  6
Continuous
 62
     7
100
AcDbVertex
100
AcDb2dVertex
 10
-230.954827
 20
-97.449033
 30
0.0
  0
VERTEX
  5
406
100
AcDbEntity
  8
0
  6
Continuous
 62
     7
100
AcDbVertex
100
AcDb2dVertex
 10
-230.918929
 20
-97.458447
 30
0.0
  0
VERTEX
  5
407
100
AcDbEntity
  8
0
  6
Continuous
 62
     7
100
AcDbVertex
100
AcDb2dVertex
 10
-230.882574
 20
-97.465168
 30
0.0
  0
VERTEX
  5
408
100
AcDbEntity
  8
0
  6
Continuous
 62
     7
100
AcDbVertex
100
AcDb2dVertex
 10
-230.845787
 20
-97.469018
 30
0.0
  0
VERTEX
  5
409
100
AcDbEntity
  8
0
  6
Continuous
 62
     7
100
AcDbVertex
100
AcDb2dVertex
 10
-230.808599
 20
-97.469822
 30
0.0
  0
VERTEX
  5
40A
100
AcDbEntity
  8
0
  6
Continuous
 62
     7
100
AcDbVertex
100
AcDb2dVertex
 10
-230.762515
 20
-97.467574
 30
0.0
  0
VERTEX
  5
40B
100
AcDbEntity
  8
0
  6
Continuous
 62
     7
100
AcDbVertex
100
AcDb2dVertex
 10
-230.716394
 20
-97.462807
 30
0.0
  0
VERTEX
  5
40C
100
AcDbEntity
  8
0
  6
Continuous
 62
     7
100
AcDbVertex
100
AcDb2dVertex
 10
-230.670334
 20
-97.455607
 30
0.0
  0
VERTEX
  5
40D
100
AcDbEntity
  8
0
  6
Continuous
 62
     7
100
AcDbVertex
100
AcDb2dVertex
 10
-230.624431
 20
-97.446064
 30
0.0
  0
VERTEX
  5
40E
100
AcDbEntity
  8
0
  6
Continuous
 62
     7
100
AcDbVertex
100
AcDb2dVertex
 10
-230.578783
 20
-97.434263
 30
0.0
  0
VERTEX
  5
40F
100
AcDbEntity
  8
0
  6
Continuous
 62
     7
100
AcDbVertex
100
AcDb2dVertex
 10
-230.533488
 20
-97.420293
 30
0.0
  0
VERTEX
  5
410
100
AcDbEntity
  8
0
  6
Continuous
 62
     7
100
AcDbVertex
100
AcDb2dVertex
 10
-230.488644
 20
-97.404241
 30
0.0
  0
VERTEX
  5
411
100
AcDbEntity
  8
0
  6
Continuous
 62
     7
100
AcDbVertex
100
AcDb2dVertex
 10
-230.444348
 20
-97.386195
 30
0.0
  0
VERTEX
  5
412
100
AcDbEntity
  8
0
  6
Continuous
 62
     7
100
AcDbVertex
100
AcDb2dVertex
 10
-230.400699
 20
-97.366242
 30
0.0
  0
VERTEX
  5
413
100
AcDbEntity
  8
0
  6
Continuous
 62
     7
100
AcDbVertex
100
AcDb2dVertex
 10
-230.357793
 20
-97.34447
 30
0.0
  0
VERTEX
  5
414
100
AcDbEntity
  8
0
  6
Continuous
 62
     7
100
AcDbVertex
100
AcDb2dVertex
 10
-230.315728
 20
-97.320966
 30
0.0
  0
VERTEX
  5
415
100
AcDbEntity
  8
0
  6
Continuous
 62
     7
100
AcDbVertex
100
AcDb2dVertex
 10
-230.274603
 20
-97.295818
 30
0.0
  0
VERTEX
  5
416
100
AcDbEntity
  8
0
  6
Continuous
 62
     7
100
AcDbVertex
100
AcDb2dVertex
 10
-230.234514
 20
-97.269113
 30
0.0
  0
VERTEX
  5
417
100
AcDbEntity
  8
0
  6
Continuous
 62
     7
100
AcDbVertex
100
AcDb2dVertex
 10
-230.195559
 20
-97.240939
 30
0.0
  0
VERTEX
  5
418
100
AcDbEntity
  8
0
  6
Continuous
 62
     7
100
AcDbVertex
100
AcDb2dVertex
 10
-230.157836
 20
-97.211384
 30
0.0
  0
VERTEX
  5
419
100
AcDbEntity
  8
0
  6
Continuous
 62
     7
100
AcDbVertex
100
AcDb2dVertex
 10
-230.121443
 20
-97.180534
 30
0.0
  0
VERTEX
  5
41A
100
AcDbEntity
  8
0
  6
Continuous
 62
     7
100
AcDbVertex
100
AcDb2dVertex
 10
-230.086478
 20
-97.148478
 30
0.0
  0
VERTEX
  5
41B
100
AcDbEntity
  8
0
  6
Continuous
 62
     7
100
AcDbVertex
100
AcDb2dVertex
 10
-230.053037
 20
-97.115303
 30
0.0
  0
VERTEX
  5
41C
100
AcDbEntity
  8
0
  6
Continuous
 62
     7
100
AcDbVertex
100
AcDb2dVertex
 10
-230.021219
 20
-97.081096
 30
0.0
  0
VERTEX
  5
41D
100
AcDbEntity
  8
0
  6
Continuous
 62
     7
100
AcDbVertex
100
AcDb2dVertex
 10
-229.991121
 20
-97.045945
 30
0.0
  0
VERTEX
  5
41E
100
AcDbEntity
  8
0
  6
Continuous
 62
     7
100
AcDbVertex
100
AcDb2dVertex
 10
-229.920676
 20
-96.958431
 30
0.0
  0
VERTEX
  5
41F
100
AcDbEntity
  8
0
  6
Continuous
 62
     7
100
AcDbVertex
100
AcDb2dVertex
 10
-229.851351
 20
-96.868998
 30
0.0
  0
VERTEX
  5
420
100
AcDbEntity
  8
0
  6
Continuous
 62
     7
100
AcDbVertex
100
AcDb2dVertex
 10
-229.783195
 20
-96.777757
 30
0.0
  0
VERTEX
  5
421
100
AcDbEntity
  8
0
  6
Continuous
 62
     7
100
AcDbVertex
100
AcDb2dVertex
 10
-229.716259
 20
-96.684821
 30
0.0
  0
VERTEX
  5
422
100
AcDbEntity
  8
0
  6
Continuous
 62
     7
100
AcDbVertex
100
AcDb2dVertex
 10
-229.650593
 20
-96.590303
 30
0.0
  0
VERTEX
  5
423
100
AcDbEntity
  8
0
  6
Continuous
 62
     7
100
AcDbVertex
100
AcDb2dVertex
 10
-229.586247
 20
-96.494314
 30
0.0
  0
VERTEX
  5
424
100
AcDbEntity
  8
0
  6
Continuous
 62
     7
100
AcDbVertex
100
AcDb2dVertex
 10
-229.523272
 20
-96.396967
 30
0.0
  0
VERTEX
  5
425
100
AcDbEntity
  8
0
  6
Continuous
 62
     7
100
AcDbVertex
100
AcDb2dVertex
 10
-229.461718
 20
-96.298374
 30
0.0
  0
VERTEX
  5
426
100
AcDbEntity
  8
0
  6
Continuous
 62
     7
100
AcDbVertex
100
AcDb2dVertex
 10
-229.401635
 20
-96.198648
 30
0.0
  0
VERTEX
  5
427
100
AcDbEntity
  8
0
  6
Continuous
 62
     7
100
AcDbVertex
100
AcDb2dVertex
 10
-229.343073
 20
-96.097901
 30
0.0
  0
VERTEX
  5
428
100
AcDbEntity
  8
0
  6
Continuous
 62
     7
100
AcDbVertex
100
AcDb2dVertex
 10
-229.286084
 20
-95.996246
 30
0.0
  0
VERTEX
  5
429
100
AcDbEntity
  8
0
  6
Continuous
 62
     7
100
AcDbVertex
100
AcDb2dVertex
 10
-229.230716
 20
-95.893794
 30
0.0
  0
VERTEX
  5
42A
100
AcDbEntity
  8
0
  6
Continuous
 62
     7
100
AcDbVertex
100
AcDb2dVertex
 10
-229.17702
 20
-95.790658
 30
0.0
  0
VERTEX
  5
42B
100
AcDbEntity
  8
0
  6
Continuous
 62
     7
100
AcDbVertex
100
AcDb2dVertex
 10
-229.125048
 20
-95.68695
 30
0.0
  0
VERTEX
  5
42C
100
AcDbEntity
  8
0
  6
Continuous
 62
     7
100
AcDbVertex
100
AcDb2dVertex
 10
-229.074848
 20
-95.582783
 30
0.0
  0
VERTEX
  5
42D
100
AcDbEntity
  8
0
  6
Continuous
 62
     7
100
AcDbVertex
100
AcDb2dVertex
 10
-229.026471
 20
-95.478269
 30
0.0
  0
VERTEX
  5
42E
100
AcDbEntity
  8
0
  6
Continuous
 62
     7
100
AcDbVertex
100
AcDb2dVertex
 10
-228.979967
 20
-95.373521
 30
0.0
  0
VERTEX
  5
42F
100
AcDbEntity
  8
0
  6
Continuous
 62
     7
100
AcDbVertex
100
AcDb2dVertex
 10
-228.935387
 20
-95.26865
 30
0.0
  0
VERTEX
  5
430
100
AcDbEntity
  8
0
  6
Continuous
 62
     7
100
AcDbVertex
100
AcDb2dVertex
 10
-228.892781
 20
-95.16377
 30
0.0
  0
VERTEX
  5
431
100
AcDbEntity
  8
0
  6
Continuous
 62
     7
100
AcDbVertex
100
AcDb2dVertex
 10
-228.852199
 20
-95.058992
 30
0.0
  0
SEQEND
  5
432
100
AcDbEntity
  8
0
  6
Continuous
 62
     7
  0
ENDBLK
  5
433
100
AcDbEntity
  8
0
100
AcDbBlockEnd
  0
BLOCK
  5
43E
100
AcDbEntity
  8
0
100
AcDbBlockBegin
  2
*D22
 70
     1
 10
0.0
 20
0.0
 30
0.0
  3
*D22
  1

  0
LINE
  5
43F
100
AcDbEntity
  8
0
370
     0
  6
Continuous
 62
     5
100
AcDbLine
 10
-270.95589
 20
-128.47018
 30
0.0
 11
-270.95589
 21
-138.827729
 31
0.0
  0
LINE
  5
440
100
AcDbEntity
  8
0
370
     0
  6
Continuous
 62
     5
100
AcDbLine
 10
-170.844989
 20
-128.26419
 30
0.0
 11
-170.844989
 21
-138.827729
 31
0.0
  0
POLYLINE
  5
441
100
AcDbEntity
  8
0
370
     0
  6
Continuous
 62
     5
100
AcDb2dPolyline
 66
     1
 10
0.0
 20
0.0
 30
0.0
 70
   128
  0
VERTEX
  5
442
100
AcDbEntity
  8
0
  6
Continuous
 62
     5
100
AcDbVertex
100
AcDb2dVertex
 10
-266.95589
 20
-135.827729
 30
0.0
  0
VERTEX
  5
443
100
AcDbEntity
  8
0
  6
Continuous
 62
     5
100
AcDbVertex
100
AcDb2dVertex
 10
-266.95589
 20
-135.827729
 30
0.0
  0
VERTEX
  5
444
100
AcDbEntity
  8
0
  6
Continuous
 62
     5
100
AcDbVertex
100
AcDb2dVertex
 10
-266.95589
 20
-135.827729
 30
0.0
  0
VERTEX
  5
445
100
AcDbEntity
  8
0
  6
Continuous
 62
     5
100
AcDbVertex
100
AcDb2dVertex
 10
-225.559074
 20
-135.827729
 30
0.0
  0
SEQEND
  5
446
100
AcDbEntity
  8
0
  6
Continuous
 62
     5
  0
POLYLINE
  5
447
100
AcDbEntity
  8
0
370
     0
  6
Continuous
 62
     5
100
AcDb2dPolyline
 66
     1
 10
0.0
 20
0.0
 30
0.0
 70
   128
  0
VERTEX
  5
448
100
AcDbEntity
  8
0
  6
Continuous
 62
     5
100
AcDbVertex
100
AcDb2dVertex
 10
-174.844989
 20
-135.827729
 30
0.0
  0
VERTEX
  5
449
100
AcDbEntity
  8
0
  6
Continuous
 62
     5
100
AcDbVertex
100
AcDb2dVertex
 10
-174.844989
 20
-135.827729
 30
0.0
  0
VERTEX
  5
44A
100
AcDbEntity
  8
0
  6
Continuous
 62
     5
100
AcDbVertex
100
AcDb2dVertex
 10
-174.844989
 20
-135.827729
 30
0.0
  0
VERTEX
  5
44B
100
AcDbEntity
  8
0
  6
Continuous
 62
     5
100
AcDbVertex
100
AcDb2dVertex
 10
-216.241806
 20
-135.827729
 30
0.0
  0
SEQEND
  5
44C
100
AcDbEntity
  8
0
  6
Continuous
 62
     5
  0
POLYLINE
  5
44E
102
{ACAD_REACTORS
330
44D
102
}
100
AcDbEntity
  8
0
370
     0
  6
Continuous
 62
     5
100
AcDb2dPolyline
 66
     1
 10
0.0
 20
0.0
 30
0.0
 70
   129
  0
VERTEX
  5
44F
100
AcDbEntity
  8
0
  6
Continuous
 62
     5
100
AcDbVertex
100
AcDb2dVertex
 10
-270.95589
 20
-135.827729
 30
0.0
  0
VERTEX
  5
450
100
AcDbEntity
  8
0
  6
Continuous
 62
     5
100
AcDbVertex
100
AcDb2dVertex
 10
-266.95589
 20
-136.494395
 30
0.0
  0
VERTEX
  5
451
100
AcDbEntity
  8
0
  6
Continuous
 62
     5
100
AcDbVertex
100
AcDb2dVertex
 10
-266.95589
 20
-135.161062
 30
0.0
  0
SEQEND
  5
452
100
AcDbEntity
  8
0
  6
Continuous
 62
     5
  0
HATCH
  5
44D
100
AcDbEntity
  8
0
  6
Continuous
 62
     5
100
AcDbHatch
 10
0.0
 20
0.0
 30
0.0
210
0.0
220
0.0
230
1.0
  2
SOLID
 70
     1
 71
     1
 91
        1
 92
        3
 72
     0
 73
     1
 93
        3
 10
-270.95589030605481
 20
-135.8277287463581
 10
-266.95589030605481
 20
-136.49439541302476
 10
-266.95589030605481
 20
-135.16106207969145
 97
        1
330
44E
 75
     0
 76
     0
 98
        0
  0
POLYLINE
  5
454
102
{ACAD_REACTORS
330
453
102
}
100
AcDbEntity
  8
0
370
     0
  6
Continuous
 62
     5
100
AcDb2dPolyline
 66
     1
 10
0.0
 20
0.0
 30
0.0
 70
   129
  0
VERTEX
  5
455
100
AcDbEntity
  8
0
  6
Continuous
 62
     5
100
AcDbVertex
100
AcDb2dVertex
 10
-170.844989
 20
-135.827729
 30
0.0
  0
VERTEX
  5
456
100
AcDbEntity
  8
0
  6
Continuous
 62
     5
100
AcDbVertex
100
AcDb2dVertex
 10
-174.844989
 20
-135.161062
 30
0.0
  0
VERTEX
  5
457
100
AcDbEntity
  8
0
  6
Continuous
 62
     5
100
AcDbVertex
100
AcDb2dVertex
 10
-174.844989
 20
-136.494395
 30
0.0
  0
SEQEND
  5
458
100
AcDbEntity
  8
0
  6
Continuous
 62
     5
  0
HATCH
  5
453
100
AcDbEntity
  8
0
  6
Continuous
 62
     5
100
AcDbHatch
 10
0.0
 20
0.0
 30
0.0
210
0.0
220
0.0
230
1.0
  2
SOLID
 70
     1
 71
     1
 91
        1
 92
        3
 72
     0
 73
     1
 93
        3
 10
-170.84498909117525
 20
-135.8277287463581
 10
-174.84498909117525
 20
-135.16106207969145
 10
-174.84498909117525
 20
-136.49439541302476
 97
        1
330
454
 75
     0
 76
     0
 98
        0
  0
TEXT
  5
459
100
AcDbEntity
  8
0
  6
Continuous
 62
     5
100
AcDbText
 10
-224.059074
 20
-137.120229
 30
0.0
 40
2.7025
  1
100
 72
     5
 11
-217.741806
 21
-137.120229
 31
0.0
100
AcDbText
  0
ENDBLK
  5
45A
100
AcDbEntity
  8
0
100
AcDbBlockEnd
  0
BLOCK
  5
45D
100
AcDbEntity
  8
0
100
AcDbBlockBegin
  2
*D23
 70
     1
 10
0.0
 20
0.0
 30
0.0
  3
*D23
  1

  0
LINE
  5
45E
100
AcDbEntity
  8
0
370
     0
  6
Continuous
 62
     5
100
AcDbLine
 10
-273.073859
 20
-126.146222
 30
0.0
 11
-291.464999
 21
-126.146222
 31
0.0
  0
LINE
  5
45F
100
AcDbEntity
  8
0
370
     0
  6
Continuous
 62
     5
100
AcDbLine
 10
-273.073859
 20
-73.000929
 30
0.0
 11
-291.464999
 21
-73.000929
 31
0.0
  0
POLYLINE
  5
460
100
AcDbEntity
  8
0
370
     0
  6
Continuous
 62
     5
100
AcDb2dPolyline
 66
     1
 10
0.0
 20
0.0
 30
0.0
 70
   128
  0
VERTEX
  5
461
100
AcDbEntity
  8
0
  6
Continuous
 62
     5
100
AcDbVertex
100
AcDb2dVertex
 10
-288.464999
 20
-122.146222
 30
0.0
  0
VERTEX
  5
462
100
AcDbEntity
  8
0
  6
Continuous
 62
     5
100
AcDbVertex
100
AcDb2dVertex
 10
-288.464999
 20
-122.146222
 30
0.0
  0
VERTEX
  5
463
100
AcDbEntity
  8
0
  6
Continuous
 62
     5
100
AcDbVertex
100
AcDb2dVertex
 10
-288.464999
 20
-122.146222
 30
0.0
  0
VERTEX
  5
464
100
AcDbEntity
  8
0
  6
Continuous
 62
     5
100
AcDbVertex
100
AcDb2dVertex
 10
-288.464999
 20
-102.111575
 30
0.0
  0
SEQEND
  5
465
100
AcDbEntity
  8
0
  6
Continuous
 62
     5
  0
POLYLINE
  5
466
100
AcDbEntity
  8
0
370
     0
  6
Continuous
 62
     5
100
AcDb2dPolyline
 66
     1
 10
0.0
 20
0.0
 30
0.0
 70
   128
  0
VERTEX
  5
467
100
AcDbEntity
  8
0
  6
Continuous
 62
     5
100
AcDbVertex
100
AcDb2dVertex
 10
-288.464999
 20
-77.000929
 30
0.0
  0
VERTEX
  5
468
100
AcDbEntity
  8
0
  6
Continuous
 62
     5
100
AcDbVertex
100
AcDb2dVertex
 10
-288.464999
 20
-77.000929
 30
0.0
  0
VERTEX
  5
469
100
AcDbEntity
  8
0
  6
Continuous
 62
     5
100
AcDbVertex
100
AcDb2dVertex
 10
-288.464999
 20
-77.000929
 30
0.0
  0
VERTEX
  5
46A
100
AcDbEntity
  8
0
  6
Continuous
 62
     5
100
AcDbVertex
100
AcDb2dVertex
 10
-288.464999
 20
-97.035575
 30
0.0
  0
SEQEND
  5
46B
100
AcDbEntity
  8
0
  6
Continuous
 62
     5
  0
POLYLINE
  5
46D
102
{ACAD_REACTORS
330
46C
102
}
100
AcDbEntity
  8
0
370
     0
  6
Continuous
 62
     5
100
AcDb2dPolyline
 66
     1
 10
0.0
 20
0.0
 30
0.0
 70
   129
  0
VERTEX
  5
46E
100
AcDbEntity
  8
0
  6
Continuous
 62
     5
100
AcDbVertex
100
AcDb2dVertex
 10
-288.464999
 20
-126.146222
 30
0.0
  0
VERTEX
  5
46F
100
AcDbEntity
  8
0
  6
Continuous
 62
     5
100
AcDbVertex
100
AcDb2dVertex
 10
-287.798332
 20
-122.146222
 30
0.0
  0
VERTEX
  5
470
100
AcDbEntity
  8
0
  6
Continuous
 62
     5
100
AcDbVertex
100
AcDb2dVertex
 10
-289.131665
 20
-122.146222
 30
0.0
  0
SEQEND
  5
471
100
AcDbEntity
  8
0
  6
Continuous
 62
     5
  0
HATCH
  5
46C
100
AcDbEntity
  8
0
  6
Continuous
 62
     5
100
AcDbHatch
 10
0.0
 20
0.0
 30
0.0
210
0.0
220
0.0
230
1.0
  2
SOLID
 70
     1
 71
     1
 91
        1
 92
        3
 72
     0
 73
     1
 93
        3
 10
-288.46499854322519
 20
-126.14622183874627
 10
-287.79833187655851
 20
-122.14622183874627
 10
-289.13166520989188
 20
-122.14622183874627
 97
        1
330
46D
 75
     0
 76
     0
 98
        0
  0
POLYLINE
  5
473
102
{ACAD_REACTORS
330
472
102
}
100
AcDbEntity
  8
0
370
     0
  6
Continuous
 62
     5
100
AcDb2dPolyline
 66
     1
 10
0.0
 20
0.0
 30
0.0
 70
   129
  0
VERTEX
  5
474
100
AcDbEntity
  8
0
  6
Continuous
 62
     5
100
AcDbVertex
100
AcDb2dVertex
 10
-288.464999
 20
-73.000929
 30
0.0
  0
VERTEX
  5
475
100
AcDbEntity
  8
0
  6
Continuous
 62
     5
100
AcDbVertex
100
AcDb2dVertex
 10
-289.131665
 20
-77.000929
 30
0.0
  0
VERTEX
  5
476
100
AcDbEntity
  8
0
  6
Continuous
 62
     5
100
AcDbVertex
100
AcDb2dVertex
 10
-287.798332
 20
-77.000929
 30
0.0
  0
SEQEND
  5
477
100
AcDbEntity
  8
0
  6
Continuous
 62
     5
  0
HATCH
  5
472
100
AcDbEntity
  8
0
  6
Continuous
 62
     5
100
AcDbHatch
 10
0.0
 20
0.0
 30
0.0
210
0.0
220
0.0
230
1.0
  2
SOLID
 70
     1
 71
     1
 91
        1
 92
        3
 72
     0
 73
     1
 93
        3
 10
-288.46499854322514
 20
-73.000928601217609
 10
-289.13166520989182
 20
-77.000928601217609
 10
-287.79833187655845
 20
-77.000928601217609
 97
        1
330
473
 75
     0
 76
     0
 98
        0
  0
TEXT
  5
478
100
AcDbEntity
  8
0
  6
Continuous
 62
     5
100
AcDbText
 10
-292.14961
 20
-100.866075
 30
0.0
 40
2.7025
  1
53,1
 72
     5
 11
-284.780388
 21
-100.866075
 31
0.0
100
AcDbText
  0
ENDBLK
  5
479
100
AcDbEntity
  8
0
100
AcDbBlockEnd
  0
BLOCK
  5
4AF
100
AcDbEntity
  8
0
100
AcDbBlockBegin
  2
*D24
 70
     1
 10
0.0
 20
0.0
 30
0.0
  3
*D24
  1

  0
LINE
  5
4B0
100
AcDbEntity
  8
0
370
     0
  6
Continuous
 62
     5
100
AcDbLine
 10
174.054159
 20
-57.752778
 30
0.0
 11
174.054159
 21
-43.034748
 31
0.0
  0
LINE
  5
4B1
100
AcDbEntity
  8
0
370
     0
  6
Continuous
 62
     5
100
AcDbLine
 10
164.190828
 20
-57.404935
 30
0.0
 11
164.190828
 21
-43.034748
 31
0.0
  0
POLYLINE
  5
4B2
100
AcDbEntity
  8
0
370
     0
  6
Continuous
 62
     5
100
AcDb2dPolyline
 66
     1
 10
0.0
 20
0.0
 30
0.0
 70
   128
  0
VERTEX
  5
4B3
100
AcDbEntity
  8
0
  6
Continuous
 62
     5
100
AcDbVertex
100
AcDb2dVertex
 10
182.054159
 20
-46.034748
 30
0.0
  0
VERTEX
  5
4B4
100
AcDbEntity
  8
0
  6
Continuous
 62
     5
100
AcDbVertex
100
AcDb2dVertex
 10
178.054159
 20
-46.034748
 30
0.0
  0
SEQEND
  5
4B5
100
AcDbEntity
  8
0
  6
Continuous
 62
     5
  0
POLYLINE
  5
4B6
100
AcDbEntity
  8
0
370
     0
  6
Continuous
 62
     5
100
AcDb2dPolyline
 66
     1
 10
0.0
 20
0.0
 30
0.0
 70
   128
  0
VERTEX
  5
4B7
100
AcDbEntity
  8
0
  6
Continuous
 62
     5
100
AcDbVertex
100
AcDb2dVertex
 10
174.054159
 20
-46.034748
 30
0.0
  0
VERTEX
  5
4B8
100
AcDbEntity
  8
0
  6
Continuous
 62
     5
100
AcDbVertex
100
AcDb2dVertex
 10
164.190828
 20
-46.034748
 30
0.0
  0
SEQEND
  5
4B9
100
AcDbEntity
  8
0
  6
Continuous
 62
     5
  0
POLYLINE
  5
4BA
100
AcDbEntity
  8
0
370
     0
  6
Continuous
 62
     5
100
AcDb2dPolyline
 66
     1
 10
0.0
 20
0.0
 30
0.0
 70
   128
  0
VERTEX
  5
4BB
100
AcDbEntity
  8
0
  6
Continuous
 62
     5
100
AcDbVertex
100
AcDb2dVertex
 10
152.190828
 20
-46.034748
 30
0.0
  0
VERTEX
  5
4BC
100
AcDbEntity
  8
0
  6
Continuous
 62
     5
100
AcDbVertex
100
AcDb2dVertex
 10
156.190828
 20
-46.034748
 30
0.0
  0
VERTEX
  5
4BD
100
AcDbEntity
  8
0
  6
Continuous
 62
     5
100
AcDbVertex
100
AcDb2dVertex
 10
160.190828
 20
-46.034748
 30
0.0
  0
SEQEND
  5
4BE
100
AcDbEntity
  8
0
  6
Continuous
 62
     5
  0
POLYLINE
  5
4C0
102
{ACAD_REACTORS
330
4BF
102
}
100
AcDbEntity
  8
0
370
     0
  6
Continuous
 62
     5
100
AcDb2dPolyline
 66
     1
 10
0.0
 20
0.0
 30
0.0
 70
   129
  0
VERTEX
  5
4C1
100
AcDbEntity
  8
0
  6
Continuous
 62
     5
100
AcDbVertex
100
AcDb2dVertex
 10
164.190828
 20
-46.034748
 30
0.0
  0
VERTEX
  5
4C2
100
AcDbEntity
  8
0
  6
Continuous
 62
     5
100
AcDbVertex
100
AcDb2dVertex
 10
160.190828
 20
-45.368082
 30
0.0
  0
VERTEX
  5
4C3
100
AcDbEntity
  8
0
  6
Continuous
 62
     5
100
AcDbVertex
100
AcDb2dVertex
 10
160.190828
 20
-46.701415
 30
0.0
  0
SEQEND
  5
4C4
100
AcDbEntity
  8
0
  6
Continuous
 62
     5
  0
HATCH
  5
4BF
100
AcDbEntity
  8
0
  6
Continuous
 62
     5
100
AcDbHatch
 10
0.0
 20
0.0
 30
0.0
210
0.0
220
0.0
230
1.0
  2
SOLID
 70
     1
 71
     1
 91
        1
 92
        3
 72
     0
 73
     1
 93
        3
 10
164.19082841364093
 20
-46.034748175662415
 10
160.19082841364093
 20
-45.368081508995751
 10
160.19082841364093
 20
-46.701414842329079
 97
        1
330
4C0
 75
     0
 76
     0
 98
        0
  0
POLYLINE
  5
4C6
102
{ACAD_REACTORS
330
4C5
102
}
100
AcDbEntity
  8
0
370
     0
  6
Continuous
 62
     5
100
AcDb2dPolyline
 66
     1
 10
0.0
 20
0.0
 30
0.0
 70
   129
  0
VERTEX
  5
4C7
100
AcDbEntity
  8
0
  6
Continuous
 62
     5
100
AcDbVertex
100
AcDb2dVertex
 10
174.054159
 20
-46.034748
 30
0.0
  0
VERTEX
  5
4C8
100
AcDbEntity
  8
0
  6
Continuous
 62
     5
100
AcDbVertex
100
AcDb2dVertex
 10
178.054159
 20
-46.701415
 30
0.0
  0
VERTEX
  5
4C9
100
AcDbEntity
  8
0
  6
Continuous
 62
     5
100
AcDbVertex
100
AcDb2dVertex
 10
178.054159
 20
-45.368082
 30
0.0
  0
SEQEND
  5
4CA
100
AcDbEntity
  8
0
  6
Continuous
 62
     5
  0
HATCH
  5
4C5
100
AcDbEntity
  8
0
  6
Continuous
 62
     5
100
AcDbHatch
 10
0.0
 20
0.0
 30
0.0
210
0.0
220
0.0
230
1.0
  2
SOLID
 70
     1
 71
     1
 91
        1
 92
        3
 72
     0
 73
     1
 93
        3
 10
174.0541586597526
 20
-46.034748175662415
 10
178.0541586597526
 20
-46.701414842329079
 10
178.0541586597526
 20
-45.368081508995751
 97
        1
330
4C6
 75
     0
 76
     0
 98
        0
  0
TEXT
  5
4CB
100
AcDbEntity
  8
0
  6
Continuous
 62
     5
100
AcDbText
 10
146.479316
 20
-47.327248
 30
0.0
 40
2.7025
  1
10
 72
     5
 11
150.690828
 21
-47.327248
 31
0.0
100
AcDbText
  0
ENDBLK
  5
4CC
100
AcDbEntity
  8
0
100
AcDbBlockEnd
  0
BLOCK
  5
4CF
100
AcDbEntity
  8
0
100
AcDbBlockBegin
  2
*D25
 70
     1
 10
0.0
 20
0.0
 30
0.0
  3
*D25
  1

  0
LINE
  5
4D0
100
AcDbEntity
  8
0
370
     0
  6
Continuous
 62
     5
100
AcDbLine
 10
175.040492
 20
-57.880936
 30
0.0
 11
175.040492
 21
-49.642232
 31
0.0
  0
LINE
  5
4D1
100
AcDbEntity
  8
0
370
     0
  6
Continuous
 62
     5
100
AcDbLine
 10
195.161685
 20
-59.528174
 30
0.0
 11
195.161685
 21
-49.642232
 31
0.0
  0
POLYLINE
  5
4D2
100
AcDbEntity
  8
0
370
     0
  6
Continuous
 62
     5
100
AcDb2dPolyline
 66
     1
 10
0.0
 20
0.0
 30
0.0
 70
   128
  0
VERTEX
  5
4D3
100
AcDbEntity
  8
0
  6
Continuous
 62
     5
100
AcDbVertex
100
AcDb2dVertex
 10
179.040492
 20
-52.642232
 30
0.0
  0
VERTEX
  5
4D4
100
AcDbEntity
  8
0
  6
Continuous
 62
     5
100
AcDbVertex
100
AcDb2dVertex
 10
179.040492
 20
-52.642232
 30
0.0
  0
VERTEX
  5
4D5
100
AcDbEntity
  8
0
  6
Continuous
 62
     5
100
AcDbVertex
100
AcDb2dVertex
 10
179.040492
 20
-52.642232
 30
0.0
  0
VERTEX
  5
4D6
100
AcDbEntity
  8
0
  6
Continuous
 62
     5
100
AcDbVertex
100
AcDb2dVertex
 10
181.495332
 20
-52.642232
 30
0.0
  0
SEQEND
  5
4D7
100
AcDbEntity
  8
0
  6
Continuous
 62
     5
  0
POLYLINE
  5
4D8
100
AcDbEntity
  8
0
370
     0
  6
Continuous
 62
     5
100
AcDb2dPolyline
 66
     1
 10
0.0
 20
0.0
 30
0.0
 70
   128
  0
VERTEX
  5
4D9
100
AcDbEntity
  8
0
  6
Continuous
 62
     5
100
AcDbVertex
100
AcDb2dVertex
 10
191.161685
 20
-52.642232
 30
0.0
  0
VERTEX
  5
4DA
100
AcDbEntity
  8
0
  6
Continuous
 62
     5
100
AcDbVertex
100
AcDb2dVertex
 10
191.161685
 20
-52.642232
 30
0.0
  0
VERTEX
  5
4DB
100
AcDbEntity
  8
0
  6
Continuous
 62
     5
100
AcDbVertex
100
AcDb2dVertex
 10
191.161685
 20
-52.642232
 30
0.0
  0
VERTEX
  5
4DC
100
AcDbEntity
  8
0
  6
Continuous
 62
     5
100
AcDbVertex
100
AcDb2dVertex
 10
188.706845
 20
-52.642232
 30
0.0
  0
SEQEND
  5
4DD
100
AcDbEntity
  8
0
  6
Continuous
 62
     5
  0
POLYLINE
  5
4DF
102
{ACAD_REACTORS
330
4DE
102
}
100
AcDbEntity
  8
0
370
     0
  6
Continuous
 62
     5
100
AcDb2dPolyline
 66
     1
 10
0.0
 20
0.0
 30
0.0
 70
   129
  0
VERTEX
  5
4E0
100
AcDbEntity
  8
0
  6
Continuous
 62
     5
100
AcDbVertex
100
AcDb2dVertex
 10
175.040492
 20
-52.642232
 30
0.0
  0
VERTEX
  5
4E1
100
AcDbEntity
  8
0
  6
Continuous
 62
     5
100
AcDbVertex
100
AcDb2dVertex
 10
179.040492
 20
-53.308899
 30
0.0
  0
VERTEX
  5
4E2
100
AcDbEntity
  8
0
  6
Continuous
 62
     5
100
AcDbVertex
100
AcDb2dVertex
 10
179.040492
 20
-51.975566
 30
0.0
  0
SEQEND
  5
4E3
100
AcDbEntity
  8
0
  6
Continuous
 62
     5
  0
HATCH
  5
4DE
100
AcDbEntity
  8
0
  6
Continuous
 62
     5
100
AcDbHatch
 10
0.0
 20
0.0
 30
0.0
210
0.0
220
0.0
230
1.0
  2
SOLID
 70
     1
 71
     1
 91
        1
 92
        3
 72
     0
 73
     1
 93
        3
 10
175.04049168436376
 20
-52.642232183910757
 10
179.04049168436376
 20
-53.308898850577421
 10
179.04049168436376
 20
-51.975565517244092
 97
        1
330
4DF
 75
     0
 76
     0
 98
        0
  0
POLYLINE
  5
4E5
102
{ACAD_REACTORS
330
4E4
102
}
100
AcDbEntity
  8
0
370
     0
  6
Continuous
 62
     5
100
AcDb2dPolyline
 66
     1
 10
0.0
 20
0.0
 30
0.0
 70
   129
  0
VERTEX
  5
4E6
100
AcDbEntity
  8
0
  6
Continuous
 62
     5
100
AcDbVertex
100
AcDb2dVertex
 10
195.161685
 20
-52.642232
 30
0.0
  0
VERTEX
  5
4E7
100
AcDbEntity
  8
0
  6
Continuous
 62
     5
100
AcDbVertex
100
AcDb2dVertex
 10
191.161685
 20
-51.975566
 30
0.0
  0
VERTEX
  5
4E8
100
AcDbEntity
  8
0
  6
Continuous
 62
     5
100
AcDbVertex
100
AcDb2dVertex
 10
191.161685
 20
-53.308899
 30
0.0
  0
SEQEND
  5
4E9
100
AcDbEntity
  8
0
  6
Continuous
 62
     5
  0
HATCH
  5
4E4
100
AcDbEntity
  8
0
  6
Continuous
 62
     5
100
AcDbHatch
 10
0.0
 20
0.0
 30
0.0
210
0.0
220
0.0
230
1.0
  2
SOLID
 70
     1
 71
     1
 91
        1
 92
        3
 72
     0
 73
     1
 93
        3
 10
195.16168538643154
 20
-52.642232183910757
 10
191.16168538643154
 20
-51.975565517244092
 10
191.16168538643154
 20
-53.308898850577421
 97
        1
330
4E5
 75
     0
 76
     0
 98
        0
  0
TEXT
  5
4EA
100
AcDbEntity
  8
0
  6
Continuous
 62
     5
100
AcDbText
 10
182.995332
 20
-53.934732
 30
0.0
 40
2.7025
  1
20
 72
     5
 11
187.206845
 21
-53.934732
 31
0.0
100
AcDbText
  0
ENDBLK
  5
4EB
100
AcDbEntity
  8
0
100
AcDbBlockEnd
  0
BLOCK
  5
4EE
100
AcDbEntity
  8
0
100
AcDbBlockBegin
  2
*D26
 70
     1
 10
0.0
 20
0.0
 30
0.0
  3
*D26
  1

  0
LINE
  5
4EF
100
AcDbEntity
  8
0
370
     0
  6
Continuous
 62
     5
100
AcDbLine
 10
170.318509
 20
-116.819012
 30
0.0
 11
150.079286
 21
-116.819012
 31
0.0
  0
LINE
  5
4F0
100
AcDbEntity
  8
0
370
     0
  6
Continuous
 62
     5
100
AcDbLine
 10
170.976026
 20
-126.879609
 30
0.0
 11
150.079286
 21
-126.879609
 31
0.0
  0
POLYLINE
  5
4F1
100
AcDbEntity
  8
0
370
     0
  6
Continuous
 62
     5
100
AcDb2dPolyline
 66
     1
 10
0.0
 20
0.0
 30
0.0
 70
   128
  0
VERTEX
  5
4F2
100
AcDbEntity
  8
0
  6
Continuous
 62
     5
100
AcDbVertex
100
AcDb2dVertex
 10
153.079286
 20
-108.819012
 30
0.0
  0
VERTEX
  5
4F3
100
AcDbEntity
  8
0
  6
Continuous
 62
     5
100
AcDbVertex
100
AcDb2dVertex
 10
153.079286
 20
-112.819012
 30
0.0
  0
SEQEND
  5
4F4
100
AcDbEntity
  8
0
  6
Continuous
 62
     5
  0
POLYLINE
  5
4F5
100
AcDbEntity
  8
0
370
     0
  6
Continuous
 62
     5
100
AcDb2dPolyline
 66
     1
 10
0.0
 20
0.0
 30
0.0
 70
   128
  0
VERTEX
  5
4F6
100
AcDbEntity
  8
0
  6
Continuous
 62
     5
100
AcDbVertex
100
AcDb2dVertex
 10
153.079286
 20
-116.819012
 30
0.0
  0
VERTEX
  5
4F7
100
AcDbEntity
  8
0
  6
Continuous
 62
     5
100
AcDbVertex
100
AcDb2dVertex
 10
153.079286
 20
-126.879609
 30
0.0
  0
SEQEND
  5
4F8
100
AcDbEntity
  8
0
  6
Continuous
 62
     5
  0
POLYLINE
  5
4F9
100
AcDbEntity
  8
0
370
     0
  6
Continuous
 62
     5
100
AcDb2dPolyline
 66
     1
 10
0.0
 20
0.0
 30
0.0
 70
   128
  0
VERTEX
  5
4FA
100
AcDbEntity
  8
0
  6
Continuous
 62
     5
100
AcDbVertex
100
AcDb2dVertex
 10
157.079286
 20
-134.879609
 30
0.0
  0
VERTEX
  5
4FB
100
AcDbEntity
  8
0
  6
Continuous
 62
     5
100
AcDbVertex
100
AcDb2dVertex
 10
153.079286
 20
-134.879609
 30
0.0
  0
VERTEX
  5
4FC
100
AcDbEntity
  8
0
  6
Continuous
 62
     5
100
AcDbVertex
100
AcDb2dVertex
 10
153.079286
 20
-130.879609
 30
0.0
  0
SEQEND
  5
4FD
100
AcDbEntity
  8
0
  6
Continuous
 62
     5
  0
POLYLINE
  5
4FF
102
{ACAD_REACTORS
330
4FE
102
}
100
AcDbEntity
  8
0
370
     0
  6
Continuous
 62
     5
100
AcDb2dPolyline
 66
     1
 10
0.0
 20
0.0
 30
0.0
 70
   129
  0
VERTEX
  5
500
100
AcDbEntity
  8
0
  6
Continuous
 62
     5
100
AcDbVertex
100
AcDb2dVertex
 10
153.079286
 20
-126.879609
 30
0.0
  0
VERTEX
  5
501
100
AcDbEntity
  8
0
  6
Continuous
 62
     5
100
AcDbVertex
100
AcDb2dVertex
 10
152.412619
 20
-130.879609
 30
0.0
  0
VERTEX
  5
502
100
AcDbEntity
  8
0
  6
Continuous
 62
     5
100
AcDbVertex
100
AcDb2dVertex
 10
153.745953
 20
-130.879609
 30
0.0
  0
SEQEND
  5
503
100
AcDbEntity
  8
0
  6
Continuous
 62
     5
  0
HATCH
  5
4FE
100
AcDbEntity
  8
0
  6
Continuous
 62
     5
100
AcDbHatch
 10
0.0
 20
0.0
 30
0.0
210
0.0
220
0.0
230
1.0
  2
SOLID
 70
     1
 71
     1
 91
        1
 92
        3
 72
     0
 73
     1
 93
        3
 10
153.07928589290137
 20
-126.87960907572662
 10
152.41261922623471
 20
-130.87960907572662
 10
153.74595255956802
 20
-130.87960907572662
 97
        1
330
4FF
 75
     0
 76
     0
 98
        0
  0
POLYLINE
  5
505
102
{ACAD_REACTORS
330
504
102
}
100
AcDbEntity
  8
0
370
     0
  6
Continuous
 62
     5
100
AcDb2dPolyline
 66
     1
 10
0.0
 20
0.0
 30
0.0
 70
   129
  0
VERTEX
  5
506
100
AcDbEntity
  8
0
  6
Continuous
 62
     5
100
AcDbVertex
100
AcDb2dVertex
 10
153.079286
 20
-116.819012
 30
0.0
  0
VERTEX
  5
507
100
AcDbEntity
  8
0
  6
Continuous
 62
     5
100
AcDbVertex
100
AcDb2dVertex
 10
153.745953
 20
-112.819012
 30
0.0
  0
VERTEX
  5
508
100
AcDbEntity
  8
0
  6
Continuous
 62
     5
100
AcDbVertex
100
AcDb2dVertex
 10
152.412619
 20
-112.819012
 30
0.0
  0
SEQEND
  5
509
100
AcDbEntity
  8
0
  6
Continuous
 62
     5
  0
HATCH
  5
504
100
AcDbEntity
  8
0
  6
Continuous
 62
     5
100
AcDbHatch
 10
0.0
 20
0.0
 30
0.0
210
0.0
220
0.0
230
1.0
  2
SOLID
 70
     1
 71
     1
 91
        1
 92
        3
 72
     0
 73
     1
 93
        3
 10
153.07928589290137
 20
-116.81901222469271
 10
153.74595255956802
 20
-112.81901222469271
 10
152.41261922623471
 20
-112.81901222469271
 97
        1
330
505
 75
     0
 76
     0
 98
        0
  0
TEXT
  5
50A
100
AcDbEntity
  8
0
  6
Continuous
 62
     5
100
AcDbText
 10
158.579286
 20
-136.172109
 30
0.0
 40
2.7025
  1
10
 72
     5
 11
162.790798
 21
-136.172109
 31
0.0
100
AcDbText
  0
ENDBLK
  5
50B
100
AcDbEntity
  8
0
100
AcDbBlockEnd
  0
BLOCK
  5
50E
100
AcDbEntity
  8
0
100
AcDbBlockBegin
  2
*D27
 70
     1
 10
0.0
 20
0.0
 30
0.0
  3
*D27
  1

  0
LINE
  5
50F
100
AcDbEntity
  8
0
370
     0
  6
Continuous
 62
     5
100
AcDbLine
 10
170.521519
 20
-76.971158
 30
0.0
 11
144.417076
 21
-76.971158
 31
0.0
  0
LINE
  5
510
100
AcDbEntity
  8
0
370
     0
  6
Continuous
 62
     5
100
AcDbLine
 10
171.173292
 20
-126.879609
 30
0.0
 11
144.417076
 21
-126.879609
 31
0.0
  0
POLYLINE
  5
511
100
AcDbEntity
  8
0
370
     0
  6
Continuous
 62
     5
100
AcDb2dPolyline
 66
     1
 10
0.0
 20
0.0
 30
0.0
 70
   128
  0
VERTEX
  5
512
100
AcDbEntity
  8
0
  6
Continuous
 62
     5
100
AcDbVertex
100
AcDb2dVertex
 10
147.417076
 20
-80.971158
 30
0.0
  0
VERTEX
  5
513
100
AcDbEntity
  8
0
  6
Continuous
 62
     5
100
AcDbVertex
100
AcDb2dVertex
 10
147.417076
 20
-80.971158
 30
0.0
  0
VERTEX
  5
514
100
AcDbEntity
  8
0
  6
Continuous
 62
     5
100
AcDbVertex
100
AcDb2dVertex
 10
147.417076
 20
-80.971158
 30
0.0
  0
VERTEX
  5
515
100
AcDbEntity
  8
0
  6
Continuous
 62
     5
100
AcDbVertex
100
AcDb2dVertex
 10
147.417076
 20
-99.387384
 30
0.0
  0
SEQEND
  5
516
100
AcDbEntity
  8
0
  6
Continuous
 62
     5
  0
POLYLINE
  5
517
100
AcDbEntity
  8
0
370
     0
  6
Continuous
 62
     5
100
AcDb2dPolyline
 66
     1
 10
0.0
 20
0.0
 30
0.0
 70
   128
  0
VERTEX
  5
518
100
AcDbEntity
  8
0
  6
Continuous
 62
     5
100
AcDbVertex
100
AcDb2dVertex
 10
147.417076
 20
-122.879609
 30
0.0
  0
VERTEX
  5
519
100
AcDbEntity
  8
0
  6
Continuous
 62
     5
100
AcDbVertex
100
AcDb2dVertex
 10
147.417076
 20
-122.879609
 30
0.0
  0
VERTEX
  5
51A
100
AcDbEntity
  8
0
  6
Continuous
 62
     5
100
AcDbVertex
100
AcDb2dVertex
 10
147.417076
 20
-122.879609
 30
0.0
  0
VERTEX
  5
51B
100
AcDbEntity
  8
0
  6
Continuous
 62
     5
100
AcDbVertex
100
AcDb2dVertex
 10
147.417076
 20
-104.463384
 30
0.0
  0
SEQEND
  5
51C
100
AcDbEntity
  8
0
  6
Continuous
 62
     5
  0
POLYLINE
  5
51E
102
{ACAD_REACTORS
330
51D
102
}
100
AcDbEntity
  8
0
370
     0
  6
Continuous
 62
     5
100
AcDb2dPolyline
 66
     1
 10
0.0
 20
0.0
 30
0.0
 70
   129
  0
VERTEX
  5
51F
100
AcDbEntity
  8
0
  6
Continuous
 62
     5
100
AcDbVertex
100
AcDb2dVertex
 10
147.417076
 20
-76.971158
 30
0.0
  0
VERTEX
  5
520
100
AcDbEntity
  8
0
  6
Continuous
 62
     5
100
AcDbVertex
100
AcDb2dVertex
 10
146.750409
 20
-80.971158
 30
0.0
  0
VERTEX
  5
521
100
AcDbEntity
  8
0
  6
Continuous
 62
     5
100
AcDbVertex
100
AcDb2dVertex
 10
148.083743
 20
-80.971158
 30
0.0
  0
SEQEND
  5
522
100
AcDbEntity
  8
0
  6
Continuous
 62
     5
  0
HATCH
  5
51D
100
AcDbEntity
  8
0
  6
Continuous
 62
     5
100
AcDbHatch
 10
0.0
 20
0.0
 30
0.0
210
0.0
220
0.0
230
1.0
  2
SOLID
 70
     1
 71
     1
 91
        1
 92
        3
 72
     0
 73
     1
 93
        3
 10
147.41707614763919
 20
-76.971158030401597
 10
146.75040948097254
 20
-80.971158030401597
 10
148.08374281430585
 20
-80.971158030401597
 97
        1
330
51E
 75
     0
 76
     0
 98
        0
  0
POLYLINE
  5
524
102
{ACAD_REACTORS
330
523
102
}
100
AcDbEntity
  8
0
370
     0
  6
Continuous
 62
     5
100
AcDb2dPolyline
 66
     1
 10
0.0
 20
0.0
 30
0.0
 70
   129
  0
VERTEX
  5
525
100
AcDbEntity
  8
0
  6
Continuous
 62
     5
100
AcDbVertex
100
AcDb2dVertex
 10
147.417076
 20
-126.879609
 30
0.0
  0
VERTEX
  5
526
100
AcDbEntity
  8
0
  6
Continuous
 62
     5
100
AcDbVertex
100
AcDb2dVertex
 10
148.083743
 20
-122.879609
 30
0.0
  0
VERTEX
  5
527
100
AcDbEntity
  8
0
  6
Continuous
 62
     5
100
AcDbVertex
100
AcDb2dVertex
 10
146.750409
 20
-122.879609
 30
0.0
  0
SEQEND
  5
528
100
AcDbEntity
  8
0
  6
Continuous
 62
     5
  0
HATCH
  5
523
100
AcDbEntity
  8
0
  6
Continuous
 62
     5
100
AcDbHatch
 10
0.0
 20
0.0
 30
0.0
210
0.0
220
0.0
230
1.0
  2
SOLID
 70
     1
 71
     1
 91
        1
 92
        3
 72
     0
 73
     1
 93
        3
 10
147.41707614763919
 20
-126.87960907572662
 10
148.08374281430585
 20
-122.87960907572662
 10
146.75040948097254
 20
-122.87960907572662
 97
        1
330
524
 75
     0
 76
     0
 98
        0
  0
TEXT
  5
529
100
AcDbEntity
  8
0
  6
Continuous
 62
     5
100
AcDbText
 10
145.31132
 20
-103.217884
 30
0.0
 40
2.7025
  1
50
 72
     5
 11
149.522832
 21
-103.217884
 31
0.0
100
AcDbText
  0
ENDBLK
  5
52A
100
AcDbEntity
  8
0
100
AcDbBlockEnd
  0
BLOCK
  5
52D
100
AcDbEntity
  8
0
100
AcDbBlockBegin
  2
*D28
 70
     1
 10
0.0
 20
0.0
 30
0.0
  3
*D28
  1

  0
LINE
  5
52E
100
AcDbEntity
  8
0
370
     0
  6
Continuous
 62
     5
100
AcDbLine
 10
185.079878
 20
-126.964228
 30
0.0
 11
202.913976
 21
-126.964228
 31
0.0
  0
LINE
  5
52F
100
AcDbEntity
  8
0
370
     0
  6
Continuous
 62
     5
100
AcDbLine
 10
168.058027
 20
-136.827558
 30
0.0
 11
202.913976
 21
-136.827558
 31
0.0
  0
POLYLINE
  5
530
100
AcDbEntity
  8
0
370
     0
  6
Continuous
 62
     5
100
AcDb2dPolyline
 66
     1
 10
0.0
 20
0.0
 30
0.0
 70
   128
  0
VERTEX
  5
531
100
AcDbEntity
  8
0
  6
Continuous
 62
     5
100
AcDbVertex
100
AcDb2dVertex
 10
199.913976
 20
-118.964228
 30
0.0
  0
VERTEX
  5
532
100
AcDbEntity
  8
0
  6
Continuous
 62
     5
100
AcDbVertex
100
AcDb2dVertex
 10
199.913976
 20
-122.964228
 30
0.0
  0
SEQEND
  5
533
100
AcDbEntity
  8
0
  6
Continuous
 62
     5
  0
POLYLINE
  5
534
100
AcDbEntity
  8
0
370
     0
  6
Continuous
 62
     5
100
AcDb2dPolyline
 66
     1
 10
0.0
 20
0.0
 30
0.0
 70
   128
  0
VERTEX
  5
535
100
AcDbEntity
  8
0
  6
Continuous
 62
     5
100
AcDbVertex
100
AcDb2dVertex
 10
199.913976
 20
-126.964228
 30
0.0
  0
VERTEX
  5
536
100
AcDbEntity
  8
0
  6
Continuous
 62
     5
100
AcDbVertex
100
AcDb2dVertex
 10
199.913976
 20
-136.827558
 30
0.0
  0
SEQEND
  5
537
100
AcDbEntity
  8
0
  6
Continuous
 62
     5
  0
POLYLINE
  5
538
100
AcDbEntity
  8
0
370
     0
  6
Continuous
 62
     5
100
AcDb2dPolyline
 66
     1
 10
0.0
 20
0.0
 30
0.0
 70
   128
  0
VERTEX
  5
539
100
AcDbEntity
  8
0
  6
Continuous
 62
     5
100
AcDbVertex
100
AcDb2dVertex
 10
203.913976
 20
-144.827558
 30
0.0
  0
VERTEX
  5
53A
100
AcDbEntity
  8
0
  6
Continuous
 62
     5
100
AcDbVertex
100
AcDb2dVertex
 10
199.913976
 20
-144.827558
 30
0.0
  0
VERTEX
  5
53B
100
AcDbEntity
  8
0
  6
Continuous
 62
     5
100
AcDbVertex
100
AcDb2dVertex
 10
199.913976
 20
-140.827558
 30
0.0
  0
SEQEND
  5
53C
100
AcDbEntity
  8
0
  6
Continuous
 62
     5
  0
POLYLINE
  5
53E
102
{ACAD_REACTORS
330
53D
102
}
100
AcDbEntity
  8
0
370
     0
  6
Continuous
 62
     5
100
AcDb2dPolyline
 66
     1
 10
0.0
 20
0.0
 30
0.0
 70
   129
  0
VERTEX
  5
53F
100
AcDbEntity
  8
0
  6
Continuous
 62
     5
100
AcDbVertex
100
AcDb2dVertex
 10
199.913976
 20
-136.827558
 30
0.0
  0
VERTEX
  5
540
100
AcDbEntity
  8
0
  6
Continuous
 62
     5
100
AcDbVertex
100
AcDb2dVertex
 10
199.24731
 20
-140.827558
 30
0.0
  0
VERTEX
  5
541
100
AcDbEntity
  8
0
  6
Continuous
 62
     5
100
AcDbVertex
100
AcDb2dVertex
 10
200.580643
 20
-140.827558
 30
0.0
  0
SEQEND
  5
542
100
AcDbEntity
  8
0
  6
Continuous
 62
     5
  0
HATCH
  5
53D
100
AcDbEntity
  8
0
  6
Continuous
 62
     5
100
AcDbHatch
 10
0.0
 20
0.0
 30
0.0
210
0.0
220
0.0
230
1.0
  2
SOLID
 70
     1
 71
     1
 91
        1
 92
        3
 72
     0
 73
     1
 93
        3
 10
199.91397626611808
 20
-136.82755788051352
 10
199.24730959945143
 20
-140.82755788051352
 10
200.58064293278474
 20
-140.82755788051352
 97
        1
330
53E
 75
     0
 76
     0
 98
        0
  0
POLYLINE
  5
544
102
{ACAD_REACTORS
330
543
102
}
100
AcDbEntity
  8
0
370
     0
  6
Continuous
 62
     5
100
AcDb2dPolyline
 66
     1
 10
0.0
 20
0.0
 30
0.0
 70
   129
  0
VERTEX
  5
545
100
AcDbEntity
  8
0
  6
Continuous
 62
     5
100
AcDbVertex
100
AcDb2dVertex
 10
199.913976
 20
-126.964228
 30
0.0
  0
VERTEX
  5
546
100
AcDbEntity
  8
0
  6
Continuous
 62
     5
100
AcDbVertex
100
AcDb2dVertex
 10
200.580643
 20
-122.964228
 30
0.0
  0
VERTEX
  5
547
100
AcDbEntity
  8
0
  6
Continuous
 62
     5
100
AcDbVertex
100
AcDb2dVertex
 10
199.24731
 20
-122.964228
 30
0.0
  0
SEQEND
  5
548
100
AcDbEntity
  8
0
  6
Continuous
 62
     5
  0
HATCH
  5
543
100
AcDbEntity
  8
0
  6
Continuous
 62
     5
100
AcDbHatch
 10
0.0
 20
0.0
 30
0.0
210
0.0
220
0.0
230
1.0
  2
SOLID
 70
     1
 71
     1
 91
        1
 92
        3
 72
     0
 73
     1
 93
        3
 10
199.91397626611808
 20
-126.96422763440188
 10
200.58064293278474
 20
-122.96422763440188
 10
199.24730959945143
 20
-122.96422763440188
 97
        1
330
544
 75
     0
 76
     0
 98
        0
  0
TEXT
  5
549
100
AcDbEntity
  8
0
  6
Continuous
 62
     5
100
AcDbText
 10
205.413976
 20
-146.120058
 30
0.0
 40
2.7025
  1
10
 72
     5
 11
209.625489
 21
-146.120058
 31
0.0
100
AcDbText
  0
ENDBLK
  5
54A
100
AcDbEntity
  8
0
100
AcDbBlockEnd
  0
BLOCK
  5
54D
100
AcDbEntity
  8
0
100
AcDbBlockBegin
  2
*D29
 70
     1
 10
0.0
 20
0.0
 30
0.0
  3
*D29
  1

  0
LINE
  5
54E
100
AcDbEntity
  8
0
370
     0
  6
Continuous
 62
     5
100
AcDbLine
 10
187.740032
 20
-126.964228
 30
0.0
 11
218.388575
 21
-126.964228
 31
0.0
  0
LINE
  5
54F
100
AcDbEntity
  8
0
370
     0
  6
Continuous
 62
     5
100
AcDbLine
 10
187.587421
 20
-150.63622
 30
0.0
 11
218.388575
 21
-150.63622
 31
0.0
  0
POLYLINE
  5
550
100
AcDbEntity
  8
0
370
     0
  6
Continuous
 62
     5
100
AcDb2dPolyline
 66
     1
 10
0.0
 20
0.0
 30
0.0
 70
   128
  0
VERTEX
  5
551
100
AcDbEntity
  8
0
  6
Continuous
 62
     5
100
AcDbVertex
100
AcDb2dVertex
 10
215.388575
 20
-130.964228
 30
0.0
  0
VERTEX
  5
552
100
AcDbEntity
  8
0
  6
Continuous
 62
     5
100
AcDbVertex
100
AcDb2dVertex
 10
215.388575
 20
-130.964228
 30
0.0
  0
VERTEX
  5
553
100
AcDbEntity
  8
0
  6
Continuous
 62
     5
100
AcDbVertex
100
AcDb2dVertex
 10
215.388575
 20
-130.964228
 30
0.0
  0
VERTEX
  5
554
100
AcDbEntity
  8
0
  6
Continuous
 62
     5
100
AcDbVertex
100
AcDb2dVertex
 10
215.388575
 20
-136.262224
 30
0.0
  0
SEQEND
  5
555
100
AcDbEntity
  8
0
  6
Continuous
 62
     5
  0
POLYLINE
  5
556
100
AcDbEntity
  8
0
370
     0
  6
Continuous
 62
     5
100
AcDb2dPolyline
 66
     1
 10
0.0
 20
0.0
 30
0.0
 70
   128
  0
VERTEX
  5
557
100
AcDbEntity
  8
0
  6
Continuous
 62
     5
100
AcDbVertex
100
AcDb2dVertex
 10
215.388575
 20
-146.63622
 30
0.0
  0
VERTEX
  5
558
100
AcDbEntity
  8
0
  6
Continuous
 62
     5
100
AcDbVertex
100
AcDb2dVertex
 10
215.388575
 20
-146.63622
 30
0.0
  0
VERTEX
  5
559
100
AcDbEntity
  8
0
  6
Continuous
 62
     5
100
AcDbVertex
100
AcDb2dVertex
 10
215.388575
 20
-146.63622
 30
0.0
  0
VERTEX
  5
55A
100
AcDbEntity
  8
0
  6
Continuous
 62
     5
100
AcDbVertex
100
AcDb2dVertex
 10
215.388575
 20
-141.338224
 30
0.0
  0
SEQEND
  5
55B
100
AcDbEntity
  8
0
  6
Continuous
 62
     5
  0
POLYLINE
  5
55D
102
{ACAD_REACTORS
330
55C
102
}
100
AcDbEntity
  8
0
370
     0
  6
Continuous
 62
     5
100
AcDb2dPolyline
 66
     1
 10
0.0
 20
0.0
 30
0.0
 70
   129
  0
VERTEX
  5
55E
100
AcDbEntity
  8
0
  6
Continuous
 62
     5
100
AcDbVertex
100
AcDb2dVertex
 10
215.388575
 20
-126.964228
 30
0.0
  0
VERTEX
  5
55F
100
AcDbEntity
  8
0
  6
Continuous
 62
     5
100
AcDbVertex
100
AcDb2dVertex
 10
214.721908
 20
-130.964228
 30
0.0
  0
VERTEX
  5
560
100
AcDbEntity
  8
0
  6
Continuous
 62
     5
100
AcDbVertex
100
AcDb2dVertex
 10
216.055242
 20
-130.964228
 30
0.0
  0
SEQEND
  5
561
100
AcDbEntity
  8
0
  6
Continuous
 62
     5
  0
HATCH
  5
55C
100
AcDbEntity
  8
0
  6
Continuous
 62
     5
100
AcDbHatch
 10
0.0
 20
0.0
 30
0.0
210
0.0
220
0.0
230
1.0
  2
SOLID
 70
     1
 71
     1
 91
        1
 92
        3
 72
     0
 73
     1
 93
        3
 10
215.38857496333321
 20
-126.96422763440188
 10
214.72190829666656
 20
-130.96422763440188
 10
216.05524162999987
 20
-130.96422763440188
 97
        1
330
55D
 75
     0
 76
     0
 98
        0
  0
POLYLINE
  5
563
102
{ACAD_REACTORS
330
562
102
}
100
AcDbEntity
  8
0
370
     0
  6
Continuous
 62
     5
100
AcDb2dPolyline
 66
     1
 10
0.0
 20
0.0
 30
0.0
 70
   129
  0
VERTEX
  5
564
100
AcDbEntity
  8
0
  6
Continuous
 62
     5
100
AcDbVertex
100
AcDb2dVertex
 10
215.388575
 20
-150.63622
 30
0.0
  0
VERTEX
  5
565
100
AcDbEntity
  8
0
  6
Continuous
 62
     5
100
AcDbVertex
100
AcDb2dVertex
 10
216.055242
 20
-146.63622
 30
0.0
  0
VERTEX
  5
566
100
AcDbEntity
  8
0
  6
Continuous
 62
     5
100
AcDbVertex
100
AcDb2dVertex
 10
214.721908
 20
-146.63622
 30
0.0
  0
SEQEND
  5
567
100
AcDbEntity
  8
0
  6
Continuous
 62
     5
  0
HATCH
  5
562
100
AcDbEntity
  8
0
  6
Continuous
 62
     5
100
AcDbHatch
 10
0.0
 20
0.0
 30
0.0
210
0.0
220
0.0
230
1.0
  2
SOLID
 70
     1
 71
     1
 91
        1
 92
        3
 72
     0
 73
     1
 93
        3
 10
215.38857496333321
 20
-150.63622022506985
 10
216.05524162999987
 20
-146.63622022506985
 10
214.72190829666656
 20
-146.63622022506985
 97
        1
330
563
 75
     0
 76
     0
 98
        0
  0
TEXT
  5
568
100
AcDbEntity
  8
0
  6
Continuous
 62
     5
100
AcDbText
 10
210.967227
 20
-140.092724
 30
0.0
 40
2.7025
  1
23,7*
 72
     5
 11
219.809923
 21
-140.092724
 31
0.0
100
AcDbText
  0
ENDBLK
  5
569
100
AcDbEntity
  8
0
100
AcDbBlockEnd
  0
BLOCK
  5
56C
100
AcDbEntity
  8
0
100
AcDbBlockBegin
  2
*D30
 70
     1
 10
0.0
 20
0.0
 30
0.0
  3
*D30
  1

  0
LINE
  5
56D
100
AcDbEntity
  8
0
370
     0
  6
Continuous
 62
     5
100
AcDbLine
 10
192.425787
 20
-126.995725
 30
0.0
 11
209.877801
 21
-126.995725
 31
0.0
  0
LINE
  5
56E
100
AcDbEntity
  8
0
370
     0
  6
Continuous
 62
     5
100
AcDbLine
 10
191.927287
 20
-57.952413
 30
0.0
 11
209.877801
 21
-57.952413
 31
0.0
  0
POLYLINE
  5
56F
100
AcDbEntity
  8
0
370
     0
  6
Continuous
 62
     5
100
AcDb2dPolyline
 66
     1
 10
0.0
 20
0.0
 30
0.0
 70
   128
  0
VERTEX
  5
570
100
AcDbEntity
  8
0
  6
Continuous
 62
     5
100
AcDbVertex
100
AcDb2dVertex
 10
206.877801
 20
-122.995725
 30
0.0
  0
VERTEX
  5
571
100
AcDbEntity
  8
0
  6
Continuous
 62
     5
100
AcDbVertex
100
AcDb2dVertex
 10
206.877801
 20
-122.995725
 30
0.0
  0
VERTEX
  5
572
100
AcDbEntity
  8
0
  6
Continuous
 62
     5
100
AcDbVertex
100
AcDb2dVertex
 10
206.877801
 20
-122.995725
 30
0.0
  0
VERTEX
  5
573
100
AcDbEntity
  8
0
  6
Continuous
 62
     5
100
AcDbVertex
100
AcDb2dVertex
 10
206.877801
 20
-95.012069
 30
0.0
  0
SEQEND
  5
574
100
AcDbEntity
  8
0
  6
Continuous
 62
     5
  0
POLYLINE
  5
575
100
AcDbEntity
  8
0
370
     0
  6
Continuous
 62
     5
100
AcDb2dPolyline
 66
     1
 10
0.0
 20
0.0
 30
0.0
 70
   128
  0
VERTEX
  5
576
100
AcDbEntity
  8
0
  6
Continuous
 62
     5
100
AcDbVertex
100
AcDb2dVertex
 10
206.877801
 20
-61.952413
 30
0.0
  0
VERTEX
  5
577
100
AcDbEntity
  8
0
  6
Continuous
 62
     5
100
AcDbVertex
100
AcDb2dVertex
 10
206.877801
 20
-61.952413
 30
0.0
  0
VERTEX
  5
578
100
AcDbEntity
  8
0
  6
Continuous
 62
     5
100
AcDbVertex
100
AcDb2dVertex
 10
206.877801
 20
-61.952413
 30
0.0
  0
VERTEX
  5
579
100
AcDbEntity
  8
0
  6
Continuous
 62
     5
100
AcDbVertex
100
AcDb2dVertex
 10
206.877801
 20
-89.936069
 30
0.0
  0
SEQEND
  5
57A
100
AcDbEntity
  8
0
  6
Continuous
 62
     5
  0
POLYLINE
  5
57C
102
{ACAD_REACTORS
330
57B
102
}
100
AcDbEntity
  8
0
370
     0
  6
Continuous
 62
     5
100
AcDb2dPolyline
 66
     1
 10
0.0
 20
0.0
 30
0.0
 70
   129
  0
VERTEX
  5
57D
100
AcDbEntity
  8
0
  6
Continuous
 62
     5
100
AcDbVertex
100
AcDb2dVertex
 10
206.877801
 20
-126.995725
 30
0.0
  0
VERTEX
  5
57E
100
AcDbEntity
  8
0
  6
Continuous
 62
     5
100
AcDbVertex
100
AcDb2dVertex
 10
207.544468
 20
-122.995725
 30
0.0
  0
VERTEX
  5
57F
100
AcDbEntity
  8
0
  6
Continuous
 62
     5
100
AcDbVertex
100
AcDb2dVertex
 10
206.211135
 20
-122.995725
 30
0.0
  0
SEQEND
  5
580
100
AcDbEntity
  8
0
  6
Continuous
 62
     5
  0
HATCH
  5
57B
100
AcDbEntity
  8
0
  6
Continuous
 62
     5
100
AcDbHatch
 10
0.0
 20
0.0
 30
0.0
210
0.0
220
0.0
230
1.0
  2
SOLID
 70
     1
 71
     1
 91
        1
 92
        3
 72
     0
 73
     1
 93
        3
 10
206.87780122762794
 20
-126.99572479942617
 10
207.5444678942946
 20
-122.99572479942617
 10
206.21113456096128
 20
-122.99572479942617
 97
        1
330
57C
 75
     0
 76
     0
 98
        0
  0
POLYLINE
  5
582
102
{ACAD_REACTORS
330
581
102
}
100
AcDbEntity
  8
0
370
     0
  6
Continuous
 62
     5
100
AcDb2dPolyline
 66
     1
 10
0.0
 20
0.0
 30
0.0
 70
   129
  0
VERTEX
  5
583
100
AcDbEntity
  8
0
  6
Continuous
 62
     5
100
AcDbVertex
100
AcDb2dVertex
 10
206.877801
 20
-57.952413
 30
0.0
  0
VERTEX
  5
584
100
AcDbEntity
  8
0
  6
Continuous
 62
     5
100
AcDbVertex
100
AcDb2dVertex
 10
206.211135
 20
-61.952413
 30
0.0
  0
VERTEX
  5
585
100
AcDbEntity
  8
0
  6
Continuous
 62
     5
100
AcDbVertex
100
AcDb2dVertex
 10
207.544468
 20
-61.952413
 30
0.0
  0
SEQEND
  5
586
100
AcDbEntity
  8
0
  6
Continuous
 62
     5
  0
HATCH
  5
581
100
AcDbEntity
  8
0
  6
Continuous
 62
     5
100
AcDbHatch
 10
0.0
 20
0.0
 30
0.0
210
0.0
220
0.0
230
1.0
  2
SOLID
 70
     1
 71
     1
 91
        1
 92
        3
 72
     0
 73
     1
 93
        3
 10
206.87780122762794
 20
-57.952413076644504
 10
206.21113456096128
 20
-61.952413076644504
 10
207.5444678942946
 20
-61.952413076644504
 97
        1
330
582
 75
     0
 76
     0
 98
        0
  0
TEXT
  5
587
100
AcDbEntity
  8
0
  6
Continuous
 62
     5
100
AcDbText
 10
204.035308
 20
-93.766569
 30
0.0
 40
2.7025
  1
69*
 72
     5
 11
209.720295
 21
-93.766569
 31
0.0
100
AcDbText
  0
ENDBLK
  5
588
100
AcDbEntity
  8
0
100
AcDbBlockEnd
  0
BLOCK
  5
58B
100
AcDbEntity
  8
0
100
AcDbBlockBegin
  2
*D31
 70
     1
 10
0.0
 20
0.0
 30
0.0
  3
*D31
  1

  0
LINE
  5
58C
100
AcDbEntity
  8
0
370
     0
  6
Continuous
 62
     5
100
AcDbLine
 10
174.962359
 20
-71.946534
 30
0.0
 11
182.669742
 21
-71.946534
 31
0.0
  0
LINE
  5
58D
100
AcDbEntity
  8
0
370
     0
  6
Continuous
 62
     5
100
AcDbLine
 10
174.962359
 20
-76.878199
 30
0.0
 11
182.669742
 21
-76.878199
 31
0.0
  0
POLYLINE
  5
58E
100
AcDbEntity
  8
0
370
     0
  6
Continuous
 62
     5
100
AcDb2dPolyline
 66
     1
 10
0.0
 20
0.0
 30
0.0
 70
   128
  0
VERTEX
  5
58F
100
AcDbEntity
  8
0
  6
Continuous
 62
     5
100
AcDbVertex
100
AcDb2dVertex
 10
179.669742
 20
-63.946534
 30
0.0
  0
VERTEX
  5
590
100
AcDbEntity
  8
0
  6
Continuous
 62
     5
100
AcDbVertex
100
AcDb2dVertex
 10
179.669742
 20
-67.946534
 30
0.0
  0
SEQEND
  5
591
100
AcDbEntity
  8
0
  6
Continuous
 62
     5
  0
POLYLINE
  5
592
100
AcDbEntity
  8
0
370
     0
  6
Continuous
 62
     5
100
AcDb2dPolyline
 66
     1
 10
0.0
 20
0.0
 30
0.0
 70
   128
  0
VERTEX
  5
593
100
AcDbEntity
  8
0
  6
Continuous
 62
     5
100
AcDbVertex
100
AcDb2dVertex
 10
179.669742
 20
-71.946534
 30
0.0
  0
VERTEX
  5
594
100
AcDbEntity
  8
0
  6
Continuous
 62
     5
100
AcDbVertex
100
AcDb2dVertex
 10
179.669742
 20
-76.878199
 30
0.0
  0
SEQEND
  5
595
100
AcDbEntity
  8
0
  6
Continuous
 62
     5
  0
POLYLINE
  5
596
100
AcDbEntity
  8
0
370
     0
  6
Continuous
 62
     5
100
AcDb2dPolyline
 66
     1
 10
0.0
 20
0.0
 30
0.0
 70
   128
  0
VERTEX
  5
597
100
AcDbEntity
  8
0
  6
Continuous
 62
     5
100
AcDbVertex
100
AcDb2dVertex
 10
183.669742
 20
-84.878199
 30
0.0
  0
VERTEX
  5
598
100
AcDbEntity
  8
0
  6
Continuous
 62
     5
100
AcDbVertex
100
AcDb2dVertex
 10
179.669742
 20
-84.878199
 30
0.0
  0
VERTEX
  5
599
100
AcDbEntity
  8
0
  6
Continuous
 62
     5
100
AcDbVertex
100
AcDb2dVertex
 10
179.669742
 20
-80.878199
 30
0.0
  0
SEQEND
  5
59A
100
AcDbEntity
  8
0
  6
Continuous
 62
     5
  0
POLYLINE
  5
59C
102
{ACAD_REACTORS
330
59B
102
}
100
AcDbEntity
  8
0
370
     0
  6
Continuous
 62
     5
100
AcDb2dPolyline
 66
     1
 10
0.0
 20
0.0
 30
0.0
 70
   129
  0
VERTEX
  5
59D
100
AcDbEntity
  8
0
  6
Continuous
 62
     5
100
AcDbVertex
100
AcDb2dVertex
 10
179.669742
 20
-76.878199
 30
0.0
  0
VERTEX
  5
59E
100
AcDbEntity
  8
0
  6
Continuous
 62
     5
100
AcDbVertex
100
AcDb2dVertex
 10
179.003075
 20
-80.878199
 30
0.0
  0
VERTEX
  5
59F
100
AcDbEntity
  8
0
  6
Continuous
 62
     5
100
AcDbVertex
100
AcDb2dVertex
 10
180.336409
 20
-80.878199
 30
0.0
  0
SEQEND
  5
5A0
100
AcDbEntity
  8
0
  6
Continuous
 62
     5
  0
HATCH
  5
59B
100
AcDbEntity
  8
0
  6
Continuous
 62
     5
100
AcDbHatch
 10
0.0
 20
0.0
 30
0.0
210
0.0
220
0.0
230
1.0
  2
SOLID
 70
     1
 71
     1
 91
        1
 92
        3
 72
     0
 73
     1
 93
        3
 10
179.66974207704607
 20
-76.878198685043742
 10
179.00307541037941
 20
-80.878198685043742
 10
180.33640874371272
 20
-80.878198685043742
 97
        1
330
59C
 75
     0
 76
     0
 98
        0
  0
POLYLINE
  5
5A2
102
{ACAD_REACTORS
330
5A1
102
}
100
AcDbEntity
  8
0
370
     0
  6
Continuous
 62
     5
100
AcDb2dPolyline
 66
     1
 10
0.0
 20
0.0
 30
0.0
 70
   129
  0
VERTEX
  5
5A3
100
AcDbEntity
  8
0
  6
Continuous
 62
     5
100
AcDbVertex
100
AcDb2dVertex
 10
179.669742
 20
-71.946534
 30
0.0
  0
VERTEX
  5
5A4
100
AcDbEntity
  8
0
  6
Continuous
 62
     5
100
AcDbVertex
100
AcDb2dVertex
 10
180.336409
 20
-67.946534
 30
0.0
  0
VERTEX
  5
5A5
100
AcDbEntity
  8
0
  6
Continuous
 62
     5
100
AcDbVertex
100
AcDb2dVertex
 10
179.003075
 20
-67.946534
 30
0.0
  0
SEQEND
  5
5A6
100
AcDbEntity
  8
0
  6
Continuous
 62
     5
  0
HATCH
  5
5A1
100
AcDbEntity
  8
0
  6
Continuous
 62
     5
100
AcDbHatch
 10
0.0
 20
0.0
 30
0.0
210
0.0
220
0.0
230
1.0
  2
SOLID
 70
     1
 71
     1
 91
        1
 92
        3
 72
     0
 73
     1
 93
        3
 10
179.66974207704607
 20
-71.946533561987906
 10
180.33640874371272
 20
-67.946533561987906
 10
179.00307541037941
 20
-67.946533561987906
 97
        1
330
5A2
 75
     0
 76
     0
 98
        0
  0
TEXT
  5
5A7
100
AcDbEntity
  8
0
  6
Continuous
 62
     5
100
AcDbText
 10
185.169742
 20
-86.170699
 30
0.0
 40
2.7025
  1
5
 72
     5
 11
187.275498
 21
-86.170699
 31
0.0
100
AcDbText
  0
ENDBLK
  5
5A8
100
AcDbEntity
  8
0
100
AcDbBlockEnd
  0
BLOCK
  5
5AB
100
AcDbEntity
  8
0
100
AcDbBlockBegin
  2
*D32
 70
     1
 10
0.0
 20
0.0
 30
0.0
  3
*D32
  1

  0
LINE
  5
5AC
100
AcDbEntity
  8
0
370
     0
  6
Continuous
 62
     5
100
AcDbLine
 10
175.578746
 20
-116.923319
 30
0.0
 11
182.527337
 21
-116.923319
 31
0.0
  0
LINE
  5
5AD
100
AcDbEntity
  8
0
370
     0
  6
Continuous
 62
     5
100
AcDbLine
 10
175.159624
 20
-111.794388
 30
0.0
 11
182.527337
 21
-111.794388
 31
0.0
  0
POLYLINE
  5
5AE
100
AcDbEntity
  8
0
370
     0
  6
Continuous
 62
     5
100
AcDb2dPolyline
 66
     1
 10
0.0
 20
0.0
 30
0.0
 70
   128
  0
VERTEX
  5
5AF
100
AcDbEntity
  8
0
  6
Continuous
 62
     5
100
AcDbVertex
100
AcDb2dVertex
 10
179.527337
 20
-124.923319
 30
0.0
  0
VERTEX
  5
5B0
100
AcDbEntity
  8
0
  6
Continuous
 62
     5
100
AcDbVertex
100
AcDb2dVertex
 10
179.527337
 20
-120.923319
 30
0.0
  0
SEQEND
  5
5B1
100
AcDbEntity
  8
0
  6
Continuous
 62
     5
  0
POLYLINE
  5
5B2
100
AcDbEntity
  8
0
370
     0
  6
Continuous
 62
     5
100
AcDb2dPolyline
 66
     1
 10
0.0
 20
0.0
 30
0.0
 70
   128
  0
VERTEX
  5
5B3
100
AcDbEntity
  8
0
  6
Continuous
 62
     5
100
AcDbVertex
100
AcDb2dVertex
 10
179.527337
 20
-116.923319
 30
0.0
  0
VERTEX
  5
5B4
100
AcDbEntity
  8
0
  6
Continuous
 62
     5
100
AcDbVertex
100
AcDb2dVertex
 10
179.527337
 20
-111.794388
 30
0.0
  0
SEQEND
  5
5B5
100
AcDbEntity
  8
0
  6
Continuous
 62
     5
  0
POLYLINE
  5
5B6
100
AcDbEntity
  8
0
370
     0
  6
Continuous
 62
     5
100
AcDb2dPolyline
 66
     1
 10
0.0
 20
0.0
 30
0.0
 70
   128
  0
VERTEX
  5
5B7
100
AcDbEntity
  8
0
  6
Continuous
 62
     5
100
AcDbVertex
100
AcDb2dVertex
 10
183.527337
 20
-103.794388
 30
0.0
  0
VERTEX
  5
5B8
100
AcDbEntity
  8
0
  6
Continuous
 62
     5
100
AcDbVertex
100
AcDb2dVertex
 10
179.527337
 20
-103.794388
 30
0.0
  0
VERTEX
  5
5B9
100
AcDbEntity
  8
0
  6
Continuous
 62
     5
100
AcDbVertex
100
AcDb2dVertex
 10
179.527337
 20
-107.794388
 30
0.0
  0
SEQEND
  5
5BA
100
AcDbEntity
  8
0
  6
Continuous
 62
     5
  0
POLYLINE
  5
5BC
102
{ACAD_REACTORS
330
5BB
102
}
100
AcDbEntity
  8
0
370
     0
  6
Continuous
 62
     5
100
AcDb2dPolyline
 66
     1
 10
0.0
 20
0.0
 30
0.0
 70
   129
  0
VERTEX
  5
5BD
100
AcDbEntity
  8
0
  6
Continuous
 62
     5
100
AcDbVertex
100
AcDb2dVertex
 10
179.527337
 20
-111.794388
 30
0.0
  0
VERTEX
  5
5BE
100
AcDbEntity
  8
0
  6
Continuous
 62
     5
100
AcDbVertex
100
AcDb2dVertex
 10
180.194003
 20
-107.794388
 30
0.0
  0
VERTEX
  5
5BF
100
AcDbEntity
  8
0
  6
Continuous
 62
     5
100
AcDbVertex
100
AcDb2dVertex
 10
178.86067
 20
-107.794388
 30
0.0
  0
SEQEND
  5
5C0
100
AcDbEntity
  8
0
  6
Continuous
 62
     5
  0
HATCH
  5
5BB
100
AcDbEntity
  8
0
  6
Continuous
 62
     5
100
AcDbHatch
 10
0.0
 20
0.0
 30
0.0
210
0.0
220
0.0
230
1.0
  2
SOLID
 70
     1
 71
     1
 91
        1
 92
        3
 72
     0
 73
     1
 93
        3
 10
179.52733668873333
 20
-111.79438775627905
 10
180.19400335539999
 20
-107.79438775627905
 10
178.86067002206667
 20
-107.79438775627905
 97
        1
330
5BC
 75
     0
 76
     0
 98
        0
  0
POLYLINE
  5
5C2
102
{ACAD_REACTORS
330
5C1
102
}
100
AcDbEntity
  8
0
370
     0
  6
Continuous
 62
     5
100
AcDb2dPolyline
 66
     1
 10
0.0
 20
0.0
 30
0.0
 70
   129
  0
VERTEX
  5
5C3
100
AcDbEntity
  8
0
  6
Continuous
 62
     5
100
AcDbVertex
100
AcDb2dVertex
 10
179.527337
 20
-116.923319
 30
0.0
  0
VERTEX
  5
5C4
100
AcDbEntity
  8
0
  6
Continuous
 62
     5
100
AcDbVertex
100
AcDb2dVertex
 10
178.86067
 20
-120.923319
 30
0.0
  0
VERTEX
  5
5C5
100
AcDbEntity
  8
0
  6
Continuous
 62
     5
100
AcDbVertex
100
AcDb2dVertex
 10
180.194003
 20
-120.923319
 30
0.0
  0
SEQEND
  5
5C6
100
AcDbEntity
  8
0
  6
Continuous
 62
     5
  0
HATCH
  5
5C1
100
AcDbEntity
  8
0
  6
Continuous
 62
     5
100
AcDbHatch
 10
0.0
 20
0.0
 30
0.0
210
0.0
220
0.0
230
1.0
  2
SOLID
 70
     1
 71
     1
 91
        1
 92
        3
 72
     0
 73
     1
 93
        3
 10
179.52733668873333
 20
-116.92331948425712
 10
178.86067002206667
 20
-120.92331948425712
 10
180.19400335539999
 20
-120.92331948425712
 97
        1
330
5C2
 75
     0
 76
     0
 98
        0
  0
TEXT
  5
5C7
100
AcDbEntity
  8
0
  6
Continuous
 62
     5
100
AcDbText
 10
185.027337
 20
-105.086888
 30
0.0
 40
2.7025
  1
5
 72
     5
 11
187.133093
 21
-105.086888
 31
0.0
100
AcDbText
  0
ENDBLK
  5
5C8
100
AcDbEntity
  8
0
100
AcDbBlockEnd
  0
BLOCK
  5
5D5
100
AcDbEntity
  8
0
100
AcDbBlockBegin
  2
*D33
 70
     1
 10
0.0
 20
0.0
 30
0.0
  3
*D33
  1

  0
LINE
  5
5D6
100
AcDbEntity
  8
0
370
     0
  6
Continuous
 62
     5
100
AcDbLine
 10
73.163347
 20
-56.09492
 30
0.0
 11
73.163347
 21
-38.658374
 31
0.0
  0
LINE
  5
5D7
100
AcDbEntity
  8
0
370
     0
  6
Continuous
 62
     5
100
AcDbLine
 10
103.348904
 20
-56.09492
 30
0.0
 11
103.348904
 21
-38.658374
 31
0.0
  0
POLYLINE
  5
5D8
100
AcDbEntity
  8
0
370
     0
  6
Continuous
 62
     5
100
AcDb2dPolyline
 66
     1
 10
0.0
 20
0.0
 30
0.0
 70
   128
  0
VERTEX
  5
5D9
100
AcDbEntity
  8
0
  6
Continuous
 62
     5
100
AcDbVertex
100
AcDb2dVertex
 10
77.163347
 20
-41.658374
 30
0.0
  0
VERTEX
  5
5DA
100
AcDbEntity
  8
0
  6
Continuous
 62
     5
100
AcDbVertex
100
AcDb2dVertex
 10
77.163347
 20
-41.658374
 30
0.0
  0
VERTEX
  5
5DB
100
AcDbEntity
  8
0
  6
Continuous
 62
     5
100
AcDbVertex
100
AcDb2dVertex
 10
77.163347
 20
-41.658374
 30
0.0
  0
VERTEX
  5
5DC
100
AcDbEntity
  8
0
  6
Continuous
 62
     5
100
AcDbVertex
100
AcDb2dVertex
 10
84.650369
 20
-41.658374
 30
0.0
  0
SEQEND
  5
5DD
100
AcDbEntity
  8
0
  6
Continuous
 62
     5
  0
POLYLINE
  5
5DE
100
AcDbEntity
  8
0
370
     0
  6
Continuous
 62
     5
100
AcDb2dPolyline
 66
     1
 10
0.0
 20
0.0
 30
0.0
 70
   128
  0
VERTEX
  5
5DF
100
AcDbEntity
  8
0
  6
Continuous
 62
     5
100
AcDbVertex
100
AcDb2dVertex
 10
99.348904
 20
-41.658374
 30
0.0
  0
VERTEX
  5
5E0
100
AcDbEntity
  8
0
  6
Continuous
 62
     5
100
AcDbVertex
100
AcDb2dVertex
 10
99.348904
 20
-41.658374
 30
0.0
  0
VERTEX
  5
5E1
100
AcDbEntity
  8
0
  6
Continuous
 62
     5
100
AcDbVertex
100
AcDb2dVertex
 10
99.348904
 20
-41.658374
 30
0.0
  0
VERTEX
  5
5E2
100
AcDbEntity
  8
0
  6
Continuous
 62
     5
100
AcDbVertex
100
AcDb2dVertex
 10
91.861882
 20
-41.658374
 30
0.0
  0
SEQEND
  5
5E3
100
AcDbEntity
  8
0
  6
Continuous
 62
     5
  0
POLYLINE
  5
5E5
102
{ACAD_REACTORS
330
5E4
102
}
100
AcDbEntity
  8
0
370
     0
  6
Continuous
 62
     5
100
AcDb2dPolyline
 66
     1
 10
0.0
 20
0.0
 30
0.0
 70
   129
  0
VERTEX
  5
5E6
100
AcDbEntity
  8
0
  6
Continuous
 62
     5
100
AcDbVertex
100
AcDb2dVertex
 10
73.163347
 20
-41.658374
 30
0.0
  0
VERTEX
  5
5E7
100
AcDbEntity
  8
0
  6
Continuous
 62
     5
100
AcDbVertex
100
AcDb2dVertex
 10
77.163347
 20
-42.325041
 30
0.0
  0
VERTEX
  5
5E8
100
AcDbEntity
  8
0
  6
Continuous
 62
     5
100
AcDbVertex
100
AcDb2dVertex
 10
77.163347
 20
-40.991707
 30
0.0
  0
SEQEND
  5
5E9
100
AcDbEntity
  8
0
  6
Continuous
 62
     5
  0
HATCH
  5
5E4
100
AcDbEntity
  8
0
  6
Continuous
 62
     5
100
AcDbHatch
 10
0.0
 20
0.0
 30
0.0
210
0.0
220
0.0
230
1.0
  2
SOLID
 70
     1
 71
     1
 91
        1
 92
        3
 72
     0
 73
     1
 93
        3
 10
73.163346571940906
 20
-41.658374068308142
 10
77.163346571940906
 20
-42.325040734974806
 10
77.163346571940906
 20
-40.991707401641477
 97
        1
330
5E5
 75
     0
 76
     0
 98
        0
  0
POLYLINE
  5
5EB
102
{ACAD_REACTORS
330
5EA
102
}
100
AcDbEntity
  8
0
370
     0
  6
Continuous
 62
     5
100
AcDb2dPolyline
 66
     1
 10
0.0
 20
0.0
 30
0.0
 70
   129
  0
VERTEX
  5
5EC
100
AcDbEntity
  8
0
  6
Continuous
 62
     5
100
AcDbVertex
100
AcDb2dVertex
 10
103.348904
 20
-41.658374
 30
0.0
  0
VERTEX
  5
5ED
100
AcDbEntity
  8
0
  6
Continuous
 62
     5
100
AcDbVertex
100
AcDb2dVertex
 10
99.348904
 20
-40.991707
 30
0.0
  0
VERTEX
  5
5EE
100
AcDbEntity
  8
0
  6
Continuous
 62
     5
100
AcDbVertex
100
AcDb2dVertex
 10
99.348904
 20
-42.325041
 30
0.0
  0
SEQEND
  5
5EF
100
AcDbEntity
  8
0
  6
Continuous
 62
     5
  0
HATCH
  5
5EA
100
AcDbEntity
  8
0
  6
Continuous
 62
     5
100
AcDbHatch
 10
0.0
 20
0.0
 30
0.0
210
0.0
220
0.0
230
1.0
  2
SOLID
 70
     1
 71
     1
 91
        1
 92
        3
 72
     0
 73
     1
 93
        3
 10
103.34890436607435
 20
-41.658374068308149
 10
99.34890436607435
 20
-40.991707401641484
 10
99.34890436607435
 20
-42.325040734974813
 97
        1
330
5EB
 75
     0
 76
     0
 98
        0
  0
TEXT
  5
5F0
100
AcDbEntity
  8
0
  6
Continuous
 62
     5
100
AcDbText
 10
86.150369
 20
-42.950874
 30
0.0
 40
2.7025
  1
30
 72
     5
 11
90.361882
 21
-42.950874
 31
0.0
100
AcDbText
  0
ENDBLK
  5
5F1
100
AcDbEntity
  8
0
100
AcDbBlockEnd
  0
BLOCK
  5
5F4
100
AcDbEntity
  8
0
100
AcDbBlockBegin
  2
*D34
 70
     1
 10
0.0
 20
0.0
 30
0.0
  3
*D34
  1

  0
LINE
  5
5F5
100
AcDbEntity
  8
0
370
     0
  6
Continuous
 62
     5
100
AcDbLine
 10
83.563413
 20
-55.965007
 30
0.0
 11
83.563413
 21
-47.189863
 31
0.0
  0
LINE
  5
5F6
100
AcDbEntity
  8
0
370
     0
  6
Continuous
 62
     5
100
AcDbLine
 10
103.348904
 20
-56.09492
 30
0.0
 11
103.348904
 21
-47.189863
 31
0.0
  0
POLYLINE
  5
5F7
100
AcDbEntity
  8
0
370
     0
  6
Continuous
 62
     5
100
AcDb2dPolyline
 66
     1
 10
0.0
 20
0.0
 30
0.0
 70
   128
  0
VERTEX
  5
5F8
100
AcDbEntity
  8
0
  6
Continuous
 62
     5
100
AcDbVertex
100
AcDb2dVertex
 10
87.563413
 20
-50.189863
 30
0.0
  0
VERTEX
  5
5F9
100
AcDbEntity
  8
0
  6
Continuous
 62
     5
100
AcDbVertex
100
AcDb2dVertex
 10
87.563413
 20
-50.189863
 30
0.0
  0
VERTEX
  5
5FA
100
AcDbEntity
  8
0
  6
Continuous
 62
     5
100
AcDbVertex
100
AcDb2dVertex
 10
87.563413
 20
-50.189863
 30
0.0
  0
VERTEX
  5
5FB
100
AcDbEntity
  8
0
  6
Continuous
 62
     5
100
AcDbVertex
100
AcDb2dVertex
 10
89.850402
 20
-50.189863
 30
0.0
  0
SEQEND
  5
5FC
100
AcDbEntity
  8
0
  6
Continuous
 62
     5
  0
POLYLINE
  5
5FD
100
AcDbEntity
  8
0
370
     0
  6
Continuous
 62
     5
100
AcDb2dPolyline
 66
     1
 10
0.0
 20
0.0
 30
0.0
 70
   128
  0
VERTEX
  5
5FE
100
AcDbEntity
  8
0
  6
Continuous
 62
     5
100
AcDbVertex
100
AcDb2dVertex
 10
99.348904
 20
-50.189863
 30
0.0
  0
VERTEX
  5
5FF
100
AcDbEntity
  8
0
  6
Continuous
 62
     5
100
AcDbVertex
100
AcDb2dVertex
 10
99.348904
 20
-50.189863
 30
0.0
  0
VERTEX
  5
600
100
AcDbEntity
  8
0
  6
Continuous
 62
     5
100
AcDbVertex
100
AcDb2dVertex
 10
99.348904
 20
-50.189863
 30
0.0
  0
VERTEX
  5
601
100
AcDbEntity
  8
0
  6
Continuous
 62
     5
100
AcDbVertex
100
AcDb2dVertex
 10
97.061915
 20
-50.189863
 30
0.0
  0
SEQEND
  5
602
100
AcDbEntity
  8
0
  6
Continuous
 62
     5
  0
POLYLINE
  5
604
102
{ACAD_REACTORS
330
603
102
}
100
AcDbEntity
  8
0
370
     0
  6
Continuous
 62
     5
100
AcDb2dPolyline
 66
     1
 10
0.0
 20
0.0
 30
0.0
 70
   129
  0
VERTEX
  5
605
100
AcDbEntity
  8
0
  6
Continuous
 62
     5
100
AcDbVertex
100
AcDb2dVertex
 10
83.563413
 20
-50.189863
 30
0.0
  0
VERTEX
  5
606
100
AcDbEntity
  8
0
  6
Continuous
 62
     5
100
AcDbVertex
100
AcDb2dVertex
 10
87.563413
 20
-50.85653
 30
0.0
  0
VERTEX
  5
607
100
AcDbEntity
  8
0
  6
Continuous
 62
     5
100
AcDbVertex
100
AcDb2dVertex
 10
87.563413
 20
-49.523197
 30
0.0
  0
SEQEND
  5
608
100
AcDbEntity
  8
0
  6
Continuous
 62
     5
  0
HATCH
  5
603
100
AcDbEntity
  8
0
  6
Continuous
 62
     5
100
AcDbHatch
 10
0.0
 20
0.0
 30
0.0
210
0.0
220
0.0
230
1.0
  2
SOLID
 70
     1
 71
     1
 91
        1
 92
        3
 72
     0
 73
     1
 93
        3
 10
83.563412702692801
 20
-50.189863438339046
 10
87.563412702692801
 20
-50.85653010500571
 10
87.563412702692801
 20
-49.523196771672382
 97
        1
330
604
 75
     0
 76
     0
 98
        0
  0
POLYLINE
  5
60A
102
{ACAD_REACTORS
330
609
102
}
100
AcDbEntity
  8
0
370
     0
  6
Continuous
 62
     5
100
AcDb2dPolyline
 66
     1
 10
0.0
 20
0.0
 30
0.0
 70
   129
  0
VERTEX
  5
60B
100
AcDbEntity
  8
0
  6
Continuous
 62
     5
100
AcDbVertex
100
AcDb2dVertex
 10
103.348904
 20
-50.189863
 30
0.0
  0
VERTEX
  5
60C
100
AcDbEntity
  8
0
  6
Continuous
 62
     5
100
AcDbVertex
100
AcDb2dVertex
 10
99.348904
 20
-49.523197
 30
0.0
  0
VERTEX
  5
60D
100
AcDbEntity
  8
0
  6
Continuous
 62
     5
100
AcDbVertex
100
AcDb2dVertex
 10
99.348904
 20
-50.85653
 30
0.0
  0
SEQEND
  5
60E
100
AcDbEntity
  8
0
  6
Continuous
 62
     5
  0
HATCH
  5
609
100
AcDbEntity
  8
0
  6
Continuous
 62
     5
100
AcDbHatch
 10
0.0
 20
0.0
 30
0.0
210
0.0
220
0.0
230
1.0
  2
SOLID
 70
     1
 71
     1
 91
        1
 92
        3
 72
     0
 73
     1
 93
        3
 10
103.34890436607435
 20
-50.189863438339046
 10
99.34890436607435
 20
-49.523196771672382
 10
99.34890436607435
 20
-50.85653010500571
 97
        1
330
60A
 75
     0
 76
     0
 98
        0
  0
TEXT
  5
60F
100
AcDbEntity
  8
0
  6
Continuous
 62
     5
100
AcDbText
 10
91.350402
 20
-51.482363
 30
0.0
 40
2.7025
  1
20
 72
     5
 11
95.561915
 21
-51.482363
 31
0.0
100
AcDbText
  0
ENDBLK
  5
610
100
AcDbEntity
  8
0
100
AcDbBlockEnd
  0
BLOCK
  5
613
100
AcDbEntity
  8
0
100
AcDbBlockBegin
  2
*D35
 70
     1
 10
0.0
 20
0.0
 30
0.0
  3
*D35
  1

  0
LINE
  5
614
100
AcDbEntity
  8
0
370
     0
  6
Continuous
 62
     5
100
AcDbLine
 10
106.816822
 20
-57.594919
 30
0.0
 11
120.816195
 21
-57.594919
 31
0.0
  0
LINE
  5
615
100
AcDbEntity
  8
0
370
     0
  6
Continuous
 62
     5
100
AcDbLine
 10
106.624524
 20
-152.78089
 30
0.0
 11
120.816195
 21
-152.78089
 31
0.0
  0
POLYLINE
  5
616
100
AcDbEntity
  8
0
370
     0
  6
Continuous
 62
     5
100
AcDb2dPolyline
 66
     1
 10
0.0
 20
0.0
 30
0.0
 70
   128
  0
VERTEX
  5
617
100
AcDbEntity
  8
0
  6
Continuous
 62
     5
100
AcDbVertex
100
AcDb2dVertex
 10
117.816195
 20
-61.594919
 30
0.0
  0
VERTEX
  5
618
100
AcDbEntity
  8
0
  6
Continuous
 62
     5
100
AcDbVertex
100
AcDb2dVertex
 10
117.816195
 20
-61.594919
 30
0.0
  0
VERTEX
  5
619
100
AcDbEntity
  8
0
  6
Continuous
 62
     5
100
AcDbVertex
100
AcDb2dVertex
 10
117.816195
 20
-61.594919
 30
0.0
  0
VERTEX
  5
61A
100
AcDbEntity
  8
0
  6
Continuous
 62
     5
100
AcDbVertex
100
AcDb2dVertex
 10
117.816195
 20
-102.649905
 30
0.0
  0
SEQEND
  5
61B
100
AcDbEntity
  8
0
  6
Continuous
 62
     5
  0
POLYLINE
  5
61C
100
AcDbEntity
  8
0
370
     0
  6
Continuous
 62
     5
100
AcDb2dPolyline
 66
     1
 10
0.0
 20
0.0
 30
0.0
 70
   128
  0
VERTEX
  5
61D
100
AcDbEntity
  8
0
  6
Continuous
 62
     5
100
AcDbVertex
100
AcDb2dVertex
 10
117.816195
 20
-148.78089
 30
0.0
  0
VERTEX
  5
61E
100
AcDbEntity
  8
0
  6
Continuous
 62
     5
100
AcDbVertex
100
AcDb2dVertex
 10
117.816195
 20
-148.78089
 30
0.0
  0
VERTEX
  5
61F
100
AcDbEntity
  8
0
  6
Continuous
 62
     5
100
AcDbVertex
100
AcDb2dVertex
 10
117.816195
 20
-148.78089
 30
0.0
  0
VERTEX
  5
620
100
AcDbEntity
  8
0
  6
Continuous
 62
     5
100
AcDbVertex
100
AcDb2dVertex
 10
117.816195
 20
-107.725905
 30
0.0
  0
SEQEND
  5
621
100
AcDbEntity
  8
0
  6
Continuous
 62
     5
  0
POLYLINE
  5
623
102
{ACAD_REACTORS
330
622
102
}
100
AcDbEntity
  8
0
370
     0
  6
Continuous
 62
     5
100
AcDb2dPolyline
 66
     1
 10
0.0
 20
0.0
 30
0.0
 70
   129
  0
VERTEX
  5
624
100
AcDbEntity
  8
0
  6
Continuous
 62
     5
100
AcDbVertex
100
AcDb2dVertex
 10
117.816195
 20
-57.594919
 30
0.0
  0
VERTEX
  5
625
100
AcDbEntity
  8
0
  6
Continuous
 62
     5
100
AcDbVertex
100
AcDb2dVertex
 10
117.149528
 20
-61.594919
 30
0.0
  0
VERTEX
  5
626
100
AcDbEntity
  8
0
  6
Continuous
 62
     5
100
AcDbVertex
100
AcDb2dVertex
 10
118.482862
 20
-61.594919
 30
0.0
  0
SEQEND
  5
627
100
AcDbEntity
  8
0
  6
Continuous
 62
     5
  0
HATCH
  5
622
100
AcDbEntity
  8
0
  6
Continuous
 62
     5
100
AcDbHatch
 10
0.0
 20
0.0
 30
0.0
210
0.0
220
0.0
230
1.0
  2
SOLID
 70
     1
 71
     1
 91
        1
 92
        3
 72
     0
 73
     1
 93
        3
 10
117.81619488835133
 20
-57.594919355045278
 10
117.14952822168466
 20
-61.594919355045278
 10
118.482861555018
 20
-61.594919355045278
 97
        1
330
623
 75
     0
 76
     0
 98
        0
  0
POLYLINE
  5
629
102
{ACAD_REACTORS
330
628
102
}
100
AcDbEntity
  8
0
370
     0
  6
Continuous
 62
     5
100
AcDb2dPolyline
 66
     1
 10
0.0
 20
0.0
 30
0.0
 70
   129
  0
VERTEX
  5
62A
100
AcDbEntity
  8
0
  6
Continuous
 62
     5
100
AcDbVertex
100
AcDb2dVertex
 10
117.816195
 20
-152.78089
 30
0.0
  0
VERTEX
  5
62B
100
AcDbEntity
  8
0
  6
Continuous
 62
     5
100
AcDbVertex
100
AcDb2dVertex
 10
118.482862
 20
-148.78089
 30
0.0
  0
VERTEX
  5
62C
100
AcDbEntity
  8
0
  6
Continuous
 62
     5
100
AcDbVertex
100
AcDb2dVertex
 10
117.149528
 20
-148.78089
 30
0.0
  0
SEQEND
  5
62D
100
AcDbEntity
  8
0
  6
Continuous
 62
     5
  0
HATCH
  5
628
100
AcDbEntity
  8
0
  6
Continuous
 62
     5
100
AcDbHatch
 10
0.0
 20
0.0
 30
0.0
210
0.0
220
0.0
230
1.0
  2
SOLID
 70
     1
 71
     1
 91
        1
 92
        3
 72
     0
 73
     1
 93
        3
 10
117.81619488835133
 20
-152.78089046637785
 10
118.482861555018
 20
-148.78089046637785
 10
117.14952822168466
 20
-148.78089046637785
 97
        1
330
629
 75
     0
 76
     0
 98
        0
  0
TEXT
  5
62E
100
AcDbEntity
  8
0
  6
Continuous
 62
     5
100
AcDbText
 10
115.710439
 20
-106.480405
 30
0.0
 40
2.7025
  1
95
 72
     5
 11
119.921951
 21
-106.480405
 31
0.0
100
AcDbText
  0
ENDBLK
  5
62F
100
AcDbEntity
  8
0
100
AcDbBlockEnd
  0
BLOCK
  5
632
100
AcDbEntity
  8
0
100
AcDbBlockBegin
  2
*D36
 70
     1
 10
0.0
 20
0.0
 30
0.0
  3
*D36
  1

  0
LINE
  5
633
100
AcDbEntity
  8
0
370
     0
  6
Continuous
 62
     5
100
AcDbLine
 10
106.054476
 20
-57.658334
 30
0.0
 11
114.237166
 21
-57.658334
 31
0.0
  0
LINE
  5
634
100
AcDbEntity
  8
0
370
     0
  6
Continuous
 62
     5
100
AcDbLine
 10
105.863542
 20
-132.741739
 30
0.0
 11
114.237166
 21
-132.741739
 31
0.0
  0
POLYLINE
  5
635
100
AcDbEntity
  8
0
370
     0
  6
Continuous
 62
     5
100
AcDb2dPolyline
 66
     1
 10
0.0
 20
0.0
 30
0.0
 70
   128
  0
VERTEX
  5
636
100
AcDbEntity
  8
0
  6
Continuous
 62
     5
100
AcDbVertex
100
AcDb2dVertex
 10
111.237166
 20
-61.658334
 30
0.0
  0
VERTEX
  5
637
100
AcDbEntity
  8
0
  6
Continuous
 62
     5
100
AcDbVertex
100
AcDb2dVertex
 10
111.237166
 20
-61.658334
 30
0.0
  0
VERTEX
  5
638
100
AcDbEntity
  8
0
  6
Continuous
 62
     5
100
AcDbVertex
100
AcDb2dVertex
 10
111.237166
 20
-61.658334
 30
0.0
  0
VERTEX
  5
639
100
AcDbEntity
  8
0
  6
Continuous
 62
     5
100
AcDbVertex
100
AcDb2dVertex
 10
111.237166
 20
-92.662037
 30
0.0
  0
SEQEND
  5
63A
100
AcDbEntity
  8
0
  6
Continuous
 62
     5
  0
POLYLINE
  5
63B
100
AcDbEntity
  8
0
370
     0
  6
Continuous
 62
     5
100
AcDb2dPolyline
 66
     1
 10
0.0
 20
0.0
 30
0.0
 70
   128
  0
VERTEX
  5
63C
100
AcDbEntity
  8
0
  6
Continuous
 62
     5
100
AcDbVertex
100
AcDb2dVertex
 10
111.237166
 20
-128.741739
 30
0.0
  0
VERTEX
  5
63D
100
AcDbEntity
  8
0
  6
Continuous
 62
     5
100
AcDbVertex
100
AcDb2dVertex
 10
111.237166
 20
-128.741739
 30
0.0
  0
VERTEX
  5
63E
100
AcDbEntity
  8
0
  6
Continuous
 62
     5
100
AcDbVertex
100
AcDb2dVertex
 10
111.237166
 20
-128.741739
 30
0.0
  0
VERTEX
  5
63F
100
AcDbEntity
  8
0
  6
Continuous
 62
     5
100
AcDbVertex
100
AcDb2dVertex
 10
111.237166
 20
-97.738037
 30
0.0
  0
SEQEND
  5
640
100
AcDbEntity
  8
0
  6
Continuous
 62
     5
  0
POLYLINE
  5
642
102
{ACAD_REACTORS
330
641
102
}
100
AcDbEntity
  8
0
370
     0
  6
Continuous
 62
     5
100
AcDb2dPolyline
 66
     1
 10
0.0
 20
0.0
 30
0.0
 70
   129
  0
VERTEX
  5
643
100
AcDbEntity
  8
0
  6
Continuous
 62
     5
100
AcDbVertex
100
AcDb2dVertex
 10
111.237166
 20
-57.658334
 30
0.0
  0
VERTEX
  5
644
100
AcDbEntity
  8
0
  6
Continuous
 62
     5
100
AcDbVertex
100
AcDb2dVertex
 10
110.570499
 20
-61.658334
 30
0.0
  0
VERTEX
  5
645
100
AcDbEntity
  8
0
  6
Continuous
 62
     5
100
AcDbVertex
100
AcDb2dVertex
 10
111.903833
 20
-61.658334
 30
0.0
  0
SEQEND
  5
646
100
AcDbEntity
  8
0
  6
Continuous
 62
     5
  0
HATCH
  5
641
100
AcDbEntity
  8
0
  6
Continuous
 62
     5
100
AcDbHatch
 10
0.0
 20
0.0
 30
0.0
210
0.0
220
0.0
230
1.0
  2
SOLID
 70
     1
 71
     1
 91
        1
 92
        3
 72
     0
 73
     1
 93
        3
 10
111.23716601484358
 20
-57.658334392427918
 10
110.57049934817691
 20
-61.658334392427918
 10
111.90383268151025
 20
-61.658334392427918
 97
        1
330
642
 75
     0
 76
     0
 98
        0
  0
POLYLINE
  5
648
102
{ACAD_REACTORS
330
647
102
}
100
AcDbEntity
  8
0
370
     0
  6
Continuous
 62
     5
100
AcDb2dPolyline
 66
     1
 10
0.0
 20
0.0
 30
0.0
 70
   129
  0
VERTEX
  5
649
100
AcDbEntity
  8
0
  6
Continuous
 62
     5
100
AcDbVertex
100
AcDb2dVertex
 10
111.237166
 20
-132.741739
 30
0.0
  0
VERTEX
  5
64A
100
AcDbEntity
  8
0
  6
Continuous
 62
     5
100
AcDbVertex
100
AcDb2dVertex
 10
111.903833
 20
-128.741739
 30
0.0
  0
VERTEX
  5
64B
100
AcDbEntity
  8
0
  6
Continuous
 62
     5
100
AcDbVertex
100
AcDb2dVertex
 10
110.570499
 20
-128.741739
 30
0.0
  0
SEQEND
  5
64C
100
AcDbEntity
  8
0
  6
Continuous
 62
     5
  0
HATCH
  5
647
100
AcDbEntity
  8
0
  6
Continuous
 62
     5
100
AcDbHatch
 10
0.0
 20
0.0
 30
0.0
210
0.0
220
0.0
230
1.0
  2
SOLID
 70
     1
 71
     1
 91
        1
 92
        3
 72
     0
 73
     1
 93
        3
 10
111.23716601484358
 20
-132.74173865346575
 10
111.90383268151025
 20
-128.74173865346575
 10
110.57049934817691
 20
-128.74173865346575
 97
        1
330
648
 75
     0
 76
     0
 98
        0
  0
TEXT
  5
64D
100
AcDbEntity
  8
0
  6
Continuous
 62
     5
100
AcDbText
 10
109.13141
 20
-96.492537
 30
0.0
 40
2.7025
  1
75
 72
     5
 11
113.342922
 21
-96.492537
 31
0.0
100
AcDbText
  0
ENDBLK
  5
64E
100
AcDbEntity
  8
0
100
AcDbBlockEnd
  0
BLOCK
  5
651
100
AcDbEntity
  8
0
100
AcDbBlockBegin
  2
*D37
 70
     1
 10
0.0
 20
0.0
 30
0.0
  3
*D37
  1

  0
LINE
  5
652
100
AcDbEntity
  8
0
370
     0
  6
Continuous
 62
     5
100
AcDbLine
 10
71.349109
 20
-57.658334
 30
0.0
 11
61.18872
 21
-57.658334
 31
0.0
  0
LINE
  5
653
100
AcDbEntity
  8
0
370
     0
  6
Continuous
 62
     5
100
AcDbLine
 10
71.917003
 20
-142.634484
 30
0.0
 11
61.18872
 21
-142.634484
 31
0.0
  0
POLYLINE
  5
654
100
AcDbEntity
  8
0
370
     0
  6
Continuous
 62
     5
100
AcDb2dPolyline
 66
     1
 10
0.0
 20
0.0
 30
0.0
 70
   128
  0
VERTEX
  5
655
100
AcDbEntity
  8
0
  6
Continuous
 62
     5
100
AcDbVertex
100
AcDb2dVertex
 10
64.18872
 20
-61.658334
 30
0.0
  0
VERTEX
  5
656
100
AcDbEntity
  8
0
  6
Continuous
 62
     5
100
AcDbVertex
100
AcDb2dVertex
 10
64.18872
 20
-61.658334
 30
0.0
  0
VERTEX
  5
657
100
AcDbEntity
  8
0
  6
Continuous
 62
     5
100
AcDbVertex
100
AcDb2dVertex
 10
64.18872
 20
-61.658334
 30
0.0
  0
VERTEX
  5
658
100
AcDbEntity
  8
0
  6
Continuous
 62
     5
100
AcDbVertex
100
AcDb2dVertex
 10
64.18872
 20
-97.608409
 30
0.0
  0
SEQEND
  5
659
100
AcDbEntity
  8
0
  6
Continuous
 62
     5
  0
POLYLINE
  5
65A
100
AcDbEntity
  8
0
370
     0
  6
Continuous
 62
     5
100
AcDb2dPolyline
 66
     1
 10
0.0
 20
0.0
 30
0.0
 70
   128
  0
VERTEX
  5
65B
100
AcDbEntity
  8
0
  6
Continuous
 62
     5
100
AcDbVertex
100
AcDb2dVertex
 10
64.18872
 20
-138.634484
 30
0.0
  0
VERTEX
  5
65C
100
AcDbEntity
  8
0
  6
Continuous
 62
     5
100
AcDbVertex
100
AcDb2dVertex
 10
64.18872
 20
-138.634484
 30
0.0
  0
VERTEX
  5
65D
100
AcDbEntity
  8
0
  6
Continuous
 62
     5
100
AcDbVertex
100
AcDb2dVertex
 10
64.18872
 20
-138.634484
 30
0.0
  0
VERTEX
  5
65E
100
AcDbEntity
  8
0
  6
Continuous
 62
     5
100
AcDbVertex
100
AcDb2dVertex
 10
64.18872
 20
-102.684409
 30
0.0
  0
SEQEND
  5
65F
100
AcDbEntity
  8
0
  6
Continuous
 62
     5
  0
POLYLINE
  5
661
102
{ACAD_REACTORS
330
660
102
}
100
AcDbEntity
  8
0
370
     0
  6
Continuous
 62
     5
100
AcDb2dPolyline
 66
     1
 10
0.0
 20
0.0
 30
0.0
 70
   129
  0
VERTEX
  5
662
100
AcDbEntity
  8
0
  6
Continuous
 62
     5
100
AcDbVertex
100
AcDb2dVertex
 10
64.18872
 20
-57.658334
 30
0.0
  0
VERTEX
  5
663
100
AcDbEntity
  8
0
  6
Continuous
 62
     5
100
AcDbVertex
100
AcDb2dVertex
 10
63.522053
 20
-61.658334
 30
0.0
  0
VERTEX
  5
664
100
AcDbEntity
  8
0
  6
Continuous
 62
     5
100
AcDbVertex
100
AcDb2dVertex
 10
64.855386
 20
-61.658334
 30
0.0
  0
SEQEND
  5
665
100
AcDbEntity
  8
0
  6
Continuous
 62
     5
  0
HATCH
  5
660
100
AcDbEntity
  8
0
  6
Continuous
 62
     5
100
AcDbHatch
 10
0.0
 20
0.0
 30
0.0
210
0.0
220
0.0
230
1.0
  2
SOLID
 70
     1
 71
     1
 91
        1
 92
        3
 72
     0
 73
     1
 93
        3
 10
64.188719638353405
 20
-57.658334392427918
 10
63.52205297168674
 20
-61.658334392427918
 10
64.855386305020076
 20
-61.658334392427918
 97
        1
330
661
 75
     0
 76
     0
 98
        0
  0
POLYLINE
  5
667
102
{ACAD_REACTORS
330
666
102
}
100
AcDbEntity
  8
0
370
     0
  6
Continuous
 62
     5
100
AcDb2dPolyline
 66
     1
 10
0.0
 20
0.0
 30
0.0
 70
   129
  0
VERTEX
  5
668
100
AcDbEntity
  8
0
  6
Continuous
 62
     5
100
AcDbVertex
100
AcDb2dVertex
 10
64.18872
 20
-142.634484
 30
0.0
  0
VERTEX
  5
669
100
AcDbEntity
  8
0
  6
Continuous
 62
     5
100
AcDbVertex
100
AcDb2dVertex
 10
64.855386
 20
-138.634484
 30
0.0
  0
VERTEX
  5
66A
100
AcDbEntity
  8
0
  6
Continuous
 62
     5
100
AcDbVertex
100
AcDb2dVertex
 10
63.522053
 20
-138.634484
 30
0.0
  0
SEQEND
  5
66B
100
AcDbEntity
  8
0
  6
Continuous
 62
     5
  0
HATCH
  5
666
100
AcDbEntity
  8
0
  6
Continuous
 62
     5
100
AcDbHatch
 10
0.0
 20
0.0
 30
0.0
210
0.0
220
0.0
230
1.0
  2
SOLID
 70
     1
 71
     1
 91
        1
 92
        3
 72
     0
 73
     1
 93
        3
 10
64.188719638353405
 20
-142.63448448515652
 10
64.855386305020076
 20
-138.63448448515652
 10
63.52205297168674
 20
-138.63448448515652
 97
        1
330
667
 75
     0
 76
     0
 98
        0
  0
TEXT
  5
66C
100
AcDbEntity
  8
0
  6
Continuous
 62
     5
100
AcDbText
 10
62.082964
 20
-101.438909
 30
0.0
 40
2.7025
  1
85
 72
     5
 11
66.294476
 21
-101.438909
 31
0.0
100
AcDbText
  0
ENDBLK
  5
66D
100
AcDbEntity
  8
0
100
AcDbBlockEnd
  0
BLOCK
  5
670
100
AcDbEntity
  8
0
100
AcDbBlockBegin
  2
*D38
 70
     1
 10
0.0
 20
0.0
 30
0.0
  3
*D38
  1

  0
LINE
  5
671
100
AcDbEntity
  8
0
370
     0
  6
Continuous
 62
     5
100
AcDbLine
 10
103.348904
 20
-154.280892
 30
0.0
 11
103.348904
 21
-163.888715
 31
0.0
  0
LINE
  5
672
100
AcDbEntity
  8
0
370
     0
  6
Continuous
 62
     5
100
AcDbLine
 10
93.202498
 20
-154.280892
 30
0.0
 11
93.202498
 21
-163.888715
 31
0.0
  0
POLYLINE
  5
673
100
AcDbEntity
  8
0
370
     0
  6
Continuous
 62
     5
100
AcDb2dPolyline
 66
     1
 10
0.0
 20
0.0
 30
0.0
 70
   128
  0
VERTEX
  5
674
100
AcDbEntity
  8
0
  6
Continuous
 62
     5
100
AcDbVertex
100
AcDb2dVertex
 10
111.348904
 20
-160.888715
 30
0.0
  0
VERTEX
  5
675
100
AcDbEntity
  8
0
  6
Continuous
 62
     5
100
AcDbVertex
100
AcDb2dVertex
 10
107.348904
 20
-160.888715
 30
0.0
  0
SEQEND
  5
676
100
AcDbEntity
  8
0
  6
Continuous
 62
     5
  0
POLYLINE
  5
677
100
AcDbEntity
  8
0
370
     0
  6
Continuous
 62
     5
100
AcDb2dPolyline
 66
     1
 10
0.0
 20
0.0
 30
0.0
 70
   128
  0
VERTEX
  5
678
100
AcDbEntity
  8
0
  6
Continuous
 62
     5
100
AcDbVertex
100
AcDb2dVertex
 10
103.348904
 20
-160.888715
 30
0.0
  0
VERTEX
  5
679
100
AcDbEntity
  8
0
  6
Continuous
 62
     5
100
AcDbVertex
100
AcDb2dVertex
 10
93.202498
 20
-160.888715
 30
0.0
  0
SEQEND
  5
67A
100
AcDbEntity
  8
0
  6
Continuous
 62
     5
  0
POLYLINE
  5
67B
100
AcDbEntity
  8
0
370
     0
  6
Continuous
 62
     5
100
AcDb2dPolyline
 66
     1
 10
0.0
 20
0.0
 30
0.0
 70
   128
  0
VERTEX
  5
67C
100
AcDbEntity
  8
0
  6
Continuous
 62
     5
100
AcDbVertex
100
AcDb2dVertex
 10
81.202498
 20
-160.888715
 30
0.0
  0
VERTEX
  5
67D
100
AcDbEntity
  8
0
  6
Continuous
 62
     5
100
AcDbVertex
100
AcDb2dVertex
 10
85.202498
 20
-160.888715
 30
0.0
  0
VERTEX
  5
67E
100
AcDbEntity
  8
0
  6
Continuous
 62
     5
100
AcDbVertex
100
AcDb2dVertex
 10
89.202498
 20
-160.888715
 30
0.0
  0
SEQEND
  5
67F
100
AcDbEntity
  8
0
  6
Continuous
 62
     5
  0
POLYLINE
  5
681
102
{ACAD_REACTORS
330
680
102
}
100
AcDbEntity
  8
0
370
     0
  6
Continuous
 62
     5
100
AcDb2dPolyline
 66
     1
 10
0.0
 20
0.0
 30
0.0
 70
   129
  0
VERTEX
  5
682
100
AcDbEntity
  8
0
  6
Continuous
 62
     5
100
AcDbVertex
100
AcDb2dVertex
 10
93.202498
 20
-160.888715
 30
0.0
  0
VERTEX
  5
683
100
AcDbEntity
  8
0
  6
Continuous
 62
     5
100
AcDbVertex
100
AcDb2dVertex
 10
89.202498
 20
-160.222048
 30
0.0
  0
VERTEX
  5
684
100
AcDbEntity
  8
0
  6
Continuous
 62
     5
100
AcDbVertex
100
AcDb2dVertex
 10
89.202498
 20
-161.555381
 30
0.0
  0
SEQEND
  5
685
100
AcDbEntity
  8
0
  6
Continuous
 62
     5
  0
HATCH
  5
680
100
AcDbEntity
  8
0
  6
Continuous
 62
     5
100
AcDbHatch
 10
0.0
 20
0.0
 30
0.0
210
0.0
220
0.0
230
1.0
  2
SOLID
 70
     1
 71
     1
 91
        1
 92
        3
 72
     0
 73
     1
 93
        3
 10
93.202498384853072
 20
-160.88871465162259
 10
89.202498384853072
 20
-160.22204798495594
 10
89.202498384853072
 20
-161.55538131828925
 97
        1
330
681
 75
     0
 76
     0
 98
        0
  0
POLYLINE
  5
687
102
{ACAD_REACTORS
330
686
102
}
100
AcDbEntity
  8
0
370
     0
  6
Continuous
 62
     5
100
AcDb2dPolyline
 66
     1
 10
0.0
 20
0.0
 30
0.0
 70
   129
  0
VERTEX
  5
688
100
AcDbEntity
  8
0
  6
Continuous
 62
     5
100
AcDbVertex
100
AcDb2dVertex
 10
103.348904
 20
-160.888715
 30
0.0
  0
VERTEX
  5
689
100
AcDbEntity
  8
0
  6
Continuous
 62
     5
100
AcDbVertex
100
AcDb2dVertex
 10
107.348904
 20
-161.555381
 30
0.0
  0
VERTEX
  5
68A
100
AcDbEntity
  8
0
  6
Continuous
 62
     5
100
AcDbVertex
100
AcDb2dVertex
 10
107.348904
 20
-160.222048
 30
0.0
  0
SEQEND
  5
68B
100
AcDbEntity
  8
0
  6
Continuous
 62
     5
  0
HATCH
  5
686
100
AcDbEntity
  8
0
  6
Continuous
 62
     5
100
AcDbHatch
 10
0.0
 20
0.0
 30
0.0
210
0.0
220
0.0
230
1.0
  2
SOLID
 70
     1
 71
     1
 91
        1
 92
        3
 72
     0
 73
     1
 93
        3
 10
103.34890436607435
 20
-160.88871465162259
 10
107.34890436607435
 20
-161.55538131828925
 10
107.34890436607435
 20
-160.22204798495594
 97
        1
330
687
 75
     0
 76
     0
 98
        0
  0
TEXT
  5
68C
100
AcDbEntity
  8
0
  6
Continuous
 62
     5
100
AcDbText
 10
75.490986
 20
-162.181215
 30
0.0
 40
2.7025
  1
10
 72
     5
 11
79.702498
 21
-162.181215
 31
0.0
100
AcDbText
  0
ENDBLK
  5
68D
100
AcDbEntity
  8
0
100
AcDbBlockEnd
  0
BLOCK
  5
691
100
AcDbEntity
  8
0
100
AcDbBlockBegin
  2
*D39
 70
     1
 10
0.0
 20
0.0
 30
0.0
  3
*D39
  1

  0
LINE
  5
692
100
AcDbEntity
  8
0
370
     0
  6
Continuous
 62
     5
100
AcDbLine
 10
113.927214
 20
132.186689
 30
0.0
 11
113.927214
 21
144.460412
 31
0.0
  0
LINE
  5
693
100
AcDbEntity
  8
0
370
     0
  6
Continuous
 62
     5
100
AcDbLine
 10
154.029406
 20
132.186689
 30
0.0
 11
154.029406
 21
144.460412
 31
0.0
  0
POLYLINE
  5
694
100
AcDbEntity
  8
0
370
     0
  6
Continuous
 62
     5
100
AcDb2dPolyline
 66
     1
 10
0.0
 20
0.0
 30
0.0
 70
   128
  0
VERTEX
  5
695
100
AcDbEntity
  8
0
  6
Continuous
 62
     5
100
AcDbVertex
100
AcDb2dVertex
 10
117.927214
 20
141.460412
 30
0.0
  0
VERTEX
  5
696
100
AcDbEntity
  8
0
  6
Continuous
 62
     5
100
AcDbVertex
100
AcDb2dVertex
 10
117.927214
 20
141.460412
 30
0.0
  0
VERTEX
  5
697
100
AcDbEntity
  8
0
  6
Continuous
 62
     5
100
AcDbVertex
100
AcDb2dVertex
 10
117.927214
 20
141.460412
 30
0.0
  0
VERTEX
  5
698
100
AcDbEntity
  8
0
  6
Continuous
 62
     5
100
AcDbVertex
100
AcDb2dVertex
 10
130.372554
 20
141.460412
 30
0.0
  0
SEQEND
  5
699
100
AcDbEntity
  8
0
  6
Continuous
 62
     5
  0
POLYLINE
  5
69A
100
AcDbEntity
  8
0
370
     0
  6
Continuous
 62
     5
100
AcDb2dPolyline
 66
     1
 10
0.0
 20
0.0
 30
0.0
 70
   128
  0
VERTEX
  5
69B
100
AcDbEntity
  8
0
  6
Continuous
 62
     5
100
AcDbVertex
100
AcDb2dVertex
 10
150.029406
 20
141.460412
 30
0.0
  0
VERTEX
  5
69C
100
AcDbEntity
  8
0
  6
Continuous
 62
     5
100
AcDbVertex
100
AcDb2dVertex
 10
150.029406
 20
141.460412
 30
0.0
  0
VERTEX
  5
69D
100
AcDbEntity
  8
0
  6
Continuous
 62
     5
100
AcDbVertex
100
AcDb2dVertex
 10
150.029406
 20
141.460412
 30
0.0
  0
VERTEX
  5
69E
100
AcDbEntity
  8
0
  6
Continuous
 62
     5
100
AcDbVertex
100
AcDb2dVertex
 10
137.584066
 20
141.460412
 30
0.0
  0
SEQEND
  5
69F
100
AcDbEntity
  8
0
  6
Continuous
 62
     5
  0
POLYLINE
  5
6A1
102
{ACAD_REACTORS
330
6A0
102
}
100
AcDbEntity
  8
0
370
     0
  6
Continuous
 62
     5
100
AcDb2dPolyline
 66
     1
 10
0.0
 20
0.0
 30
0.0
 70
   129
  0
VERTEX
  5
6A2
100
AcDbEntity
  8
0
  6
Continuous
 62
     5
100
AcDbVertex
100
AcDb2dVertex
 10
113.927214
 20
141.460412
 30
0.0
  0
VERTEX
  5
6A3
100
AcDbEntity
  8
0
  6
Continuous
 62
     5
100
AcDbVertex
100
AcDb2dVertex
 10
117.927214
 20
140.793745
 30
0.0
  0
VERTEX
  5
6A4
100
AcDbEntity
  8
0
  6
Continuous
 62
     5
100
AcDbVertex
100
AcDb2dVertex
 10
117.927214
 20
142.127079
 30
0.0
  0
SEQEND
  5
6A5
100
AcDbEntity
  8
0
  6
Continuous
 62
     5
  0
HATCH
  5
6A0
100
AcDbEntity
  8
0
  6
Continuous
 62
     5
100
AcDbHatch
 10
0.0
 20
0.0
 30
0.0
210
0.0
220
0.0
230
1.0
  2
SOLID
 70
     1
 71
     1
 91
        1
 92
        3
 72
     0
 73
     1
 93
        3
 10
113.92721355114745
 20
141.4604119008381
 10
117.92721355114745
 20
140.79374523417144
 10
117.92721355114745
 20
142.12707856750475
 97
        1
330
6A1
 75
     0
 76
     0
 98
        0
  0
POLYLINE
  5
6A7
102
{ACAD_REACTORS
330
6A6
102
}
100
AcDbEntity
  8
0
370
     0
  6
Continuous
 62
     5
100
AcDb2dPolyline
 66
     1
 10
0.0
 20
0.0
 30
0.0
 70
   129
  0
VERTEX
  5
6A8
100
AcDbEntity
  8
0
  6
Continuous
 62
     5
100
AcDbVertex
100
AcDb2dVertex
 10
154.029406
 20
141.460412
 30
0.0
  0
VERTEX
  5
6A9
100
AcDbEntity
  8
0
  6
Continuous
 62
     5
100
AcDbVertex
100
AcDb2dVertex
 10
150.029406
 20
142.127079
 30
0.0
  0
VERTEX
  5
6AA
100
AcDbEntity
  8
0
  6
Continuous
 62
     5
100
AcDbVertex
100
AcDb2dVertex
 10
150.029406
 20
140.793745
 30
0.0
  0
SEQEND
  5
6AB
100
AcDbEntity
  8
0
  6
Continuous
 62
     5
  0
HATCH
  5
6A6
100
AcDbEntity
  8
0
  6
Continuous
 62
     5
100
AcDbHatch
 10
0.0
 20
0.0
 30
0.0
210
0.0
220
0.0
230
1.0
  2
SOLID
 70
     1
 71
     1
 91
        1
 92
        3
 72
     0
 73
     1
 93
        3
 10
154.02940620413852
 20
141.4604119008381
 10
150.02940620413852
 20
142.12707856750475
 10
150.02940620413852
 20
140.79374523417144
 97
        1
330
6A7
 75
     0
 76
     0
 98
        0
  0
TEXT
  5
6AC
100
AcDbEntity
  8
0
  6
Continuous
 62
     5
100
AcDbText
 10
131.872554
 20
140.167912
 30
0.0
 40
2.7025
  1
40
 72
     5
 11
136.084066
 21
140.167912
 31
0.0
100
AcDbText
  0
ENDBLK
  5
6AD
100
AcDbEntity
  8
0
100
AcDbBlockEnd
  0
BLOCK
  5
6B0
100
AcDbEntity
  8
0
100
AcDbBlockBegin
  2
*D40
 70
     1
 10
0.0
 20
0.0
 30
0.0
  3
*D40
  1

  0
LINE
  5
6B1
100
AcDbEntity
  8
0
370
     0
  6
Continuous
 62
     5
100
AcDbLine
 10
86.095095
 20
3.919304
 30
0.0
 11
86.095095
 21
-13.142741
 31
0.0
  0
LINE
  5
6B2
100
AcDbEntity
  8
0
370
     0
  6
Continuous
 62
     5
100
AcDbLine
 10
184.854228
 20
-2.664638
 30
0.0
 11
184.854228
 21
-13.142741
 31
0.0
  0
POLYLINE
  5
6B3
100
AcDbEntity
  8
0
370
     0
  6
Continuous
 62
     5
100
AcDb2dPolyline
 66
     1
 10
0.0
 20
0.0
 30
0.0
 70
   128
  0
VERTEX
  5
6B4
100
AcDbEntity
  8
0
  6
Continuous
 62
     5
100
AcDbVertex
100
AcDb2dVertex
 10
90.095095
 20
-10.142741
 30
0.0
  0
VERTEX
  5
6B5
100
AcDbEntity
  8
0
  6
Continuous
 62
     5
100
AcDbVertex
100
AcDb2dVertex
 10
90.095095
 20
-10.142741
 30
0.0
  0
VERTEX
  5
6B6
100
AcDbEntity
  8
0
  6
Continuous
 62
     5
100
AcDbVertex
100
AcDb2dVertex
 10
90.095095
 20
-10.142741
 30
0.0
  0
VERTEX
  5
6B7
100
AcDbEntity
  8
0
  6
Continuous
 62
     5
100
AcDbVertex
100
AcDb2dVertex
 10
130.816027
 20
-10.142741
 30
0.0
  0
SEQEND
  5
6B8
100
AcDbEntity
  8
0
  6
Continuous
 62
     5
  0
POLYLINE
  5
6B9
100
AcDbEntity
  8
0
370
     0
  6
Continuous
 62
     5
100
AcDb2dPolyline
 66
     1
 10
0.0
 20
0.0
 30
0.0
 70
   128
  0
VERTEX
  5
6BA
100
AcDbEntity
  8
0
  6
Continuous
 62
     5
100
AcDbVertex
100
AcDb2dVertex
 10
180.854228
 20
-10.142741
 30
0.0
  0
VERTEX
  5
6BB
100
AcDbEntity
  8
0
  6
Continuous
 62
     5
100
AcDbVertex
100
AcDb2dVertex
 10
180.854228
 20
-10.142741
 30
0.0
  0
VERTEX
  5
6BC
100
AcDbEntity
  8
0
  6
Continuous
 62
     5
100
AcDbVertex
100
AcDb2dVertex
 10
180.854228
 20
-10.142741
 30
0.0
  0
VERTEX
  5
6BD
100
AcDbEntity
  8
0
  6
Continuous
 62
     5
100
AcDbVertex
100
AcDb2dVertex
 10
140.133296
 20
-10.142741
 30
0.0
  0
SEQEND
  5
6BE
100
AcDbEntity
  8
0
  6
Continuous
 62
     5
  0
POLYLINE
  5
6C0
102
{ACAD_REACTORS
330
6BF
102
}
100
AcDbEntity
  8
0
370
     0
  6
Continuous
 62
     5
100
AcDb2dPolyline
 66
     1
 10
0.0
 20
0.0
 30
0.0
 70
   129
  0
VERTEX
  5
6C1
100
AcDbEntity
  8
0
  6
Continuous
 62
     5
100
AcDbVertex
100
AcDb2dVertex
 10
86.095095
 20
-10.142741
 30
0.0
  0
VERTEX
  5
6C2
100
AcDbEntity
  8
0
  6
Continuous
 62
     5
100
AcDbVertex
100
AcDb2dVertex
 10
90.095095
 20
-10.809407
 30
0.0
  0
VERTEX
  5
6C3
100
AcDbEntity
  8
0
  6
Continuous
 62
     5
100
AcDbVertex
100
AcDb2dVertex
 10
90.095095
 20
-9.476074
 30
0.0
  0
SEQEND
  5
6C4
100
AcDbEntity
  8
0
  6
Continuous
 62
     5
  0
HATCH
  5
6BF
100
AcDbEntity
  8
0
  6
Continuous
 62
     5
100
AcDbHatch
 10
0.0
 20
0.0
 30
0.0
210
0.0
220
0.0
230
1.0
  2
SOLID
 70
     1
 71
     1
 91
        1
 92
        3
 72
     0
 73
     1
 93
        3
 10
86.095095266554523
 20
-10.142740702655175
 10
90.095095266554523
 20
-10.809407369321841
 10
90.095095266554523
 20
-9.4760740359885087
 97
        1
330
6C0
 75
     0
 76
     0
 98
        0
  0
POLYLINE
  5
6C6
102
{ACAD_REACTORS
330
6C5
102
}
100
AcDbEntity
  8
0
370
     0
  6
Continuous
 62
     5
100
AcDb2dPolyline
 66
     1
 10
0.0
 20
0.0
 30
0.0
 70
   129
  0
VERTEX
  5
6C7
100
AcDbEntity
  8
0
  6
Continuous
 62
     5
100
AcDbVertex
100
AcDb2dVertex
 10
184.854228
 20
-10.142741
 30
0.0
  0
VERTEX
  5
6C8
100
AcDbEntity
  8
0
  6
Continuous
 62
     5
100
AcDbVertex
100
AcDb2dVertex
 10
180.854228
 20
-9.476074
 30
0.0
  0
VERTEX
  5
6C9
100
AcDbEntity
  8
0
  6
Continuous
 62
     5
100
AcDbVertex
100
AcDb2dVertex
 10
180.854228
 20
-10.809407
 30
0.0
  0
SEQEND
  5
6CA
100
AcDbEntity
  8
0
  6
Continuous
 62
     5
  0
HATCH
  5
6C5
100
AcDbEntity
  8
0
  6
Continuous
 62
     5
100
AcDbHatch
 10
0.0
 20
0.0
 30
0.0
210
0.0
220
0.0
230
1.0
  2
SOLID
 70
     1
 71
     1
 91
        1
 92
        3
 72
     0
 73
     1
 93
        3
 10
184.85422758181397
 20
-10.142740702655175
 10
180.85422758181397
 20
-9.4760740359885087
 10
180.85422758181397
 20
-10.809407369321841
 97
        1
330
6C6
 75
     0
 76
     0
 98
        0
  0
TEXT
  5
6CB
100
AcDbEntity
  8
0
  6
Continuous
 62
     5
100
AcDbText
 10
132.316027
 20
-11.435241
 30
0.0
 40
2.7025
  1
100
 72
     5
 11
138.633296
 21
-11.435241
 31
0.0
100
AcDbText
  0
ENDBLK
  5
6CC
100
AcDbEntity
  8
0
100
AcDbBlockEnd
  0
BLOCK
  5
6CF
100
AcDbEntity
  8
0
100
AcDbBlockBegin
  2
*D41
 70
     1
 10
0.0
 20
0.0
 30
0.0
  3
*D41
  1

  0
LINE
  5
6D0
100
AcDbEntity
  8
0
370
     0
  6
Continuous
 62
     5
100
AcDbLine
 10
-65.192215
 20
64.559364
 30
0.0
 11
-65.192215
 21
146.937108
 31
0.0
  0
LINE
  5
6D1
100
AcDbEntity
  8
0
370
     0
  6
Continuous
 62
     5
100
AcDbLine
 10
64.990278
 20
63.661554
 30
0.0
 11
64.990278
 21
146.937108
 31
0.0
  0
POLYLINE
  5
6D2
100
AcDbEntity
  8
0
370
     0
  6
Continuous
 62
     5
100
AcDb2dPolyline
 66
     1
 10
0.0
 20
0.0
 30
0.0
 70
   128
  0
VERTEX
  5
6D3
100
AcDbEntity
  8
0
  6
Continuous
 62
     5
100
AcDbVertex
100
AcDb2dVertex
 10
-61.192215
 20
143.937108
 30
0.0
  0
VERTEX
  5
6D4
100
AcDbEntity
  8
0
  6
Continuous
 62
     5
100
AcDbVertex
100
AcDb2dVertex
 10
-61.192215
 20
143.937108
 30
0.0
  0
VERTEX
  5
6D5
100
AcDbEntity
  8
0
  6
Continuous
 62
     5
100
AcDbVertex
100
AcDb2dVertex
 10
-61.192215
 20
143.937108
 30
0.0
  0
VERTEX
  5
6D6
100
AcDbEntity
  8
0
  6
Continuous
 62
     5
100
AcDbVertex
100
AcDb2dVertex
 10
-4.759603
 20
143.937108
 30
0.0
  0
SEQEND
  5
6D7
100
AcDbEntity
  8
0
  6
Continuous
 62
     5
  0
POLYLINE
  5
6D8
100
AcDbEntity
  8
0
370
     0
  6
Continuous
 62
     5
100
AcDb2dPolyline
 66
     1
 10
0.0
 20
0.0
 30
0.0
 70
   128
  0
VERTEX
  5
6D9
100
AcDbEntity
  8
0
  6
Continuous
 62
     5
100
AcDbVertex
100
AcDb2dVertex
 10
60.990278
 20
143.937108
 30
0.0
  0
VERTEX
  5
6DA
100
AcDbEntity
  8
0
  6
Continuous
 62
     5
100
AcDbVertex
100
AcDb2dVertex
 10
60.990278
 20
143.937108
 30
0.0
  0
VERTEX
  5
6DB
100
AcDbEntity
  8
0
  6
Continuous
 62
     5
100
AcDbVertex
100
AcDb2dVertex
 10
60.990278
 20
143.937108
 30
0.0
  0
VERTEX
  5
6DC
100
AcDbEntity
  8
0
  6
Continuous
 62
     5
100
AcDbVertex
100
AcDb2dVertex
 10
4.557666
 20
143.937108
 30
0.0
  0
SEQEND
  5
6DD
100
AcDbEntity
  8
0
  6
Continuous
 62
     5
  0
POLYLINE
  5
6DF
102
{ACAD_REACTORS
330
6DE
102
}
100
AcDbEntity
  8
0
370
     0
  6
Continuous
 62
     5
100
AcDb2dPolyline
 66
     1
 10
0.0
 20
0.0
 30
0.0
 70
   129
  0
VERTEX
  5
6E0
100
AcDbEntity
  8
0
  6
Continuous
 62
     5
100
AcDbVertex
100
AcDb2dVertex
 10
-65.192215
 20
143.937108
 30
0.0
  0
VERTEX
  5
6E1
100
AcDbEntity
  8
0
  6
Continuous
 62
     5
100
AcDbVertex
100
AcDb2dVertex
 10
-61.192215
 20
143.270442
 30
0.0
  0
VERTEX
  5
6E2
100
AcDbEntity
  8
0
  6
Continuous
 62
     5
100
AcDbVertex
100
AcDb2dVertex
 10
-61.192215
 20
144.603775
 30
0.0
  0
SEQEND
  5
6E3
100
AcDbEntity
  8
0
  6
Continuous
 62
     5
  0
HATCH
  5
6DE
100
AcDbEntity
  8
0
  6
Continuous
 62
     5
100
AcDbHatch
 10
0.0
 20
0.0
 30
0.0
210
0.0
220
0.0
230
1.0
  2
SOLID
 70
     1
 71
     1
 91
        1
 92
        3
 72
     0
 73
     1
 93
        3
 10
-65.19221466290675
 20
143.93710829300284
 10
-61.19221466290675
 20
143.27044162633618
 10
-61.19221466290675
 20
144.60377495966949
 97
        1
330
6DF
 75
     0
 76
     0
 98
        0
  0
POLYLINE
  5
6E5
102
{ACAD_REACTORS
330
6E4
102
}
100
AcDbEntity
  8
0
370
     0
  6
Continuous
 62
     5
100
AcDb2dPolyline
 66
     1
 10
0.0
 20
0.0
 30
0.0
 70
   129
  0
VERTEX
  5
6E6
100
AcDbEntity
  8
0
  6
Continuous
 62
     5
100
AcDbVertex
100
AcDb2dVertex
 10
64.990278
 20
143.937108
 30
0.0
  0
VERTEX
  5
6E7
100
AcDbEntity
  8
0
  6
Continuous
 62
     5
100
AcDbVertex
100
AcDb2dVertex
 10
60.990278
 20
144.603775
 30
0.0
  0
VERTEX
  5
6E8
100
AcDbEntity
  8
0
  6
Continuous
 62
     5
100
AcDbVertex
100
AcDb2dVertex
 10
60.990278
 20
143.270442
 30
0.0
  0
SEQEND
  5
6E9
100
AcDbEntity
  8
0
  6
Continuous
 62
     5
  0
HATCH
  5
6E4
100
AcDbEntity
  8
0
  6
Continuous
 62
     5
100
AcDbHatch
 10
0.0
 20
0.0
 30
0.0
210
0.0
220
0.0
230
1.0
  2
SOLID
 70
     1
 71
     1
 91
        1
 92
        3
 72
     0
 73
     1
 93
        3
 10
64.990277934480716
 20
143.93710829300284
 10
60.990277934480716
 20
144.60377495966949
 10
60.990277934480716
 20
143.27044162633618
 97
        1
330
6E5
 75
     0
 76
     0
 98
        0
  0
TEXT
  5
6EA
100
AcDbEntity
  8
0
  6
Continuous
 62
     5
100
AcDbText
 10
-3.259603
 20
142.644608
 30
0.0
 40
2.7025
  1
130
 72
     5
 11
3.057666
 21
142.644608
 31
0.0
100
AcDbText
  0
ENDBLK
  5
6EB
100
AcDbEntity
  8
0
100
AcDbBlockEnd
  0
BLOCK
  5
6EE
100
AcDbEntity
  8
0
100
AcDbBlockBegin
  2
*D42
 70
     1
 10
0.0
 20
0.0
 30
0.0
  3
*D42
  1

  0
LINE
  5
6EF
100
AcDbEntity
  8
0
370
     0
  6
Continuous
 62
     5
100
AcDbLine
 10
0.045017
 20
129.871414
 30
0.0
 11
-93.330903
 21
129.871414
 31
0.0
  0
LINE
  5
6F0
100
AcDbEntity
  8
0
370
     0
  6
Continuous
 62
     5
100
AcDbLine
 10
-50.232359
 20
-0.124035
 30
0.0
 11
-93.330903
 21
-0.124035
 31
0.0
  0
POLYLINE
  5
6F1
100
AcDbEntity
  8
0
370
     0
  6
Continuous
 62
     5
100
AcDb2dPolyline
 66
     1
 10
0.0
 20
0.0
 30
0.0
 70
   128
  0
VERTEX
  5
6F2
100
AcDbEntity
  8
0
  6
Continuous
 62
     5
100
AcDbVertex
100
AcDb2dVertex
 10
-90.330903
 20
125.871414
 30
0.0
  0
VERTEX
  5
6F3
100
AcDbEntity
  8
0
  6
Continuous
 62
     5
100
AcDbVertex
100
AcDb2dVertex
 10
-90.330903
 20
125.871414
 30
0.0
  0
VERTEX
  5
6F4
100
AcDbEntity
  8
0
  6
Continuous
 62
     5
100
AcDbVertex
100
AcDb2dVertex
 10
-90.330903
 20
125.871414
 30
0.0
  0
VERTEX
  5
6F5
100
AcDbEntity
  8
0
  6
Continuous
 62
     5
100
AcDbVertex
100
AcDb2dVertex
 10
-90.330903
 20
67.411689
 30
0.0
  0
SEQEND
  5
6F6
100
AcDbEntity
  8
0
  6
Continuous
 62
     5
  0
POLYLINE
  5
6F7
100
AcDbEntity
  8
0
370
     0
  6
Continuous
 62
     5
100
AcDb2dPolyline
 66
     1
 10
0.0
 20
0.0
 30
0.0
 70
   128
  0
VERTEX
  5
6F8
100
AcDbEntity
  8
0
  6
Continuous
 62
     5
100
AcDbVertex
100
AcDb2dVertex
 10
-90.330903
 20
3.875965
 30
0.0
  0
VERTEX
  5
6F9
100
AcDbEntity
  8
0
  6
Continuous
 62
     5
100
AcDbVertex
100
AcDb2dVertex
 10
-90.330903
 20
3.875965
 30
0.0
  0
VERTEX
  5
6FA
100
AcDbEntity
  8
0
  6
Continuous
 62
     5
100
AcDbVertex
100
AcDb2dVertex
 10
-90.330903
 20
3.875965
 30
0.0
  0
VERTEX
  5
6FB
100
AcDbEntity
  8
0
  6
Continuous
 62
     5
100
AcDbVertex
100
AcDb2dVertex
 10
-90.330903
 20
62.335689
 30
0.0
  0
SEQEND
  5
6FC
100
AcDbEntity
  8
0
  6
Continuous
 62
     5
  0
POLYLINE
  5
6FE
102
{ACAD_REACTORS
330
6FD
102
}
100
AcDbEntity
  8
0
370
     0
  6
Continuous
 62
     5
100
AcDb2dPolyline
 66
     1
 10
0.0
 20
0.0
 30
0.0
 70
   129
  0
VERTEX
  5
6FF
100
AcDbEntity
  8
0
  6
Continuous
 62
     5
100
AcDbVertex
100
AcDb2dVertex
 10
-90.330903
 20
129.871414
 30
0.0
  0
VERTEX
  5
700
100
AcDbEntity
  8
0
  6
Continuous
 62
     5
100
AcDbVertex
100
AcDb2dVertex
 10
-90.99757
 20
125.871414
 30
0.0
  0
VERTEX
  5
701
100
AcDbEntity
  8
0
  6
Continuous
 62
     5
100
AcDbVertex
100
AcDb2dVertex
 10
-89.664236
 20
125.871414
 30
0.0
  0
SEQEND
  5
702
100
AcDbEntity
  8
0
  6
Continuous
 62
     5
  0
HATCH
  5
6FD
100
AcDbEntity
  8
0
  6
Continuous
 62
     5
100
AcDbHatch
 10
0.0
 20
0.0
 30
0.0
210
0.0
220
0.0
230
1.0
  2
SOLID
 70
     1
 71
     1
 91
        1
 92
        3
 72
     0
 73
     1
 93
        3
 10
-90.330902888609145
 20
129.87141369052651
 10
-90.997569555275817
 20
125.87141369052651
 10
-89.664236221942474
 20
125.87141369052651
 97
        1
330
6FE
 75
     0
 76
     0
 98
        0
  0
POLYLINE
  5
704
102
{ACAD_REACTORS
330
703
102
}
100
AcDbEntity
  8
0
370
     0
  6
Continuous
 62
     5
100
AcDb2dPolyline
 66
     1
 10
0.0
 20
0.0
 30
0.0
 70
   129
  0
VERTEX
  5
705
100
AcDbEntity
  8
0
  6
Continuous
 62
     5
100
AcDbVertex
100
AcDb2dVertex
 10
-90.330903
 20
-0.124035
 30
0.0
  0
VERTEX
  5
706
100
AcDbEntity
  8
0
  6
Continuous
 62
     5
100
AcDbVertex
100
AcDb2dVertex
 10
-89.664236
 20
3.875965
 30
0.0
  0
VERTEX
  5
707
100
AcDbEntity
  8
0
  6
Continuous
 62
     5
100
AcDbVertex
100
AcDb2dVertex
 10
-90.99757
 20
3.875965
 30
0.0
  0
SEQEND
  5
708
100
AcDbEntity
  8
0
  6
Continuous
 62
     5
  0
HATCH
  5
703
100
AcDbEntity
  8
0
  6
Continuous
 62
     5
100
AcDbHatch
 10
0.0
 20
0.0
 30
0.0
210
0.0
220
0.0
230
1.0
  2
SOLID
 70
     1
 71
     1
 91
        1
 92
        3
 72
     0
 73
     1
 93
        3
 10
-90.330902888609174
 20
-0.1240350956578503
 10
-89.664236221942502
 20
3.8759649043421498
 10
-90.997569555275845
 20
3.8759649043421498
 97
        1
330
704
 75
     0
 76
     0
 98
        0
  0
TEXT
  5
709
100
AcDbEntity
  8
0
  6
Continuous
 62
     5
100
AcDbText
 10
-93.489537
 20
63.581189
 30
0.0
 40
2.7025
  1
130
 72
     5
 11
-87.172269
 21
63.581189
 31
0.0
100
AcDbText
  0
ENDBLK
  5
70A
100
AcDbEntity
  8
0
100
AcDbBlockEnd
  0
ENDSEC
  0
SECTION
  2
ENTITIES
  0
LINE
  5
36
100
AcDbEntity
  8
0
370
     0
  6
Continuous
 62
     5
100
AcDbLine
 10
-0.0
 20
60.057866
 30
0.0
 11
0.0
 21
69.994132
 31
0.0
  0
LINE
  5
37
100
AcDbEntity
  8
0
370
    50
  6
Continuous
 62
     7
100
AcDbLine
 10
-44.895407
 20
0.0
 30
0.0
 11
45.138756
 21
-0.0
 31
0.0
1001
ACAD
1000
TCW40_DEV_WIDTH
1002
{
1040
0.019685
1002
}
  0
LINE
  5
38
100
AcDbEntity
  8
0
370
     0
  6
Continuous
 62
     5
100
AcDbLine
 10
-4.974033
 20
65.0
 30
0.0
 11
5.079592
 21
65.0
 31
0.0
  0
LINE
  5
39
100
AcDbEntity
  8
0
370
    50
  6
Continuous
 62
     7
100
AcDbLine
 10
-10.0
 20
40.0
 30
0.0
 11
-10.0
 21
10.917181
 31
0.0
1001
ACAD
1000
TCW40_DEV_WIDTH
1002
{
1040
0.019685
1002
}
  0
LINE
  5
3A
100
AcDbEntity
  8
0
370
    50
  6
Continuous
 62
     7
100
AcDbLine
 10
-5.0
 20
40.0
 30
0.0
 11
-5.0
 21
10.254364
 31
0.0
1001
ACAD
1000
TCW40_DEV_WIDTH
1002
{
1040
0.019685
1002
}
  0
LINE
  5
3B
100
AcDbEntity
  8
0
370
    50
  6
Continuous
 62
     7
100
AcDbLine
 10
5.0
 20
40.0
 30
0.0
 11
5.0
 21
10.254364
 31
0.0
1001
ACAD
1000
TCW40_DEV_WIDTH
1002
{
1040
0.019685
1002
}
  0
LINE
  5
3C
100
AcDbEntity
  8
0
370
    50
  6
Continuous
 62
     7
100
AcDbLine
 10
10.0
 20
40.0
 30
0.0
 11
10.0
 21
10.95617
 31
0.0
1001
ACAD
1000
TCW40_DEV_WIDTH
1002
{
1040
0.019685
1002
}
  0
POLYLINE
  5
3D
100
AcDbEntity
  8
0
370
    50
  6
Continuous
 62
     7
100
AcDb2dPolyline
 66
     1
 10
0.0
 20
0.0
 30
0.0
1001
ACAD
1000
TCW40_DEV_WIDTH
1002
{
1040
0.019685
1002
}
  0
VERTEX
  5
3E
100
AcDbEntity
  8
0
  6
Continuous
 62
     7
100
AcDbVertex
100
AcDb2dVertex
 10
-61.851154
 20
45.006428
 30
0.0
  0
VERTEX
  5
3F
100
AcDbEntity
  8
0
  6
Continuous
 62
     7
100
AcDbVertex
100
AcDb2dVertex
 10
-45.00909
 20
0.004591
 30
0.0
  0
VERTEX
  5
40
100
AcDbEntity
  8
0
  6
Continuous
 62
     7
100
AcDbVertex
100
AcDb2dVertex
 10
44.994583
 20
0.004591
 30
0.0
  0
VERTEX
  5
41
100
AcDbEntity
  8
0
  6
Continuous
 62
     7
100
AcDbVertex
100
AcDb2dVertex
 10
61.854341
 20
45.002887
 30
0.0
  0
SEQEND
  5
42
100
AcDbEntity
  8
0
  6
Continuous
 62
     7
  0
ARC
  5
43
100
AcDbEntity
  8
0
370
    50
  6
Continuous
 62
     7
100
AcDbCircle
 10
-0.000454
 20
65.00039
 30
0.0
 40
11.90263
100
AcDbArc
 50
179.975567
 51
360.020935
1001
ACAD
1000
TCW40_DEV_WIDTH
1002
{
1040
0.019685
1002
}
  0
ARC
  5
44
100
AcDbEntity
  8
0
370
    50
  6
Continuous
 62
     7
100
AcDbCircle
 10
-22.0008
 20
50.005858
 30
0.0
 40
4.994192
100
AcDbArc
 50
-90.308037
 51
0.0
1001
ACAD
1000
TCW40_DEV_WIDTH
1002
{
1040
0.019685
1002
}
  0
ARC
  5
45
100
AcDbEntity
  8
0
370
    50
  6
Continuous
 62
     7
100
AcDbCircle
 10
21.998011
 20
50.005858
 30
0.0
 40
5.009067
100
AcDbArc
 50
-179.861598
 51
-89.843878
1001
ACAD
1000
TCW40_DEV_WIDTH
1002
{
1040
0.019685
1002
}
  0
POLYLINE
  5
46
100
AcDbEntity
  8
0
370
    50
  6
Continuous
 62
     7
100
AcDb2dPolyline
 66
     1
 10
0.0
 20
0.0
 30
0.0
1001
ACAD
1000
TCW40_DEV_WIDTH
1002
{
1040
0.019685
1002
}
  0
VERTEX
  5
47
100
AcDbEntity
  8
0
  6
Continuous
 62
     7
100
AcDbVertex
100
AcDb2dVertex
 10
-11.900894
 20
64.998009
 30
0.0
  0
VERTEX
  5
48
100
AcDbEntity
  8
0
  6
Continuous
 62
     7
100
AcDbVertex
100
AcDb2dVertex
 10
-16.997863
 20
64.998009
 30
0.0
  0
VERTEX
  5
49
100
AcDbEntity
  8
0
  6
Continuous
 62
     7
100
AcDbVertex
100
AcDb2dVertex
 10
-16.997863
 20
50.015744
 30
0.0
  0
SEQEND
  5
4A
100
AcDbEntity
  8
0
  6
Continuous
 62
     7
  0
POLYLINE
  5
4B
100
AcDbEntity
  8
0
370
    50
  6
Continuous
 62
     7
100
AcDb2dPolyline
 66
     1
 10
0.0
 20
0.0
 30
0.0
1001
ACAD
1000
TCW40_DEV_WIDTH
1002
{
1040
0.019685
1002
}
  0
VERTEX
  5
4C
100
AcDbEntity
  8
0
  6
Continuous
 62
     7
100
AcDbVertex
100
AcDb2dVertex
 10
11.901441
 20
64.999578
 30
0.0
  0
VERTEX
  5
4D
100
AcDbEntity
  8
0
  6
Continuous
 62
     7
100
AcDbVertex
100
AcDb2dVertex
 10
17.000457
 20
64.999578
 30
0.0
  0
VERTEX
  5
4E
100
AcDbEntity
  8
0
  6
Continuous
 62
     7
100
AcDbVertex
100
AcDb2dVertex
 10
17.000457
 20
49.856
 30
0.0
  0
SEQEND
  5
4F
100
AcDbEntity
  8
0
  6
Continuous
 62
     7
  0
LINE
  5
50
100
AcDbEntity
  8
0
370
    50
  6
Continuous
 62
     7
100
AcDbLine
 10
-51.229233
 20
44.992911
 30
0.0
 11
-21.885715
 21
44.992911
 31
0.0
1001
ACAD
1000
TCW40_DEV_WIDTH
1002
{
1040
0.019685
1002
}
  0
LINE
  5
51
100
AcDbEntity
  8
0
370
    50
  6
Continuous
 62
     7
100
AcDbLine
 10
21.66286
 20
44.992911
 30
0.0
 11
51.20799
 21
44.992911
 31
0.0
1001
ACAD
1000
TCW40_DEV_WIDTH
1002
{
1040
0.019685
1002
}
  0
ARC
  5
52
100
AcDbEntity
  8
0
370
    50
  6
Continuous
 62
     7
100
AcDbCircle
 10
0.000692
 20
64.999848
 30
0.0
 40
54.996029
100
AcDbArc
 50
-21.4378
 51
201.319679
1001
ACAD
1000
TCW40_DEV_WIDTH
1002
{
1040
0.019685
1002
}
  0
ARC
  5
53
100
AcDbEntity
  8
0
370
    50
  6
Continuous
 62
     7
100
AcDbCircle
 10
0.001686
 20
65.008053
 30
0.0
 40
55.020382
100
AcDbArc
 50
-152.974545
 51
-95.189027
1001
ACAD
1000
TCW40_DEV_WIDTH
1002
{
1040
0.019685
1002
}
  0
ARC
  5
54
100
AcDbEntity
  8
0
370
    50
  6
Continuous
 62
     7
100
AcDbCircle
 10
-0.006065
 20
65.004706
 30
0.0
 40
55.00174
100
AcDbArc
 50
-84.818901
 51
-27.130978
1001
ACAD
1000
TCW40_DEV_WIDTH
1002
{
1040
0.019685
1002
}
  0
ARC
  5
55
100
AcDbEntity
  8
0
370
    50
  6
Continuous
 62
     7
100
AcDbCircle
 10
-0.004022
 20
64.999775
 30
0.0
 40
65.017761
100
AcDbArc
 50
-17.84626
 51
197.889299
1001
ACAD
1000
TCW40_DEV_WIDTH
1002
{
1040
0.019685
1002
}
  0
LINE
  5
56
100
AcDbEntity
  8
0
370
     0
  6
Continuous
 62
     7
100
AcDbLine
 10
4.997552
 20
40.000911
 30
0.0
 11
49.004546
 21
40.000911
 31
0.0
  0
LINE
  5
57
100
AcDbEntity
  8
0
370
     0
  6
Continuous
 62
     7
100
AcDbLine
 10
-4.999845
 20
39.998649
 30
0.0
 11
-49.045609
 21
39.998649
 31
0.0
  0
CIRCLE
  5
58
100
AcDbEntity
  8
0
370
     0
  6
Continuous
 62
     7
100
AcDbCircle
 10
-0.004791
 20
64.992402
 30
0.0
 40
65.0
  0
CIRCLE
  5
59
100
AcDbEntity
  8
0
370
     0
  6
Continuous
 62
     7
100
AcDbCircle
 10
0.004152
 20
65.004076
 30
0.0
 40
55.0
  0
LINE
  5
5A
100
AcDbEntity
  8
0
370
     0
  6
Continuous
 62
     7
100
AcDbLine
 10
100.0
 20
0.0
 30
0.0
 11
100.0
 21
130.0
 31
0.0
  0
LINE
  5
5B
100
AcDbEntity
  8
0
370
     0
  6
Continuous
 62
     7
100
AcDbLine
 10
100.0
 20
130.0
 30
0.0
 11
114.0
 21
130.0
 31
0.0
  0
LINE
  5
5C
100
AcDbEntity
  8
0
370
     0
  6
Continuous
 62
     7
100
AcDbLine
 10
114.0
 20
130.0
 30
0.0
 11
114.0
 21
0.0
 31
0.0
  0
LINE
  5
5D
100
AcDbEntity
  8
0
370
     0
  6
Continuous
 62
     7
100
AcDbLine
 10
114.0
 20
0.0
 30
0.0
 11
100.0
 21
0.0
 31
0.0
  0
POLYLINE
  5
5E
100
AcDbEntity
  8
0
370
     0
  6
Continuous
 62
     7
100
AcDb2dPolyline
 66
     1
 10
0.0
 20
0.0
 30
0.0
 70
     1
  0
VERTEX
  5
5F
100
AcDbEntity
  8
0
  6
Continuous
 62
     7
100
AcDbVertex
100
AcDb2dVertex
 10
100.004283
 20
130.004221
 30
0.0
  0
VERTEX
  5
60
100
AcDbEntity
  8
0
  6
Continuous
 62
     7
100
AcDbVertex
100
AcDb2dVertex
 10
97.429926
 20
129.77539
 30
0.0
  0
VERTEX
  5
61
100
AcDbEntity
  8
0
  6
Continuous
 62
     7
100
AcDbVertex
100
AcDb2dVertex
 10
95.184516
 20
129.303425
 30
0.0
  0
VERTEX
  5
62
100
AcDbEntity
  8
0
  6
Continuous
 62
     7
100
AcDbVertex
100
AcDb2dVertex
 10
93.096426
 20
128.674138
 30
0.0
  0
VERTEX
  5
63
100
AcDbEntity
  8
0
  6
Continuous
 62
     7
100
AcDbVertex
100
AcDb2dVertex
 10
91.294376
 20
127.901831
 30
0.0
  0
VERTEX
  5
64
100
AcDbEntity
  8
0
  6
Continuous
 62
     7
100
AcDbVertex
100
AcDb2dVertex
 10
89.37791
 20
126.81488
 30
0.0
  0
VERTEX
  5
65
100
AcDbEntity
  8
0
  6
Continuous
 62
     7
100
AcDbVertex
100
AcDb2dVertex
 10
88.348167
 20
126.013969
 30
0.0
  0
VERTEX
  5
66
100
AcDbEntity
  8
0
  6
Continuous
 62
     7
100
AcDbVertex
100
AcDb2dVertex
 10
87.808267
 20
125.323898
 30
0.0
  0
VERTEX
  5
67
100
AcDbEntity
  8
0
  6
Continuous
 62
     7
100
AcDbVertex
100
AcDb2dVertex
 10
87.093168
 20
124.265551
 30
0.0
  0
VERTEX
  5
68
100
AcDbEntity
  8
0
  6
Continuous
 62
     7
100
AcDbVertex
100
AcDb2dVertex
 10
86.521089
 20
123.092789
 30
0.0
  0
VERTEX
  5
69
100
AcDbEntity
  8
0
  6
Continuous
 62
     7
100
AcDbVertex
100
AcDb2dVertex
 10
86.292257
 20
122.09165
 30
0.0
  0
VERTEX
  5
6A
100
AcDbEntity
  8
0
  6
Continuous
 62
     7
100
AcDbVertex
100
AcDb2dVertex
 10
85.949009
 20
121.090511
 30
0.0
  0
VERTEX
  5
6B
100
AcDbEntity
  8
0
  6
Continuous
 62
     7
100
AcDbVertex
100
AcDb2dVertex
 10
85.949009
 20
119.86054
 30
0.0
  0
VERTEX
  5
6C
100
AcDbEntity
  8
0
  6
Continuous
 62
     7
100
AcDbVertex
100
AcDb2dVertex
 10
85.949009
 20
10.192688
 30
0.0
  0
VERTEX
  5
6D
100
AcDbEntity
  8
0
  6
Continuous
 62
     7
100
AcDbVertex
100
AcDb2dVertex
 10
85.991908
 20
9.06307
 30
0.0
  0
VERTEX
  5
6E
100
AcDbEntity
  8
0
  6
Continuous
 62
     7
100
AcDbVertex
100
AcDb2dVertex
 10
86.36376
 20
7.346832
 30
0.0
  0
VERTEX
  5
6F
100
AcDbEntity
  8
0
  6
Continuous
 62
     7
100
AcDbVertex
100
AcDb2dVertex
 10
87.250483
 20
5.516178
 30
0.0
  0
VERTEX
  5
70
100
AcDbEntity
  8
0
  6
Continuous
 62
     7
100
AcDbVertex
100
AcDb2dVertex
 10
88.366037
 20
3.971564
 30
0.0
  0
VERTEX
  5
71
100
AcDbEntity
  8
0
  6
Continuous
 62
     7
100
AcDbVertex
100
AcDb2dVertex
 10
89.424384
 20
3.142049
 30
0.0
  0
VERTEX
  5
72
100
AcDbEntity
  8
0
  6
Continuous
 62
     7
100
AcDbVertex
100
AcDb2dVertex
 10
90.740167
 20
2.502035
 30
0.0
  0
VERTEX
  5
73
100
AcDbEntity
  8
0
  6
Continuous
 62
     7
100
AcDbVertex
100
AcDb2dVertex
 10
92.399197
 20
1.67252
 30
0.0
  0
VERTEX
  5
74
100
AcDbEntity
  8
0
  6
Continuous
 62
     7
100
AcDbVertex
100
AcDb2dVertex
 10
94.544495
 20
0.957421
 30
0.0
  0
VERTEX
  5
75
100
AcDbEntity
  8
0
  6
Continuous
 62
     7
100
AcDbVertex
100
AcDb2dVertex
 10
96.575376
 20
0.499757
 30
0.0
  0
VERTEX
  5
76
100
AcDbEntity
  8
0
  6
Continuous
 62
     7
100
AcDbVertex
100
AcDb2dVertex
 10
98.298765
 20
0.156509
 30
0.0
  0
VERTEX
  5
77
100
AcDbEntity
  8
0
  6
Continuous
 62
     7
100
AcDbVertex
100
AcDb2dVertex
 10
99.957795
 20
0.01349
 30
0.0
  0
VERTEX
  5
78
100
AcDbEntity
  8
0
  6
Continuous
 62
     7
100
AcDbVertex
100
AcDb2dVertex
 10
99.957795
 20
130.029285
 30
0.0
  0
SEQEND
  5
79
100
AcDbEntity
  8
0
  6
Continuous
 62
     7
  0
LINE
  5
7A
100
AcDbEntity
  8
0
370
     0
  6
Continuous
 62
     5
100
AcDbLine
 10
154.0
 20
126.796177
 30
0.0
 11
154.0
 21
44.77862
 31
0.0
  0
LINE
  5
7B
100
AcDbEntity
  8
0
370
     0
  6
Continuous
 62
     7
100
AcDbLine
 10
114.0
 20
-0.0
 30
0.0
 11
184.903895
 21
-0.0
 31
0.0
  0
INSERT
  5
AA
100
AcDbEntity
  8
0
  6
Continuous
 62
     7
100
AcDbBlockReference
  2
*E1
 10
0.0
 20
0.0
 30
0.0
1001
TCAD
1000
TC25ExternalObject
1002
{
1000
TCW30CURVE
1000

1070
     0
1071
        0
1040
1.0
1040
0.0
1000
Continuous
1000
0
1070
    21
1071
        7
1071
      162
1010
169.117715
1020
53.019154
1030
0.0
1071
     6274
1010
174.500456
1020
44.279052
1030
0.0
1071
     6274
1010
178.764402
1020
34.747878
1030
0.0
1071
      130
1010
181.692934
1020
24.90984
1030
0.0
1071
     6274
1010
184.080849
1020
16.887938
1030
0.0
1071
     6274
1010
185.177076
1020
8.371103
1030
0.0
1071
      162
1010
184.898382
1020
0.005974
1030
0.0
1070
     3
1071
        5
1000
$SPLINESEGS
1070
    18
1070
    20
1000
$SPLFRAME
1070
    18
1070
     0
1000
$SPLINETYPE
1070
    18
1070
     1
1000
$SHOWCONTRPTS
1070
    18
1070
     1
1000
$CURVESMOOTH
1070
    18
1070
     1
1002
}
  0
INSERT
  5
101
100
AcDbEntity
  8
0
  6
Continuous
 62
     7
100
AcDbBlockReference
  2
*E2
 10
0.0
 20
0.0
 30
0.0
1001
TCAD
1000
TC25ExternalObject
1002
{
1000
TCW30CURVE
1000

1070
     0
1071
        0
1040
1.0
1040
0.0
1000
Continuous
1000
0
1070
    21
1071
       13
1071
      162
1010
114.0
1020
45.0
1030
0.0
1071
     6274
1010
118.828548
1020
42.70174
1030
0.0
1071
     6274
1010
123.442151
1020
39.885666
1030
0.0
1071
      130
1010
127.693462
1020
36.641714
1030
0.0
1071
     6274
1010
131.343814
1020
33.856324
1030
0.0
1071
     6274
1010
135.309141
1020
31.029541
1030
0.0
1071
      130
1010
137.556379
1020
27.02537
1030
0.0
1071
     6274
1010
140.005189
1020
22.662036
1030
0.0
1071
     6274
1010
140.44696
1020
17.415428
1030
0.0
1071
      130
1010
141.254973
1020
12.477567
1030
0.0
1071
     6274
1010
141.933062
1020
8.333695
1030
0.0
1071
     6274
1010
142.182271
1020
4.097141
1030
0.0
1071
      162
1010
141.994692
1020
-0.097652
1030
0.0
1070
     3
1071
        5
1000
$SPLINESEGS
1070
    18
1070
    20
1000
$SPLFRAME
1070
    18
1070
     0
1000
$SPLINETYPE
1070
    18
1070
     1
1000
$SHOWCONTRPTS
1070
    18
1070
     1
1000
$CURVESMOOTH
1070
    18
1070
     1
1002
}
  0
POLYLINE
  5
102
100
AcDbEntity
  8
0
370
     0
  6
Continuous
 62
     7
100
AcDb2dPolyline
 66
     1
 10
0.0
 20
0.0
 30
0.0
  0
VERTEX
  5
103
100
AcDbEntity
  8
0
  6
Continuous
 62
     7
100
AcDbVertex
100
AcDb2dVertex
 10
158.0
 20
53.1
 30
0.0
  0
VERTEX
  5
104
100
AcDbEntity
  8
0
  6
Continuous
 62
     7
100
AcDbVertex
100
AcDb2dVertex
 10
158.0
 20
37.1
 30
0.0
  0
VERTEX
  5
105
100
AcDbEntity
  8
0
  6
Continuous
 62
     7
100
AcDbVertex
100
AcDb2dVertex
 10
134.0
 20
37.1
 30
0.0
  0
VERTEX
  5
106
100
AcDbEntity
  8
0
  6
Continuous
 62
     7
100
AcDbVertex
100
AcDb2dVertex
 10
134.0
 20
53.1
 30
0.0
  0
SEQEND
  5
107
100
AcDbEntity
  8
0
  6
Continuous
 62
     7
  0
LINE
  5
108
100
AcDbEntity
  8
0
370
     0
  6
Continuous
 62
     7
100
AcDbLine
 10
158.0
 20
53.1
 30
0.0
 11
169.0
 21
53.1
 31
0.0
  0
LINE
  5
109
100
AcDbEntity
  8
0
370
     0
  6
Continuous
 62
     7
100
AcDbLine
 10
156.0
 20
37.1
 30
0.0
 11
156.0
 21
31.1
 31
0.0
  0
LINE
  5
10A
100
AcDbEntity
  8
0
370
     0
  6
Continuous
 62
     7
100
AcDbLine
 10
152.019189
 20
37.088864
 30
0.0
 11
152.019189
 21
31.088864
 31
0.0
  0
INSERT
  5
161
100
AcDbEntity
  8
0
  6
Continuous
 62
     7
100
AcDbBlockReference
  2
*E3
 10
0.0
 20
0.0
 30
0.0
1001
TCAD
1000
TC25ExternalObject
1002
{
1000
TCW30CURVE
1000

1070
     0
1071
        0
1040
1.0
1040
0.0
1000
Continuous
1000
0
1070
    21
1071
       13
1071
      162
1010
152.019189
1020
31.09403
1030
0.0
1071
     6274
1010
152.419944
1020
30.397426
1030
0.0
1071
     6274
1010
152.888273
1020
29.735657
1030
0.0
1071
      130
1010
153.411928
1020
29.126029
1030
0.0
1071
     6274
1010
153.574345
1020
28.936946
1030
0.0
1071
     6274
1010
153.798536
1020
28.727237
1030
0.0
1071
      130
1010
154.047744
1020
28.732428
1030
0.0
1071
     6274
1010
154.354623
1020
28.738822
1030
0.0
1071
     6274
1010
154.670521
1020
28.919014
1030
0.0
1071
      130
1010
154.865221
1020
29.156306
1030
0.0
1071
     6274
1010
155.338473
1020
29.733081
1030
0.0
1071
     6274
1010
155.740456
1020
30.445329
1030
0.0
1071
      162
1010
156.004144
1020
31.143259
1030
0.0
1070
     3
1071
        5
1000
$SPLINESEGS
1070
    18
1070
    20
1000
$SPLFRAME
1070
    18
1070
     0
1000
$SPLINETYPE
1070
    18
1070
     1
1000
$SHOWCONTRPTS
1070
    18
1070
     1
1000
$CURVESMOOTH
1070
    18
1070
     1
1002
}
  0
LINE
  5
162
100
AcDbEntity
  8
0
370
     0
  6
Continuous
 62
     7
100
AcDbLine
 10
27.0
 20
45.0
 30
0.0
 11
27.0
 21
112.927428
 31
0.0
  0
LINE
  5
163
100
AcDbEntity
  8
0
370
     0
  6
Continuous
 62
     7
100
AcDbLine
 10
31.0
 20
45.0
 30
0.0
 11
31.0
 21
110.437177
 31
0.0
  0
LINE
  5
164
100
AcDbEntity
  8
0
370
     0
  6
Continuous
 62
     7
100
AcDbLine
 10
-27.0
 20
45.0
 30
0.0
 11
-27.0
 21
113.035699
 31
0.0
  0
LINE
  5
165
100
AcDbEntity
  8
0
370
     0
  6
Continuous
 62
     7
100
AcDbLine
 10
-31.0
 20
45.0
 30
0.0
 11
-31.0
 21
110.437177
 31
0.0
  0
LINE
  5
166
100
AcDbEntity
  8
0
370
     0
  6
Continuous
 62
     7
100
AcDbLine
 10
114.039243
 20
122.139089
 30
0.0
 11
123.995435
 21
122.139089
 31
0.0
  0
LINE
  5
167
100
AcDbEntity
  8
0
370
     0
  6
Continuous
 62
     7
100
AcDbLine
 10
114.039207
 20
124.116053
 30
0.0
 11
123.995396
 21
124.116053
 31
0.0
  0
POLYLINE
  5
168
100
AcDbEntity
  8
0
370
     0
  6
Continuous
 62
     7
100
AcDb2dPolyline
 66
     1
 10
0.0
 20
0.0
 30
0.0
 70
     1
  0
VERTEX
  5
169
100
AcDbEntity
  8
0
  6
Continuous
 62
     7
100
AcDbVertex
100
AcDb2dVertex
 10
114.005973
 20
124.116978
 30
0.0
  0
VERTEX
  5
16A
100
AcDbEntity
  8
0
  6
Continuous
 62
     7
100
AcDbVertex
100
AcDb2dVertex
 10
124.005973
 20
124.116978
 30
0.0
  0
VERTEX
  5
16B
100
AcDbEntity
  8
0
  6
Continuous
 62
     7
100
AcDbVertex
100
AcDb2dVertex
 10
124.005973
 20
55.004204
 30
0.0
  0
VERTEX
  5
16C
100
AcDbEntity
  8
0
  6
Continuous
 62
     7
100
AcDbVertex
100
AcDb2dVertex
 10
134.005973
 20
55.004204
 30
0.0
  0
VERTEX
  5
16D
100
AcDbEntity
  8
0
  6
Continuous
 62
     7
100
AcDbVertex
100
AcDb2dVertex
 10
134.005973
 20
31.504204
 30
0.0
  0
VERTEX
  5
16E
100
AcDbEntity
  8
0
  6
Continuous
 62
     7
100
AcDbVertex
100
AcDb2dVertex
 10
132.528893
 20
32.849716
 30
0.0
  0
VERTEX
  5
16F
100
AcDbEntity
  8
0
  6
Continuous
 62
     7
100
AcDbVertex
100
AcDb2dVertex
 10
130.794932
 20
34.25563
 30
0.0
  0
VERTEX
  5
170
100
AcDbEntity
  8
0
  6
Continuous
 62
     7
100
AcDbVertex
100
AcDb2dVertex
 10
128.967244
 20
35.684977
 30
0.0
  0
VERTEX
  5
171
100
AcDbEntity
  8
0
  6
Continuous
 62
     7
100
AcDbVertex
100
AcDb2dVertex
 10
126.741213
 20
37.348642
 30
0.0
  0
VERTEX
  5
172
100
AcDbEntity
  8
0
  6
Continuous
 62
     7
100
AcDbVertex
100
AcDb2dVertex
 10
124.679206
 20
38.871715
 30
0.0
  0
VERTEX
  5
173
100
AcDbEntity
  8
0
  6
Continuous
 62
     7
100
AcDbVertex
100
AcDb2dVertex
 10
122.125128
 20
40.511948
 30
0.0
  0
VERTEX
  5
174
100
AcDbEntity
  8
0
  6
Continuous
 62
     7
100
AcDbVertex
100
AcDb2dVertex
 10
120.546404
 20
41.507804
 30
0.0
  0
VERTEX
  5
175
100
AcDbEntity
  8
0
  6
Continuous
 62
     7
100
AcDbVertex
100
AcDb2dVertex
 10
118.343805
 20
42.773127
 30
0.0
  0
VERTEX
  5
176
100
AcDbEntity
  8
0
  6
Continuous
 62
     7
100
AcDbVertex
100
AcDb2dVertex
 10
116.211502
 20
43.92129
 30
0.0
  0
VERTEX
  5
177
100
AcDbEntity
  8
0
  6
Continuous
 62
     7
100
AcDbVertex
100
AcDb2dVertex
 10
114.524405
 20
44.741407
 30
0.0
  0
VERTEX
  5
178
100
AcDbEntity
  8
0
  6
Continuous
 62
     7
100
AcDbVertex
100
AcDb2dVertex
 10
114.008903
 20
44.975726
 30
0.0
  0
VERTEX
  5
179
100
AcDbEntity
  8
0
  6
Continuous
 62
     7
100
AcDbVertex
100
AcDb2dVertex
 10
114.008903
 20
124.116977
 30
0.0
  0
SEQEND
  5
17A
100
AcDbEntity
  8
0
  6
Continuous
 62
     7
  0
POLYLINE
  5
17C
102
{ACAD_REACTORS
330
17B
102
}
100
AcDbEntity
  8
0
370
     0
  6
Continuous
 62
     7
100
AcDb2dPolyline
 66
     1
 10
0.0
 20
0.0
 30
0.0
 70
     1
  0
VERTEX
  5
17D
100
AcDbEntity
  8
0
  6
Continuous
 62
     7
100
AcDbVertex
100
AcDb2dVertex
 10
113.99813
 20
125.005616
 30
0.0
  0
VERTEX
  5
17E
100
AcDbEntity
  8
0
  6
Continuous
 62
     7
100
AcDbVertex
100
AcDb2dVertex
 10
113.99813
 20
124.119432
 30
0.0
  0
VERTEX
  5
17F
100
AcDbEntity
  8
0
  6
Continuous
 62
     7
100
AcDbVertex
100
AcDb2dVertex
 10
114.969024
 20
124.119432
 30
0.0
  0
VERTEX
  5
180
100
AcDbEntity
  8
0
  6
Continuous
 62
     7
100
AcDbVertex
100
AcDb2dVertex
 10
114.636704
 20
124.340978
 30
0.0
  0
VERTEX
  5
181
100
AcDbEntity
  8
0
  6
Continuous
 62
     7
100
AcDbVertex
100
AcDb2dVertex
 10
114.369546
 20
124.56904
 30
0.0
  0
VERTEX
  5
182
100
AcDbEntity
  8
0
  6
Continuous
 62
     7
100
AcDbVertex
100
AcDb2dVertex
 10
114.108903
 20
124.868779
 30
0.0
  0
SEQEND
  5
183
100
AcDbEntity
  8
0
  6
Continuous
 62
     7
  0
HATCH
  5
17B
100
AcDbEntity
  8
0
  6
Continuous
 62
     7
100
AcDbHatch
 10
0.0
 20
0.0
 30
0.0
210
0.0
220
0.0
230
1.0
  2
SOLID
 70
     1
 71
     1
 91
        1
 92
        3
 72
     0
 73
     1
 93
        6
 10
113.99813026012937
 20
125.00561641397502
 10
113.99813026012937
 20
124.11943186158109
 10
114.96902363003154
 20
124.11943186158109
 10
114.63670442288382
 20
124.34097799967958
 10
114.36954584458859
 20
124.56904020066331
 10
114.10890332917862
 20
124.86877909338477
 97
        1
330
17C
 75
     0
 76
     0
 98
        0
  0
POLYLINE
  5
184
100
AcDbEntity
  8
0
370
     0
  6
Continuous
 62
     7
100
AcDb2dPolyline
 66
     1
 10
0.0
 20
0.0
 30
0.0
 70
     1
  0
VERTEX
  5
185
100
AcDbEntity
  8
0
  6
Continuous
 62
     7
100
AcDbVertex
100
AcDb2dVertex
 10
124.006084
 20
65.005621
 30
0.0
  0
VERTEX
  5
186
100
AcDbEntity
  8
0
  6
Continuous
 62
     7
100
AcDbVertex
100
AcDb2dVertex
 10
124.006084
 20
70.005621
 30
0.0
  0
VERTEX
  5
187
100
AcDbEntity
  8
0
  6
Continuous
 62
     7
100
AcDbVertex
100
AcDb2dVertex
 10
125.006084
 20
70.005621
 30
0.0
  0
VERTEX
  5
188
100
AcDbEntity
  8
0
  6
Continuous
 62
     7
100
AcDbVertex
100
AcDb2dVertex
 10
125.006084
 20
65.005621
 30
0.0
  0
VERTEX
  5
189
100
AcDbEntity
  8
0
  6
Continuous
 62
     7
100
AcDbVertex
100
AcDb2dVertex
 10
124.006084
 20
65.005621
 30
0.0
  0
SEQEND
  5
18A
100
AcDbEntity
  8
0
  6
Continuous
 62
     7
  0
POLYLINE
  5
18B
100
AcDbEntity
  8
0
370
     0
  6
Continuous
 62
     7
100
AcDb2dPolyline
 66
     1
 10
0.0
 20
0.0
 30
0.0
 70
     1
  0
VERTEX
  5
18C
100
AcDbEntity
  8
0
  6
Continuous
 62
     7
100
AcDbVertex
100
AcDb2dVertex
 10
124.00241
 20
105.005909
 30
0.0
  0
VERTEX
  5
18D
100
AcDbEntity
  8
0
  6
Continuous
 62
     7
100
AcDbVertex
100
AcDb2dVertex
 10
124.00241
 20
110.005909
 30
0.0
  0
VERTEX
  5
18E
100
AcDbEntity
  8
0
  6
Continuous
 62
     7
100
AcDbVertex
100
AcDb2dVertex
 10
125.00241
 20
110.005909
 30
0.0
  0
VERTEX
  5
18F
100
AcDbEntity
  8
0
  6
Continuous
 62
     7
100
AcDbVertex
100
AcDb2dVertex
 10
125.00241
 20
105.005909
 30
0.0
  0
VERTEX
  5
190
100
AcDbEntity
  8
0
  6
Continuous
 62
     7
100
AcDbVertex
100
AcDb2dVertex
 10
124.00241
 20
105.005909
 30
0.0
  0
SEQEND
  5
191
100
AcDbEntity
  8
0
  6
Continuous
 62
     7
  0
LINE
  5
192
100
AcDbEntity
  8
0
370
     0
  6
Continuous
 62
     7
100
AcDbLine
 10
125.013115
 20
56.001628
 30
0.0
 11
145.013115
 21
56.001628
 31
0.0
  0
POLYLINE
  5
193
100
AcDbEntity
  8
0
370
     0
  6
Continuous
 62
     7
100
AcDb2dPolyline
 66
     1
 10
0.0
 20
0.0
 30
0.0
  0
VERTEX
  5
194
100
AcDbEntity
  8
0
  6
Continuous
 62
     7
100
AcDbVertex
100
AcDb2dVertex
 10
125.013115
 20
56.001628
 30
0.0
  0
VERTEX
  5
195
100
AcDbEntity
  8
0
  6
Continuous
 62
     7
100
AcDbVertex
100
AcDb2dVertex
 10
125.013115
 20
124.001628
 30
0.0
  0
VERTEX
  5
196
100
AcDbEntity
  8
0
  6
Continuous
 62
     7
100
AcDbVertex
100
AcDb2dVertex
 10
139.013115
 20
124.001628
 30
0.0
  0
SEQEND
  5
197
100
AcDbEntity
  8
0
  6
Continuous
 62
     7
  0
POLYLINE
  5
198
100
AcDbEntity
  8
0
370
     0
  6
Continuous
 62
     7
100
AcDb2dPolyline
 66
     1
 10
0.0
 20
0.0
 30
0.0
  0
VERTEX
  5
199
100
AcDbEntity
  8
0
  6
Continuous
 62
     7
100
AcDbVertex
100
AcDb2dVertex
 10
145.001494
 20
56.00018
 30
0.0
  0
VERTEX
  5
19A
100
AcDbEntity
  8
0
  6
Continuous
 62
     7
100
AcDbVertex
100
AcDb2dVertex
 10
145.001494
 20
119.62027
 30
0.0
  0
VERTEX
  5
19B
100
AcDbEntity
  8
0
  6
Continuous
 62
     7
100
AcDbVertex
100
AcDb2dVertex
 10
144.74267
 20
121.232296
 30
0.0
  0
VERTEX
  5
19C
100
AcDbEntity
  8
0
  6
Continuous
 62
     7
100
AcDbVertex
100
AcDb2dVertex
 10
144.185216
 20
122.347204
 30
0.0
  0
VERTEX
  5
19D
100
AcDbEntity
  8
0
  6
Continuous
 62
     7
100
AcDbVertex
100
AcDb2dVertex
 10
142.672125
 20
123.342659
 30
0.0
  0
VERTEX
  5
19E
100
AcDbEntity
  8
0
  6
Continuous
 62
     7
100
AcDbVertex
100
AcDb2dVertex
 10
140.920126
 20
123.900113
 30
0.0
  0
VERTEX
  5
19F
100
AcDbEntity
  8
0
  6
Continuous
 62
     7
100
AcDbVertex
100
AcDb2dVertex
 10
138.769944
 20
124.019568
 30
0.0
  0
SEQEND
  5
1A0
100
AcDbEntity
  8
0
  6
Continuous
 62
     7
  0
LINE
  5
1A1
100
AcDbEntity
  8
0
370
     0
  6
Continuous
 62
     5
100
AcDbLine
 10
80.0
 20
65.0
 30
0.0
 11
190.0
 21
65.0
 31
0.0
  0
LINE
  5
1A2
100
AcDbEntity
  8
0
370
     0
  6
Continuous
 62
     5
100
AcDbLine
 10
-229.917477
 20
-2.978483
 30
0.0
 11
-229.917477
 21
138.955067
 31
0.0
  0
LINE
  5
1A3
100
AcDbEntity
  8
0
370
    50
  6
Continuous
 62
     7
100
AcDbLine
 10
-274.812884
 20
0.274114
 30
0.0
 11
-184.778721
 21
0.274114
 31
0.0
1001
ACAD
1000
TCW40_DEV_WIDTH
1002
{
1040
0.019685
1002
}
  0
LINE
  5
1A4
100
AcDbEntity
  8
0
370
     0
  6
Continuous
 62
     5
100
AcDbLine
 10
-234.89151
 20
65.274114
 30
0.0
 11
-224.837885
 21
65.274114
 31
0.0
  0
LINE
  5
1A5
100
AcDbEntity
  8
0
370
     0
  6
Continuous
 62
     7
100
AcDbLine
 10
-295.914577
 20
45.274114
 30
0.0
 11
-288.595588
 21
45.274114
 31
0.0
  0
LINE
  5
1A6
100
AcDbEntity
  8
0
370
    50
  6
Continuous
 62
     7
100
AcDbLine
 10
-239.917477
 20
40.274114
 30
0.0
 11
-239.917477
 21
11.191295
 31
0.0
1001
ACAD
1000
TCW40_DEV_WIDTH
1002
{
1040
0.019685
1002
}
  0
LINE
  5
1A7
100
AcDbEntity
  8
0
370
    50
  6
Continuous
 62
     7
100
AcDbLine
 10
-234.917477
 20
40.274114
 30
0.0
 11
-234.917477
 21
10.528479
 31
0.0
1001
ACAD
1000
TCW40_DEV_WIDTH
1002
{
1040
0.019685
1002
}
  0
LINE
  5
1A8
100
AcDbEntity
  8
0
370
    50
  6
Continuous
 62
     7
100
AcDbLine
 10
-224.917477
 20
40.274114
 30
0.0
 11
-224.917477
 21
10.528479
 31
0.0
1001
ACAD
1000
TCW40_DEV_WIDTH
1002
{
1040
0.019685
1002
}
  0
LINE
  5
1A9
100
AcDbEntity
  8
0
370
    50
  6
Continuous
 62
     7
100
AcDbLine
 10
-219.917477
 20
40.274114
 30
0.0
 11
-219.917477
 21
11.230284
 31
0.0
1001
ACAD
1000
TCW40_DEV_WIDTH
1002
{
1040
0.019685
1002
}
  0
POLYLINE
  5
1AA
100
AcDbEntity
  8
0
370
    50
  6
Continuous
 62
     7
100
AcDb2dPolyline
 66
     1
 10
0.0
 20
0.0
 30
0.0
1001
ACAD
1000
TCW40_DEV_WIDTH
1002
{
1040
0.019685
1002
}
  0
VERTEX
  5
1AB
100
AcDbEntity
  8
0
  6
Continuous
 62
     7
100
AcDbVertex
100
AcDb2dVertex
 10
-291.768632
 20
45.280542
 30
0.0
  0
VERTEX
  5
1AC
100
AcDbEntity
  8
0
  6
Continuous
 62
     7
100
AcDbVertex
100
AcDb2dVertex
 10
-274.926567
 20
0.278705
 30
0.0
  0
VERTEX
  5
1AD
100
AcDbEntity
  8
0
  6
Continuous
 62
     7
100
AcDbVertex
100
AcDb2dVertex
 10
-184.922895
 20
0.278705
 30
0.0
  0
VERTEX
  5
1AE
100
AcDbEntity
  8
0
  6
Continuous
 62
     7
100
AcDbVertex
100
AcDb2dVertex
 10
-168.063136
 20
45.277001
 30
0.0
  0
SEQEND
  5
1AF
100
AcDbEntity
  8
0
  6
Continuous
 62
     7
  0
ARC
  5
1B0
100
AcDbEntity
  8
0
370
    50
  6
Continuous
 62
     7
100
AcDbCircle
 10
-229.917931
 20
65.274504
 30
0.0
 40
11.90263
100
AcDbArc
 50
179.975567
 51
360.020935
1001
ACAD
1000
TCW40_DEV_WIDTH
1002
{
1040
0.019685
1002
}
  0
ARC
  5
1B1
100
AcDbEntity
  8
0
370
    50
  6
Continuous
 62
     7
100
AcDbCircle
 10
-251.918278
 20
50.279973
 30
0.0
 40
4.994192
100
AcDbArc
 50
-90.308037
 51
0.0
1001
ACAD
1000
TCW40_DEV_WIDTH
1002
{
1040
0.019685
1002
}
  0
ARC
  5
1B2
100
AcDbEntity
  8
0
370
    50
  6
Continuous
 62
     7
100
AcDbCircle
 10
-207.919467
 20
50.279973
 30
0.0
 40
5.009067
100
AcDbArc
 50
-179.861598
 51
-89.843878
1001
ACAD
1000
TCW40_DEV_WIDTH
1002
{
1040
0.019685
1002
}
  0
POLYLINE
  5
1B3
100
AcDbEntity
  8
0
370
    50
  6
Continuous
 62
     7
100
AcDb2dPolyline
 66
     1
 10
0.0
 20
0.0
 30
0.0
1001
ACAD
1000
TCW40_DEV_WIDTH
1002
{
1040
0.019685
1002
}
  0
VERTEX
  5
1B4
100
AcDbEntity
  8
0
  6
Continuous
 62
     7
100
AcDbVertex
100
AcDb2dVertex
 10
-241.818371
 20
65.272123
 30
0.0
  0
VERTEX
  5
1B5
100
AcDbEntity
  8
0
  6
Continuous
 62
     7
100
AcDbVertex
100
AcDb2dVertex
 10
-246.915341
 20
65.272123
 30
0.0
  0
VERTEX
  5
1B6
100
AcDbEntity
  8
0
  6
Continuous
 62
     7
100
AcDbVertex
100
AcDb2dVertex
 10
-246.915341
 20
50.289858
 30
0.0
  0
SEQEND
  5
1B7
100
AcDbEntity
  8
0
  6
Continuous
 62
     7
  0
POLYLINE
  5
1B8
100
AcDbEntity
  8
0
370
    50
  6
Continuous
 62
     7
100
AcDb2dPolyline
 66
     1
 10
0.0
 20
0.0
 30
0.0
1001
ACAD
1000
TCW40_DEV_WIDTH
1002
{
1040
0.019685
1002
}
  0
VERTEX
  5
1B9
100
AcDbEntity
  8
0
  6
Continuous
 62
     7
100
AcDbVertex
100
AcDb2dVertex
 10
-218.016036
 20
65.273693
 30
0.0
  0
VERTEX
  5
1BA
100
AcDbEntity
  8
0
  6
Continuous
 62
     7
100
AcDbVertex
100
AcDb2dVertex
 10
-212.917021
 20
65.273693
 30
0.0
  0
VERTEX
  5
1BB
100
AcDbEntity
  8
0
  6
Continuous
 62
     7
100
AcDbVertex
100
AcDb2dVertex
 10
-212.917021
 20
50.130114
 30
0.0
  0
SEQEND
  5
1BC
100
AcDbEntity
  8
0
  6
Continuous
 62
     7
  0
LINE
  5
1BD
100
AcDbEntity
  8
0
370
    50
  6
Continuous
 62
     7
100
AcDbLine
 10
-281.14671
 20
45.267025
 30
0.0
 11
-251.803193
 21
45.267025
 31
0.0
1001
ACAD
1000
TCW40_DEV_WIDTH
1002
{
1040
0.019685
1002
}
  0
LINE
  5
1BE
100
AcDbEntity
  8
0
370
    50
  6
Continuous
 62
     7
100
AcDbLine
 10
-208.254617
 20
45.267025
 30
0.0
 11
-178.709487
 21
45.267025
 31
0.0
1001
ACAD
1000
TCW40_DEV_WIDTH
1002
{
1040
0.019685
1002
}
  0
ARC
  5
1BF
100
AcDbEntity
  8
0
370
    50
  6
Continuous
 62
     7
100
AcDbCircle
 10
-229.916785
 20
65.273962
 30
0.0
 40
54.996029
100
AcDbArc
 50
-21.4378
 51
201.319679
1001
ACAD
1000
TCW40_DEV_WIDTH
1002
{
1040
0.019685
1002
}
  0
ARC
  5
1C0
100
AcDbEntity
  8
0
370
    50
  6
Continuous
 62
     7
100
AcDbCircle
 10
-229.915791
 20
65.282168
 30
0.0
 40
55.020382
100
AcDbArc
 50
-152.974545
 51
-95.189027
1001
ACAD
1000
TCW40_DEV_WIDTH
1002
{
1040
0.019685
1002
}
  0
ARC
  5
1C1
100
AcDbEntity
  8
0
370
    50
  6
Continuous
 62
     7
100
AcDbCircle
 10
-229.923542
 20
65.278821
 30
0.0
 40
55.00174
100
AcDbArc
 50
-84.818901
 51
-27.130978
1001
ACAD
1000
TCW40_DEV_WIDTH
1002
{
1040
0.019685
1002
}
  0
LINE
  5
1C2
100
AcDbEntity
  8
0
370
     0
  6
Continuous
 62
     7
100
AcDbLine
 10
-171.113442
 20
45.281549
 30
0.0
 11
-165.034883
 21
45.281549
 31
0.0
  0
ARC
  5
1C3
100
AcDbEntity
  8
0
370
    50
  6
Continuous
 62
     7
100
AcDbCircle
 10
-229.921499
 20
65.273889
 30
0.0
 40
65.017761
100
AcDbArc
 50
-17.84626
 51
197.889299
1001
ACAD
1000
TCW40_DEV_WIDTH
1002
{
1040
0.019685
1002
}
  0
DIMENSION
  5
1E2
100
AcDbEntity
  8
0
  6
Continuous
 62
     5
100
AcDbDimension
  2
*D4
 10
-184.911689
 20
-10.775746
 30
0.0
 11
-229.94905
 21
-10.775746
 31
0.0
 71
     5
 72
     1
 41
1.0
 42
0.0
  1
90
  3
STANDARD
100
AcDbAlignedDimension
 13
-274.986411
 23
-0.625226
 33
0.0
 14
-184.911689
 24
-0.625226
 34
0.0
100
AcDbRotatedDimension
1001
ACAD
1000
DSTYLE
1002
{
1002
}
  0
DIMENSION
  5
201
100
AcDbEntity
  8
0
  6
Continuous
 62
     5
100
AcDbDimension
  2
*D5
 10
-164.660915
 20
40.233956
 30
0.0
 11
-164.660915
 21
20.244771
 31
0.0
 71
     5
 72
     1
 41
1.0
 42
0.0
  1
40
  3
STANDARD
100
AcDbAlignedDimension
 13
-183.431008
 23
0.255586
 33
0.0
 14
-183.246988
 24
40.233956
 34
0.0
 50
90.0
100
AcDbRotatedDimension
1001
ACAD
1000
DSTYLE
1002
{
1002
}
  0
DIMENSION
  5
220
100
AcDbEntity
  8
0
  6
Continuous
 62
     5
100
AcDbDimension
  2
*D6
 10
-156.178471
 20
45.169557
 30
0.0
 11
-156.178471
 21
22.712571
 31
0.0
 71
     5
 72
     1
 41
1.0
 42
0.0
  1
45
  3
STANDARD
100
AcDbAlignedDimension
 13
-184.911689
 23
0.255586
 33
0.0
 14
-182.100831
 24
45.169557
 34
0.0
 50
90.0
100
AcDbRotatedDimension
1001
ACAD
1000
DSTYLE
1002
{
1002
}
  0
DIMENSION
  5
23F
100
AcDbEntity
  8
0
  6
Continuous
 62
     5
100
AcDbDimension
  2
*D7
 10
-148.717898
 20
65.158742
 30
0.0
 11
-148.717898
 21
32.707164
 31
0.0
 71
     5
 72
     1
 41
1.0
 42
0.0
  1
65
  3
STANDARD
100
AcDbAlignedDimension
 13
-191.698809
 23
0.255586
 33
0.0
 14
-211.563935
 24
65.158742
 34
0.0
 50
90.0
100
AcDbRotatedDimension
1001
ACAD
1000
DSTYLE
1002
{
1002
}
  0
DIMENSION
  5
25E
100
AcDbEntity
  8
0
  6
Continuous
 62
     5
100
AcDbDimension
  2
*D8
 10
-138.108334
 20
130.370372
 30
0.0
 11
-138.108334
 21
65.312979
 31
0.0
 71
     5
 72
     1
 41
1.0
 42
0.0
  1
(130)
  3
STANDARD
100
AcDbAlignedDimension
 13
-195.756882
 23
0.255586
 33
0.0
 14
-227.357859
 24
130.370372
 34
0.0
 50
90.0
100
AcDbRotatedDimension
1001
ACAD
1000
DSTYLE
1002
{
1002
}
  0
DIMENSION
  5
26F
100
AcDbEntity
  8
0
  6
Continuous
 62
     5
100
AcDbDimension
  2
*D9
 10
-207.919467
 20
50.279973
 30
0.0
 11
-196.703198
 21
53.703664
 31
0.0
 70
     4
 71
     5
 72
     1
 41
1.0
 42
0.0
  1
R5
  3
STANDARD
100
AcDbRadialDimension
 15
-211.393599
 25
46.67149
 35
0.0
 40
-9.761617
1001
ACAD
1000
DSTYLE
1002
{
1002
}
  0
DIMENSION
  5
280
100
AcDbEntity
  8
0
  6
Continuous
 62
     5
100
AcDbDimension
  2
*D10
 10
-251.918278
 20
50.279973
 30
0.0
 11
-262.392866
 21
52.963324
 31
0.0
 70
     4
 71
     5
 72
     1
 41
1.0
 42
0.0
  1
R5
  3
STANDARD
100
AcDbRadialDimension
 15
-248.474737
 25
46.662794
 35
0.0
 40
-8.69906
1001
ACAD
1000
DSTYLE
1002
{
1002
}
  0
DIMENSION
  5
291
100
AcDbEntity
  8
0
  6
Continuous
 62
     5
100
AcDbDimension
  2
*D11
 10
-229.917931
 20
65.274504
 30
0.0
 11
-246.544908
 21
72.212168
 31
0.0
 70
     4
 71
     5
 72
     1
 41
1.0
 42
0.0
  1
R11,9 *
  3
STANDARD
100
AcDbRadialDimension
 15
-223.133801
 25
55.494516
 35
0.0
 40
-20.346039
1001
ACAD
1000
DSTYLE
1002
{
1002
}
  0
LINE
  5
292
100
AcDbEntity
  8
0
370
     0
  6
Continuous
 62
     5
100
AcDbLine
 10
-263.3569
 20
0.21817
 30
0.0
 11
-310.738671
 21
0.21817
 31
0.0
  0
DIMENSION
  5
2A7
100
AcDbEntity
  8
0
  6
Continuous
 62
     5
100
AcDbDimension
  2
*D12
 10
-291.768632
 20
45.280542
 30
0.0
 11
-300.799623
 21
18.176471
 31
0.0
 70
     2
 71
     5
 72
     1
 41
1.0
 42
0.0
  1
69,5 °
  3
STANDARD
100
AcDb2LineAngularDimension
 13
-263.3569
 23
0.21817
 33
0.0
 14
-310.738671
 24
0.21817
 34
0.0
 15
-274.926567
 25
0.278705
 35
0.0
 16
-292.476947
 26
26.376857
 36
0.0
1001
ACAD
1000
DSTYLE
1002
{
1002
}
  0
DIMENSION
  5
2BF
100
AcDbEntity
  8
0
  6
Continuous
 62
     5
100
AcDbDimension
  2
*D13
 10
-229.916785
 20
65.273962
 30
0.0
 11
-162.68743
 21
120.416619
 31
0.0
 70
     4
 71
     5
 72
     1
 41
1.0
 42
0.0
  1
R55
  3
STANDARD
100
AcDbRadialDimension
 15
-189.975965
 25
103.079969
 35
0.0
 40
25.219457
1001
ACAD
1000
DSTYLE
1002
{
1002
}
  0
DIMENSION
  5
2D7
100
AcDbEntity
  8
0
  6
Continuous
 62
     5
100
AcDbDimension
  2
*D14
 10
-229.921499
 20
65.273889
 30
0.0
 11
-152.569448
 21
99.687094
 31
0.0
 70
     4
 71
     5
 72
     1
 41
1.0
 42
0.0
  1
R65
  3
STANDARD
100
AcDbRadialDimension
 15
-171.844024
 25
94.502576
 35
0.0
 40
11.532703
1001
ACAD
1000
DSTYLE
1002
{
1002
}
  0
TEXT
  5
2D8
100
AcDbEntity
  8
0
  6
Continuous
 62
     5
100
AcDbText
 10
-166.472438
 20
-10.989026
 30
0.0
 40
3.222614
  1
alaplemez
 72
     5
 11
-145.892632
 21
-10.989026
 31
0.0
100
AcDbText
1001
TCAD
1000
TCW40_TEXT
1002
{
1000
Arial
1070
     0
1070
   257
1002
}
  0
LINE
  5
2D9
100
AcDbEntity
  8
0
370
   100
  6
Continuous
 62
     5
100
AcDbLine
 10
-249.496389
 20
25.372808
 30
0.0
 11
-241.496389
 21
25.372808
 31
0.0
1001
ACAD
1000
TCW40_DEV_WIDTH
1002
{
1040
0.03937
1002
}
  0
LINE
  5
2DA
100
AcDbEntity
  8
0
370
   100
  6
Continuous
 62
     5
100
AcDbLine
 10
-209.839659
 20
25.372808
 30
0.0
 11
-217.839659
 21
25.372808
 31
0.0
1001
ACAD
1000
TCW40_DEV_WIDTH
1002
{
1040
0.03937
1002
}
  0
TEXT
  5
2DB
100
AcDbEntity
  8
0
  6
Continuous
 62
     5
100
AcDbText
 10
-246.827728
 20
25.918753
 30
0.0
 40
3.222614
  1
A
 72
     5
 11
-243.816265
 21
25.918753
 31
0.0
100
AcDbText
1001
TCAD
1000
TCW40_TEXT
1002
{
1000
Arial
1070
     0
1070
   257
1002
}
  0
TEXT
  5
2DC
100
AcDbEntity
  8
0
  6
Continuous
 62
     5
100
AcDbText
 10
-215.519783
 20
25.918754
 30
0.0
 40
3.222614
  1
A
 72
     5
 11
-212.50832
 21
25.918754
 31
0.0
100
AcDbText
1001
TCAD
1000
TCW40_TEXT
1002
{
1000
Arial
1070
     0
1070
   257
1002
}
  0
POLYLINE
  5
2DE
102
{ACAD_REACTORS
330
2DD
102
}
100
AcDbEntity
  8
0
370
    50
  6
Continuous
 62
     7
100
AcDb2dPolyline
 66
     1
 10
0.0
 20
0.0
 30
0.0
 70
     1
1001
ACAD
1000
TCW40_DEV_WIDTH
1002
{
1040
0.019685
1002
}
  0
VERTEX
  5
2DF
100
AcDbEntity
  8
0
  6
Continuous
 62
     7
100
AcDbVertex
100
AcDb2dVertex
 10
-205.848744
 20
-39.541296
 30
0.0
  0
VERTEX
  5
2E0
100
AcDbEntity
  8
0
  6
Continuous
 62
     7
100
AcDbVertex
100
AcDb2dVertex
 10
-225.848744
 20
-39.541296
 30
0.0
  0
VERTEX
  5
2E1
100
AcDbEntity
  8
0
  6
Continuous
 62
     7
100
AcDbVertex
100
AcDb2dVertex
 10
-225.848744
 20
-48.541296
 30
0.0
  0
VERTEX
  5
2E2
100
AcDbEntity
  8
0
  6
Continuous
 62
     7
100
AcDbVertex
100
AcDb2dVertex
 10
-220.848744
 20
-53.541296
 30
0.0
  0
VERTEX
  5
2E3
100
AcDbEntity
  8
0
  6
Continuous
 62
     7
100
AcDbVertex
100
AcDb2dVertex
 10
-210.848744
 20
-53.541296
 30
0.0
  0
VERTEX
  5
2E4
100
AcDbEntity
  8
0
  6
Continuous
 62
     7
100
AcDbVertex
100
AcDb2dVertex
 10
-205.848744
 20
-48.541296
 30
0.0
  0
VERTEX
  5
2E5
100
AcDbEntity
  8
0
  6
Continuous
 62
     7
100
AcDbVertex
100
AcDb2dVertex
 10
-205.848744
 20
-39.541296
 30
0.0
  0
SEQEND
  5
2E6
100
AcDbEntity
  8
0
  6
Continuous
 62
     7
  0
HATCH
  5
2DD
100
AcDbEntity
  8
0
  6
Continuous
 62
     7
100
AcDbHatch
 10
0.0
 20
0.0
 30
0.0
210
0.0
220
0.0
230
1.0
  2
SOLID
 70
     1
 71
     1
 91
        1
 92
        3
 72
     0
 73
     1
 93
        6
 10
-205.84874388773096
 20
-39.541295544113638
 10
-225.84874388773096
 20
-39.541295544113638
 10
-225.84874388773096
 20
-48.541295544113638
 10
-220.84874388773096
 20
-53.541295544113638
 10
-210.84874388773096
 20
-53.541295544113638
 10
-205.84874388773096
 20
-48.541295544113638
 97
        1
330
2DE
 75
     0
 76
     0
 98
        0
  0
DIMENSION
  5
306
100
AcDbEntity
  8
0
  6
Continuous
 62
     5
100
AcDbDimension
  2
*D15
 10
-210.781198
 20
-57.235787
 30
0.0
 11
-195.175441
 21
-57.235787
 31
0.0
 70
     1
 71
     5
 72
     1
 41
1.0
 42
0.0
  1
10
  3
STANDARD
100
AcDbAlignedDimension
 13
-220.861562
 23
-53.745272
 33
0.0
 14
-210.781198
 24
-53.745272
 34
0.0
1001
ACAD
1000
DSTYLE
1002
{
1002
}
  0
DIMENSION
  5
325
100
AcDbEntity
  8
0
  6
Continuous
 62
     5
100
AcDbDimension
  2
*D16
 10
-205.846331
 20
-32.802187
 30
0.0
 11
-215.836424
 21
-32.802187
 31
0.0
 71
     5
 72
     1
 41
1.0
 42
0.0
  1
20
  3
STANDARD
100
AcDbAlignedDimension
 13
-225.826516
 23
-38.820315
 33
0.0
 14
-205.846331
 24
-39.301765
 34
0.0
 50
180.0
100
AcDbRotatedDimension
1001
ACAD
1000
DSTYLE
1002
{
1002
}
  0
LEADER
  5
326
100
AcDbEntity
  8
0
  6
Continuous
 62
     5
100
AcDbLeader
  3
STANDARD
 73
     0
 74
     0
 75
     0
 40
0.0
 76
     5
 10
-225.345066
 20
-49.171495
 30
0.0
 10
-228.474493
 20
-46.042068
 30
0.0
 10
-233.04827
 20
-46.042068
 30
0.0
 10
-233.409357
 20
-46.042068
 30
0.0
 10
-237.409357
 20
-46.042068
 30
0.0
 77
     5
211
0.0001
221
0.0
231
0.0
1001
ACAD
1000
DSTYLE
1002
{
1002
}
  0
MTEXT
  5
327
100
AcDbEntity
  8
0
  6
Continuous
 62
     5
100
AcDbMText
 10
-248.63392
 20
-43.927068
 30
0.0
 40
2.7025
 41
9.724563
 71
     1
 72
     1
  1
{5x45°}
 73
     1
 44
1.0
  0
LEADER
  5
328
100
AcDbEntity
  8
0
  6
Continuous
 62
     5
100
AcDbLeader
  3
STANDARD
 73
     0
 74
     0
 75
     0
 40
0.0
 76
     5
 10
-205.846331
 20
-48.569682
 30
0.0
 10
-203.92053
 20
-46.643881
 30
0.0
 10
-203.800168
 20
-46.643881
 30
0.0
 10
-203.800168
 20
-46.643881
 30
0.0
 10
-199.800168
 20
-46.643881
 30
0.0
 77
     5
211
0.0001
221
0.0
231
0.0
1001
ACAD
1000
DSTYLE
1002
{
1002
}
  0
MTEXT
  5
329
100
AcDbEntity
  8
0
  6
Continuous
 62
     5
100
AcDbMText
 10
-198.300168
 20
-44.528881
 30
0.0
 40
2.7025
 41
9.724563
 71
     1
 72
     1
  1
{5x45°}
 73
     1
 44
1.0
  0
TEXT
  5
32A
100
AcDbEntity
  8
0
  6
Continuous
 62
     5
100
AcDbText
 10
-219.914965
 20
-25.895618
 30
0.0
 40
3.222614
  1
A  - A
 72
     5
 11
-208.625282
 21
-25.895618
 31
0.0
100
AcDbText
1001
TCAD
1000
TCW40_TEXT
1002
{
1000
Arial
1070
     0
1070
   257
1002
}
  0
LINE
  5
32B
100
AcDbEntity
  8
0
370
     0
  6
Continuous
 62
     7
100
AcDbLine
 10
-224.919925
 20
40.275026
 30
0.0
 11
-180.912932
 21
40.275026
 31
0.0
  0
LINE
  5
32C
100
AcDbEntity
  8
0
370
     0
  6
Continuous
 62
     7
100
AcDbLine
 10
-234.917322
 20
40.272763
 30
0.0
 11
-278.963087
 21
40.272763
 31
0.0
  0
DIMENSION
  5
34B
100
AcDbEntity
  8
0
  6
Continuous
 62
     5
100
AcDbDimension
  2
*D17
 10
-261.139458
 20
-53.540328
 30
0.0
 11
-261.139458
 21
-46.530058
 31
0.0
 71
     5
 72
     1
 41
1.0
 42
0.0
  1
a szövegben
  3
STANDARD
100
AcDbAlignedDimension
 13
-224.160039
 23
-39.519787
 33
0.0
 14
-221.016654
 24
-53.540328
 34
0.0
 50
-90.0
100
AcDbRotatedDimension
1001
ACAD
1000
DSTYLE
1002
{
1002
}
  0
LINE
  5
34C
100
AcDbEntity
  8
0
370
     0
  6
Continuous
 62
     5
100
AcDbLine
 10
-50.685924
 20
-96.291478
 30
0.0
 11
-50.685924
 21
-86.355213
 31
0.0
  0
LINE
  5
34D
100
AcDbEntity
  8
0
370
     0
  6
Continuous
 62
     5
100
AcDbLine
 10
-55.659957
 20
-91.349344
 30
0.0
 11
-45.606332
 21
-91.349344
 31
0.0
  0
ARC
  5
34E
100
AcDbEntity
  8
0
370
    50
  6
Continuous
 62
     7
100
AcDbCircle
 10
-50.685232
 20
-91.349496
 30
0.0
 40
54.996029
100
AcDbArc
 50
-21.4378
 51
201.319679
1001
ACAD
1000
TCW40_DEV_WIDTH
1002
{
1040
0.019685
1002
}
  0
ARC
  5
34F
100
AcDbEntity
  8
0
370
    50
  6
Continuous
 62
     7
100
AcDbCircle
 10
-50.689946
 20
-91.349569
 30
0.0
 40
65.017761
100
AcDbArc
 50
-17.84626
 51
197.889299
1001
ACAD
1000
TCW40_DEV_WIDTH
1002
{
1040
0.019685
1002
}
  0
CIRCLE
  5
350
100
AcDbEntity
  8
0
370
     0
  6
Continuous
 62
     7
100
AcDbCircle
 10
-50.690714
 20
-91.356942
 30
0.0
 40
65.0
  0
CIRCLE
  5
351
100
AcDbEntity
  8
0
370
     0
  6
Continuous
 62
     7
100
AcDbCircle
 10
-50.681772
 20
-91.345268
 30
0.0
 40
55.0
  0
DIMENSION
  5
36E
100
AcDbEntity
  8
0
  6
Continuous
 62
     5
100
AcDbDimension
  2
*D18
 10
-3.242002
 20
-135.782382
 30
0.0
 11
-114.110453
 21
-41.463756
 31
0.0
 70
     3
 71
     5
 72
     1
 41
1.0
 42
0.0
  1
Ř130
  3
STANDARD
100
AcDbDiametricDimension
 15
-98.139427
 25
-46.931503
 35
0.0
 40
8.0
1001
ACAD
1000
DSTYLE
1002
{
1002
}
  0
LINE
  5
36F
100
AcDbEntity
  8
0
370
   100
  6
Continuous
 62
     5
100
AcDbLine
 10
-10.89399
 20
-91.079541
 30
0.0
 11
-2.107372
 21
-91.079541
 31
0.0
1001
ACAD
1000
TCW40_DEV_WIDTH
1002
{
1040
0.03937
1002
}
  0
LINE
  5
370
100
AcDbEntity
  8
0
370
   100
  6
Continuous
 62
     5
100
AcDbLine
 10
19.717453
 20
-91.646419
 30
0.0
 11
28.787511
 21
-91.646419
 31
0.0
1001
ACAD
1000
TCW40_DEV_WIDTH
1002
{
1040
0.03937
1002
}
  0
POLYLINE
  5
372
102
{ACAD_REACTORS
330
371
102
}
100
AcDbEntity
  8
0
370
     0
  6
Continuous
 62
     7
100
AcDb2dPolyline
 66
     1
 10
0.0
 20
0.0
 30
0.0
 70
     1
  0
VERTEX
  5
373
100
AcDbEntity
  8
0
  6
Continuous
 62
     7
100
AcDbVertex
100
AcDb2dVertex
 10
4.246769
 20
-98.129542
 30
0.0
  0
VERTEX
  5
374
100
AcDbEntity
  8
0
  6
Continuous
 62
     7
100
AcDbVertex
100
AcDb2dVertex
 10
5.084085
 20
-98.129542
 30
0.0
  0
VERTEX
  5
375
100
AcDbEntity
  8
0
  6
Continuous
 62
     7
100
AcDbVertex
100
AcDb2dVertex
 10
5.765899
 20
-98.04581
 30
0.0
  0
VERTEX
  5
376
100
AcDbEntity
  8
0
  6
Continuous
 62
     7
100
AcDbVertex
100
AcDb2dVertex
 10
6.603216
 20
-97.806577
 30
0.0
  0
VERTEX
  5
377
100
AcDbEntity
  8
0
  6
Continuous
 62
     7
100
AcDbVertex
100
AcDb2dVertex
 10
7.584072
 20
-97.483612
 30
0.0
  0
VERTEX
  5
378
100
AcDbEntity
  8
0
  6
Continuous
 62
     7
100
AcDbVertex
100
AcDb2dVertex
 10
8.277848
 20
-97.184571
 30
0.0
  0
VERTEX
  5
379
100
AcDbEntity
  8
0
  6
Continuous
 62
     7
100
AcDbVertex
100
AcDb2dVertex
 10
9.029937
 20
-96.753951
 30
0.0
  0
VERTEX
  5
37A
100
AcDbEntity
  8
0
  6
Continuous
 62
     7
100
AcDbVertex
100
AcDb2dVertex
 10
9.939023
 20
-96.108021
 30
0.0
  0
VERTEX
  5
37B
100
AcDbEntity
  8
0
  6
Continuous
 62
     7
100
AcDbVertex
100
AcDb2dVertex
 10
10.740454
 20
-95.354437
 30
0.0
  0
VERTEX
  5
37C
100
AcDbEntity
  8
0
  6
Continuous
 62
     7
100
AcDbVertex
100
AcDb2dVertex
 10
11.374422
 20
-94.457312
 30
0.0
  0
VERTEX
  5
37D
100
AcDbEntity
  8
0
  6
Continuous
 62
     7
100
AcDbVertex
100
AcDb2dVertex
 10
12.020352
 20
-93.237223
 30
0.0
  0
VERTEX
  5
37E
100
AcDbEntity
  8
0
  6
Continuous
 62
     7
100
AcDbVertex
100
AcDb2dVertex
 10
12.714128
 20
-91.730054
 30
0.0
  0
VERTEX
  5
37F
100
AcDbEntity
  8
0
  6
Continuous
 62
     7
100
AcDbVertex
100
AcDb2dVertex
 10
13.240441
 20
-90.222885
 30
0.0
  0
VERTEX
  5
380
100
AcDbEntity
  8
0
  6
Continuous
 62
     7
100
AcDbVertex
100
AcDb2dVertex
 10
13.659099
 20
-88.691793
 30
0.0
  0
VERTEX
  5
381
100
AcDbEntity
  8
0
  6
Continuous
 62
     7
100
AcDbVertex
100
AcDb2dVertex
 10
13.898332
 20
-87.627205
 30
0.0
  0
VERTEX
  5
382
100
AcDbEntity
  8
0
  6
Continuous
 62
     7
100
AcDbVertex
100
AcDb2dVertex
 10
14.152517
 20
-85.837442
 30
0.0
  0
VERTEX
  5
383
100
AcDbEntity
  8
0
  6
Continuous
 62
     7
100
AcDbVertex
100
AcDb2dVertex
 10
14.260172
 20
-84.126925
 30
0.0
  0
VERTEX
  5
384
100
AcDbEntity
  8
0
  6
Continuous
 62
     7
100
AcDbVertex
100
AcDb2dVertex
 10
4.248264
 20
-84.126925
 30
0.0
  0
VERTEX
  5
385
100
AcDbEntity
  8
0
  6
Continuous
 62
     7
100
AcDbVertex
100
AcDb2dVertex
 10
4.248264
 20
-98.11459
 30
0.0
  0
SEQEND
  5
386
100
AcDbEntity
  8
0
  6
Continuous
 62
     7
  0
HATCH
  5
371
100
AcDbEntity
  8
0
  6
Continuous
 62
     7
100
AcDbHatch
 10
0.0
 20
0.0
 30
0.0
210
0.0
220
0.0
230
1.0
  2
SOLID
 70
     1
 71
     1
 91
        1
 92
        3
 72
     0
 73
     1
 93
       19
 10
4.2467688197417033
 20
-98.129541606773216
 10
5.0840849303351661
 20
-98.129541606773216
 10
5.7658994775326846
 20
-98.04580999571391
 10
6.6032155881261474
 20
-97.806576821258602
 10
7.584071603392772
 20
-97.483612035743988
 10
8.277847809313073
 20
-97.184570567674939
 10
9.0299371015068459
 20
-96.753950853655454
 10
9.9390231644368896
 20
-96.108021282626169
 10
10.740454298862062
 20
-95.354436783092069
 10
11.374422211168564
 20
-94.457312378884751
 10
12.020351782197793
 20
-93.237223189162876
 10
12.714127988118094
 20
-91.73005419009462
 10
13.240440971919696
 20
-90.222885191026421
 10
13.659099027216428
 20
-88.691792874512657
 10
13.898332201671707
 20
-87.627205248186669
 10
14.152517449530421
 20
-85.837441844154171
 10
14.260172378035293
 20
-84.126924646798955
 10
4.2482640270820298
 20
-84.126924646798955
 10
4.2482640270820298
 20
-98.114589794536585
 97
        1
330
372
 75
     0
 76
     0
 98
        0
  0
DIMENSION
  5
3A3
100
AcDbEntity
  8
0
  6
Continuous
 62
     5
100
AcDbDimension
  2
*D19
 10
-0.178739
 20
-113.126997
 30
0.0
 11
-125.718843
 21
-63.351654
 31
0.0
 70
     3
 71
     5
 72
     1
 41
1.0
 42
0.0
  1
Ř110
  3
STANDARD
100
AcDbDiametricDimension
 15
-101.184804
 25
-69.56354
 35
0.0
 40
15.685335
1001
ACAD
1000
DSTYLE
1002
{
1002
}
  0
LINE
  5
3A4
100
AcDbEntity
  8
0
370
    50
  6
Continuous
 62
     7
100
AcDbLine
 10
-270.856342
 20
-126.20225
 30
0.0
 11
-199.952448
 21
-126.20225
 31
0.0
1001
ACAD
1000
TCW40_DEV_WIDTH
1002
{
1040
0.019685
1002
}
  0
INSERT
  5
3D3
100
AcDbEntity
  8
0
  6
Continuous
 62
     7
100
AcDbBlockReference
  2
*E20
 10
0.0
 20
0.0
 30
0.0
1001
TCAD
1000
TC25ExternalObject
1002
{
1000
TCW30CURVE
1000

1070
     0
1071
        0
1040
1.0
1040
0.019685
1000
Continuous
1000
0
1070
    21
1071
        7
1071
      162
1010
-215.738628
1020
-73.183096
1030
0.0
1071
     6274
1010
-210.355886
1020
-81.923199
1030
0.0
1071
     6274
1010
-206.09194
1020
-91.454372
1030
0.0
1071
      130
1010
-203.163408
1020
-101.29241
1030
0.0
1071
     6274
1010
-200.775493
1020
-109.314312
1030
0.0
1071
     6274
1010
-199.679267
1020
-117.831148
1030
0.0
1071
      162
1010
-199.95796
1020
-126.196276
1030
0.0
1070
     3
1071
        5
1000
$SPLINESEGS
1070
    18
1070
    20
1000
$SPLFRAME
1070
    18
1070
     0
1000
$SPLINETYPE
1070
    18
1070
     1
1000
$SHOWCONTRPTS
1070
    18
1070
     1
1000
$CURVESMOOTH
1070
    18
1070
     1
1002
}
  0
POLYLINE
  5
3D4
100
AcDbEntity
  8
0
370
    50
  6
Continuous
 62
     7
100
AcDb2dPolyline
 66
     1
 10
0.0
 20
0.0
 30
0.0
1001
ACAD
1000
TCW40_DEV_WIDTH
1002
{
1040
0.019685
1002
}
  0
VERTEX
  5
3D5
100
AcDbEntity
  8
0
  6
Continuous
 62
     7
100
AcDbVertex
100
AcDb2dVertex
 10
-226.856342
 20
-73.10225
 30
0.0
  0
VERTEX
  5
3D6
100
AcDbEntity
  8
0
  6
Continuous
 62
     7
100
AcDbVertex
100
AcDb2dVertex
 10
-226.856342
 20
-89.10225
 30
0.0
  0
VERTEX
  5
3D7
100
AcDbEntity
  8
0
  6
Continuous
 62
     7
100
AcDbVertex
100
AcDb2dVertex
 10
-250.856342
 20
-89.10225
 30
0.0
  0
VERTEX
  5
3D8
100
AcDbEntity
  8
0
  6
Continuous
 62
     7
100
AcDbVertex
100
AcDb2dVertex
 10
-250.856342
 20
-73.10225
 30
0.0
  0
SEQEND
  5
3D9
100
AcDbEntity
  8
0
  6
Continuous
 62
     7
  0
LINE
  5
3DA
100
AcDbEntity
  8
0
370
    50
  6
Continuous
 62
     7
100
AcDbLine
 10
-270.856342
 20
-73.10225
 30
0.0
 11
-250.856342
 21
-73.10225
 31
0.0
1001
ACAD
1000
TCW40_DEV_WIDTH
1002
{
1040
0.019685
1002
}
  0
LINE
  5
3DB
100
AcDbEntity
  8
0
370
    50
  6
Continuous
 62
     7
100
AcDbLine
 10
-226.856342
 20
-73.10225
 30
0.0
 11
-215.856342
 21
-73.10225
 31
0.0
1001
ACAD
1000
TCW40_DEV_WIDTH
1002
{
1040
0.019685
1002
}
  0
LINE
  5
3DC
100
AcDbEntity
  8
0
370
    50
  6
Continuous
 62
     7
100
AcDbLine
 10
-228.856342
 20
-89.10225
 30
0.0
 11
-228.856342
 21
-95.10225
 31
0.0
1001
ACAD
1000
TCW40_DEV_WIDTH
1002
{
1040
0.019685
1002
}
  0
LINE
  5
3DD
100
AcDbEntity
  8
0
370
    50
  6
Continuous
 62
     7
100
AcDbLine
 10
-232.837154
 20
-89.113386
 30
0.0
 11
-232.837154
 21
-95.113386
 31
0.0
1001
ACAD
1000
TCW40_DEV_WIDTH
1002
{
1040
0.019685
1002
}
  0
INSERT
  5
434
100
AcDbEntity
  8
0
  6
Continuous
 62
     7
100
AcDbBlockReference
  2
*E21
 10
0.0
 20
0.0
 30
0.0
1001
TCAD
1000
TC25ExternalObject
1002
{
1000
TCW30CURVE
1000

1070
     0
1071
        0
1040
1.0
1040
0.019685
1000
Continuous
1000
0
1070
    21
1071
       13
1071
      162
1010
-232.837154
1020
-95.108221
1030
0.0
1071
     6274
1010
-232.436398
1020
-95.804824
1030
0.0
1071
     6274
1010
-231.968069
1020
-96.466593
1030
0.0
1071
      130
1010
-231.444414
1020
-97.076222
1030
0.0
1071
     6274
1010
-231.281997
1020
-97.265304
1030
0.0
1071
     6274
1010
-231.057806
1020
-97.475014
1030
0.0
1071
      130
1010
-230.808599
1020
-97.469822
1030
0.0
1071
     6274
1010
-230.501719
1020
-97.463429
1030
0.0
1071
     6274
1010
-230.185822
1020
-97.283236
1030
0.0
1071
      130
1010
-229.991121
1020
-97.045945
1030
0.0
1071
     6274
1010
-229.51787
1020
-96.46917
1030
0.0
1071
     6274
1010
-229.115886
1020
-95.756921
1030
0.0
1071
      162
1010
-228.852199
1020
-95.058992
1030
0.0
1070
     3
1071
        5
1000
$SPLINESEGS
1070
    18
1070
    20
1000
$SPLFRAME
1070
    18
1070
     0
1000
$SPLINETYPE
1070
    18
1070
     1
1000
$SHOWCONTRPTS
1070
    18
1070
     1
1000
$CURVESMOOTH
1070
    18
1070
     1
1002
}
  0
LINE
  5
435
100
AcDbEntity
  8
0
370
     0
  6
Continuous
 62
     5
100
AcDbLine
 10
-250.859174
 20
-73.101133
 30
0.0
 11
-226.837341
 21
-73.101133
 31
0.0
  0
POLYLINE
  5
436
100
AcDbEntity
  8
0
370
     0
  6
Continuous
 62
     5
100
AcDb2dPolyline
 66
     1
 10
0.0
 20
0.0
 30
0.0
  0
VERTEX
  5
437
100
AcDbEntity
  8
0
  6
Continuous
 62
     5
100
AcDbVertex
100
AcDb2dVertex
 10
-215.794851
 20
-73.101134
 30
0.0
  0
VERTEX
  5
438
100
AcDbEntity
  8
0
  6
Continuous
 62
     5
100
AcDbVertex
100
AcDb2dVertex
 10
-170.900091
 20
-73.101134
 30
0.0
  0
VERTEX
  5
439
100
AcDbEntity
  8
0
  6
Continuous
 62
     5
100
AcDbVertex
100
AcDb2dVertex
 10
-170.900091
 20
-126.24274
 30
0.0
  0
VERTEX
  5
43A
100
AcDbEntity
  8
0
  6
Continuous
 62
     5
100
AcDbVertex
100
AcDb2dVertex
 10
-199.989411
 20
-126.194014
 30
0.0
  0
SEQEND
  5
43B
100
AcDbEntity
  8
0
  6
Continuous
 62
     5
  0
LINE
  5
43C
100
AcDbEntity
  8
0
370
    50
  6
Continuous
 62
     7
100
AcDbLine
 10
-270.885082
 20
-73.102396
 30
0.0
 11
-270.885082
 21
-126.202629
 31
0.0
1001
ACAD
1000
TCW40_DEV_WIDTH
1002
{
1040
0.019685
1002
}
  0
DIMENSION
  5
45B
100
AcDbEntity
  8
0
  6
Continuous
 62
     5
100
AcDbDimension
  2
*D22
 10
-170.844989
 20
-135.827729
 30
0.0
 11
-220.90044
 21
-135.827729
 31
0.0
 71
     5
 72
     1
 41
1.0
 42
0.0
  1
100
  3
STANDARD
100
AcDbAlignedDimension
 13
-270.95589
 23
-126.97018
 33
0.0
 14
-170.844989
 24
-126.76419
 34
0.0
100
AcDbRotatedDimension
1001
ACAD
1000
DSTYLE
1002
{
1002
}
  0
DIMENSION
  5
47A
100
AcDbEntity
  8
0
  6
Continuous
 62
     5
100
AcDbDimension
  2
*D23
 10
-288.464999
 20
-73.000929
 30
0.0
 11
-288.464999
 21
-99.573575
 31
0.0
 71
     5
 72
     1
 41
1.0
 42
0.0
  1
53,1
  3
STANDARD
100
AcDbAlignedDimension
 13
-271.573859
 23
-126.146222
 33
0.0
 14
-271.573859
 24
-73.000929
 34
0.0
 50
-90.0
100
AcDbRotatedDimension
1001
ACAD
1000
DSTYLE
1002
{
1002
}
  0
LINE
  5
47B
100
AcDbEntity
  8
0
370
    50
  6
Continuous
 62
     7
100
AcDbLine
 10
164.125317
 20
-57.8726
 30
0.0
 11
164.125317
 21
-137.058663
 31
0.0
1001
ACAD
1000
TCW40_DEV_WIDTH
1002
{
1040
0.019685
1002
}
  0
LINE
  5
47C
100
AcDbEntity
  8
0
370
    50
  6
Continuous
 62
     7
100
AcDbLine
 10
164.16456
 20
-59.73997
 30
0.0
 11
174.120752
 21
-59.73997
 31
0.0
1001
ACAD
1000
TCW40_DEV_WIDTH
1002
{
1040
0.019685
1002
}
  0
LINE
  5
47D
100
AcDbEntity
  8
0
370
    50
  6
Continuous
 62
     7
100
AcDbLine
 10
164.164524
 20
-57.763006
 30
0.0
 11
174.120713
 21
-57.763006
 31
0.0
1001
ACAD
1000
TCW40_DEV_WIDTH
1002
{
1040
0.019685
1002
}
  0
POLYLINE
  5
47E
100
AcDbEntity
  8
0
370
    50
  6
Continuous
 62
     7
100
AcDb2dPolyline
 66
     1
 10
0.0
 20
0.0
 30
0.0
 70
     1
1001
ACAD
1000
TCW40_DEV_WIDTH
1002
{
1040
0.019685
1002
}
  0
VERTEX
  5
47F
100
AcDbEntity
  8
0
  6
Continuous
 62
     7
100
AcDbVertex
100
AcDb2dVertex
 10
164.13129
 20
-57.762082
 30
0.0
  0
VERTEX
  5
480
100
AcDbEntity
  8
0
  6
Continuous
 62
     7
100
AcDbVertex
100
AcDb2dVertex
 10
174.13129
 20
-57.762082
 30
0.0
  0
VERTEX
  5
481
100
AcDbEntity
  8
0
  6
Continuous
 62
     7
100
AcDbVertex
100
AcDb2dVertex
 10
174.13129
 20
-126.874856
 30
0.0
  0
VERTEX
  5
482
100
AcDbEntity
  8
0
  6
Continuous
 62
     7
100
AcDbVertex
100
AcDb2dVertex
 10
184.13129
 20
-126.874856
 30
0.0
  0
VERTEX
  5
483
100
AcDbEntity
  8
0
  6
Continuous
 62
     7
100
AcDbVertex
100
AcDb2dVertex
 10
184.13129
 20
-150.374856
 30
0.0
  0
VERTEX
  5
484
100
AcDbEntity
  8
0
  6
Continuous
 62
     7
100
AcDbVertex
100
AcDb2dVertex
 10
182.65421
 20
-149.029343
 30
0.0
  0
VERTEX
  5
485
100
AcDbEntity
  8
0
  6
Continuous
 62
     7
100
AcDbVertex
100
AcDb2dVertex
 10
180.920249
 20
-147.623429
 30
0.0
  0
VERTEX
  5
486
100
AcDbEntity
  8
0
  6
Continuous
 62
     7
100
AcDbVertex
100
AcDb2dVertex
 10
179.092561
 20
-146.194083
 30
0.0
  0
VERTEX
  5
487
100
AcDbEntity
  8
0
  6
Continuous
 62
     7
100
AcDbVertex
100
AcDb2dVertex
 10
176.86653
 20
-144.530418
 30
0.0
  0
VERTEX
  5
488
100
AcDbEntity
  8
0
  6
Continuous
 62
     7
100
AcDbVertex
100
AcDb2dVertex
 10
174.804523
 20
-143.007344
 30
0.0
  0
VERTEX
  5
489
100
AcDbEntity
  8
0
  6
Continuous
 62
     7
100
AcDbVertex
100
AcDb2dVertex
 10
172.250445
 20
-141.367111
 30
0.0
  0
VERTEX
  5
48A
100
AcDbEntity
  8
0
  6
Continuous
 62
     7
100
AcDbVertex
100
AcDb2dVertex
 10
170.671721
 20
-140.371255
 30
0.0
  0
VERTEX
  5
48B
100
AcDbEntity
  8
0
  6
Continuous
 62
     7
100
AcDbVertex
100
AcDb2dVertex
 10
168.469122
 20
-139.105932
 30
0.0
  0
VERTEX
  5
48C
100
AcDbEntity
  8
0
  6
Continuous
 62
     7
100
AcDbVertex
100
AcDb2dVertex
 10
166.336819
 20
-137.957769
 30
0.0
  0
VERTEX
  5
48D
100
AcDbEntity
  8
0
  6
Continuous
 62
     7
100
AcDbVertex
100
AcDb2dVertex
 10
164.649722
 20
-137.137653
 30
0.0
  0
VERTEX
  5
48E
100
AcDbEntity
  8
0
  6
Continuous
 62
     7
100
AcDbVertex
100
AcDb2dVertex
 10
164.13422
 20
-136.903334
 30
0.0
  0
VERTEX
  5
48F
100
AcDbEntity
  8
0
  6
Continuous
 62
     7
100
AcDbVertex
100
AcDb2dVertex
 10
164.13422
 20
-57.762082
 30
0.0
  0
SEQEND
  5
490
100
AcDbEntity
  8
0
  6
Continuous
 62
     7
  0
POLYLINE
  5
491
100
AcDbEntity
  8
0
370
    50
  6
Continuous
 62
     7
100
AcDb2dPolyline
 66
     1
 10
0.0
 20
0.0
 30
0.0
 70
     1
1001
ACAD
1000
TCW40_DEV_WIDTH
1002
{
1040
0.019685
1002
}
  0
VERTEX
  5
492
100
AcDbEntity
  8
0
  6
Continuous
 62
     7
100
AcDbVertex
100
AcDb2dVertex
 10
174.131401
 20
-116.873439
 30
0.0
  0
VERTEX
  5
493
100
AcDbEntity
  8
0
  6
Continuous
 62
     7
100
AcDbVertex
100
AcDb2dVertex
 10
174.131401
 20
-111.873439
 30
0.0
  0
VERTEX
  5
494
100
AcDbEntity
  8
0
  6
Continuous
 62
     7
100
AcDbVertex
100
AcDb2dVertex
 10
175.131401
 20
-111.873439
 30
0.0
  0
VERTEX
  5
495
100
AcDbEntity
  8
0
  6
Continuous
 62
     7
100
AcDbVertex
100
AcDb2dVertex
 10
175.131401
 20
-116.873439
 30
0.0
  0
VERTEX
  5
496
100
AcDbEntity
  8
0
  6
Continuous
 62
     7
100
AcDbVertex
100
AcDb2dVertex
 10
174.131401
 20
-116.873439
 30
0.0
  0
SEQEND
  5
497
100
AcDbEntity
  8
0
  6
Continuous
 62
     7
  0
POLYLINE
  5
498
100
AcDbEntity
  8
0
370
    50
  6
Continuous
 62
     7
100
AcDb2dPolyline
 66
     1
 10
0.0
 20
0.0
 30
0.0
 70
     1
1001
ACAD
1000
TCW40_DEV_WIDTH
1002
{
1040
0.019685
1002
}
  0
VERTEX
  5
499
100
AcDbEntity
  8
0
  6
Continuous
 62
     7
100
AcDbVertex
100
AcDb2dVertex
 10
174.127727
 20
-76.87315
 30
0.0
  0
VERTEX
  5
49A
100
AcDbEntity
  8
0
  6
Continuous
 62
     7
100
AcDbVertex
100
AcDb2dVertex
 10
174.127727
 20
-71.87315
 30
0.0
  0
VERTEX
  5
49B
100
AcDbEntity
  8
0
  6
Continuous
 62
     7
100
AcDbVertex
100
AcDb2dVertex
 10
175.127727
 20
-71.87315
 30
0.0
  0
VERTEX
  5
49C
100
AcDbEntity
  8
0
  6
Continuous
 62
     7
100
AcDbVertex
100
AcDb2dVertex
 10
175.127727
 20
-76.87315
 30
0.0
  0
VERTEX
  5
49D
100
AcDbEntity
  8
0
  6
Continuous
 62
     7
100
AcDbVertex
100
AcDb2dVertex
 10
174.127727
 20
-76.87315
 30
0.0
  0
SEQEND
  5
49E
100
AcDbEntity
  8
0
  6
Continuous
 62
     7
  0
LINE
  5
49F
100
AcDbEntity
  8
0
370
    50
  6
Continuous
 62
     7
100
AcDbLine
 10
175.138432
 20
-125.877431
 30
0.0
 11
195.138432
 21
-125.877431
 31
0.0
1001
ACAD
1000
TCW40_DEV_WIDTH
1002
{
1040
0.019685
1002
}
  0
POLYLINE
  5
4A0
100
AcDbEntity
  8
0
370
    50
  6
Continuous
 62
     7
100
AcDb2dPolyline
 66
     1
 10
0.0
 20
0.0
 30
0.0
1001
ACAD
1000
TCW40_DEV_WIDTH
1002
{
1040
0.019685
1002
}
  0
VERTEX
  5
4A1
100
AcDbEntity
  8
0
  6
Continuous
 62
     7
100
AcDbVertex
100
AcDb2dVertex
 10
175.138432
 20
-125.877431
 30
0.0
  0
VERTEX
  5
4A2
100
AcDbEntity
  8
0
  6
Continuous
 62
     7
100
AcDbVertex
100
AcDb2dVertex
 10
175.138432
 20
-57.877431
 30
0.0
  0
VERTEX
  5
4A3
100
AcDbEntity
  8
0
  6
Continuous
 62
     7
100
AcDbVertex
100
AcDb2dVertex
 10
189.138432
 20
-57.877431
 30
0.0
  0
SEQEND
  5
4A4
100
AcDbEntity
  8
0
  6
Continuous
 62
     7
  0
POLYLINE
  5
4A5
100
AcDbEntity
  8
0
370
    50
  6
Continuous
 62
     7
100
AcDb2dPolyline
 66
     1
 10
0.0
 20
0.0
 30
0.0
1001
ACAD
1000
TCW40_DEV_WIDTH
1002
{
1040
0.019685
1002
}
  0
VERTEX
  5
4A6
100
AcDbEntity
  8
0
  6
Continuous
 62
     7
100
AcDbVertex
100
AcDb2dVertex
 10
195.126811
 20
-125.878879
 30
0.0
  0
VERTEX
  5
4A7
100
AcDbEntity
  8
0
  6
Continuous
 62
     7
100
AcDbVertex
100
AcDb2dVertex
 10
195.126811
 20
-62.258789
 30
0.0
  0
VERTEX
  5
4A8
100
AcDbEntity
  8
0
  6
Continuous
 62
     7
100
AcDbVertex
100
AcDb2dVertex
 10
194.867987
 20
-60.646764
 30
0.0
  0
VERTEX
  5
4A9
100
AcDbEntity
  8
0
  6
Continuous
 62
     7
100
AcDbVertex
100
AcDb2dVertex
 10
194.310533
 20
-59.531855
 30
0.0
  0
VERTEX
  5
4AA
100
AcDbEntity
  8
0
  6
Continuous
 62
     7
100
AcDbVertex
100
AcDb2dVertex
 10
192.797442
 20
-58.536401
 30
0.0
  0
VERTEX
  5
4AB
100
AcDbEntity
  8
0
  6
Continuous
 62
     7
100
AcDbVertex
100
AcDb2dVertex
 10
191.045443
 20
-57.978946
 30
0.0
  0
VERTEX
  5
4AC
100
AcDbEntity
  8
0
  6
Continuous
 62
     7
100
AcDbVertex
100
AcDb2dVertex
 10
188.895261
 20
-57.859492
 30
0.0
  0
SEQEND
  5
4AD
100
AcDbEntity
  8
0
  6
Continuous
 62
     7
  0
DIMENSION
  5
4CD
100
AcDbEntity
  8
0
  6
Continuous
 62
     5
100
AcDbDimension
  2
*D24
 10
164.190828
 20
-46.034748
 30
0.0
 11
148.585072
 21
-46.034748
 31
0.0
 71
     5
 72
     1
 41
1.0
 42
0.0
  1
10
  3
STANDARD
100
AcDbAlignedDimension
 13
174.054159
 23
-59.252778
 33
0.0
 14
164.190828
 24
-58.904935
 34
0.0
100
AcDbRotatedDimension
1001
ACAD
1000
DSTYLE
1002
{
1002
}
  0
DIMENSION
  5
4EC
100
AcDbEntity
  8
0
  6
Continuous
 62
     5
100
AcDbDimension
  2
*D25
 10
195.161685
 20
-52.642232
 30
0.0
 11
185.101089
 21
-52.642232
 31
0.0
 71
     5
 72
     1
 41
1.0
 42
0.0
  1
20
  3
STANDARD
100
AcDbAlignedDimension
 13
175.040492
 23
-59.380936
 33
0.0
 14
195.161685
 24
-61.028174
 34
0.0
 50
180.0
100
AcDbRotatedDimension
1001
ACAD
1000
DSTYLE
1002
{
1002
}
  0
DIMENSION
  5
50C
100
AcDbEntity
  8
0
  6
Continuous
 62
     5
100
AcDbDimension
  2
*D26
 10
153.079286
 20
-126.879609
 30
0.0
 11
160.685042
 21
-134.879609
 31
0.0
 71
     5
 72
     1
 41
1.0
 42
0.0
  1
10
  3
STANDARD
100
AcDbAlignedDimension
 13
171.818509
 23
-116.819012
 33
0.0
 14
172.476026
 24
-126.879609
 34
0.0
 50
90.0
100
AcDbRotatedDimension
1001
ACAD
1000
DSTYLE
1002
{
1002
}
  0
DIMENSION
  5
52B
100
AcDbEntity
  8
0
  6
Continuous
 62
     5
100
AcDbDimension
  2
*D27
 10
147.417076
 20
-126.879609
 30
0.0
 11
147.417076
 21
-101.925384
 31
0.0
 71
     5
 72
     1
 41
1.0
 42
0.0
  1
50
  3
STANDARD
100
AcDbAlignedDimension
 13
172.021519
 23
-76.971158
 33
0.0
 14
172.673292
 24
-126.879609
 34
0.0
 50
90.0
100
AcDbRotatedDimension
1001
ACAD
1000
DSTYLE
1002
{
1002
}
  0
DIMENSION
  5
54B
100
AcDbEntity
  8
0
  6
Continuous
 62
     5
100
AcDbDimension
  2
*D28
 10
199.913976
 20
-136.827558
 30
0.0
 11
207.519732
 21
-144.827558
 31
0.0
 71
     5
 72
     1
 41
1.0
 42
0.0
  1
10
  3
STANDARD
100
AcDbAlignedDimension
 13
183.579878
 23
-126.964228
 33
0.0
 14
166.558027
 24
-136.827558
 34
0.0
 50
90.0
100
AcDbRotatedDimension
1001
ACAD
1000
DSTYLE
1002
{
1002
}
  0
DIMENSION
  5
56A
100
AcDbEntity
  8
0
  6
Continuous
 62
     5
100
AcDbDimension
  2
*D29
 10
215.388575
 20
-150.63622
 30
0.0
 11
215.388575
 21
-138.800224
 31
0.0
 71
     5
 72
     1
 41
1.0
 42
0.0
  1
23,7*
  3
STANDARD
100
AcDbAlignedDimension
 13
186.240032
 23
-126.964228
 33
0.0
 14
186.087421
 24
-150.63622
 34
0.0
 50
90.0
100
AcDbRotatedDimension
1001
ACAD
1000
DSTYLE
1002
{
1002
}
  0
DIMENSION
  5
589
100
AcDbEntity
  8
0
  6
Continuous
 62
     5
100
AcDbDimension
  2
*D30
 10
206.877801
 20
-57.952413
 30
0.0
 11
206.877801
 21
-92.474069
 31
0.0
 71
     5
 72
     1
 41
1.0
 42
0.0
  1
69*
  3
STANDARD
100
AcDbAlignedDimension
 13
190.925787
 23
-126.995725
 33
0.0
 14
190.427287
 24
-57.952413
 34
0.0
 50
90.0
100
AcDbRotatedDimension
1001
ACAD
1000
DSTYLE
1002
{
1002
}
  0
DIMENSION
  5
5A9
100
AcDbEntity
  8
0
  6
Continuous
 62
     5
100
AcDbDimension
  2
*D31
 10
179.669742
 20
-76.878199
 30
0.0
 11
186.22262
 21
-84.878199
 31
0.0
 70
     1
 71
     5
 72
     1
 41
1.0
 42
0.0
  1
5
  3
STANDARD
100
AcDbAlignedDimension
 13
173.462359
 23
-71.946534
 33
0.0
 14
173.462359
 24
-76.878199
 34
0.0
 50
-90.0
1001
ACAD
1000
DSTYLE
1002
{
1002
}
  0
DIMENSION
  5
5C9
100
AcDbEntity
  8
0
  6
Continuous
 62
     5
100
AcDbDimension
  2
*D32
 10
179.527337
 20
-111.794388
 30
0.0
 11
186.080215
 21
-103.794388
 31
0.0
 71
     5
 72
     1
 41
1.0
 42
0.0
  1
5
  3
STANDARD
100
AcDbAlignedDimension
 13
174.078746
 23
-116.923319
 33
0.0
 14
173.659624
 24
-111.794388
 34
0.0
 50
-90.0
100
AcDbRotatedDimension
1001
ACAD
1000
DSTYLE
1002
{
1002
}
  0
POLYLINE
  5
5CA
100
AcDbEntity
  8
0
370
    50
  6
Continuous
 62
     7
100
AcDb2dPolyline
 66
     1
 10
0.0
 20
0.0
 30
0.0
 70
     1
1001
ACAD
1000
TCW40_DEV_WIDTH
1002
{
1040
0.019685
1002
}
  0
VERTEX
  5
5CB
100
AcDbEntity
  8
0
  6
Continuous
 62
     7
100
AcDbVertex
100
AcDb2dVertex
 10
73.281841
 20
-142.687697
 30
0.0
  0
VERTEX
  5
5CC
100
AcDbEntity
  8
0
  6
Continuous
 62
     7
100
AcDbVertex
100
AcDb2dVertex
 10
73.281841
 20
-57.687697
 30
0.0
  0
VERTEX
  5
5CD
100
AcDbEntity
  8
0
  6
Continuous
 62
     7
100
AcDbVertex
100
AcDb2dVertex
 10
103.281841
 20
-57.687697
 30
0.0
  0
VERTEX
  5
5CE
100
AcDbEntity
  8
0
  6
Continuous
 62
     7
100
AcDbVertex
100
AcDb2dVertex
 10
103.281841
 20
-152.687697
 30
0.0
  0
VERTEX
  5
5CF
100
AcDbEntity
  8
0
  6
Continuous
 62
     7
100
AcDbVertex
100
AcDb2dVertex
 10
93.281841
 20
-152.687697
 30
0.0
  0
VERTEX
  5
5D0
100
AcDbEntity
  8
0
  6
Continuous
 62
     7
100
AcDbVertex
100
AcDb2dVertex
 10
73.310325
 20
-142.659212
 30
0.0
  0
SEQEND
  5
5D1
100
AcDbEntity
  8
0
  6
Continuous
 62
     7
  0
LINE
  5
5D2
100
AcDbEntity
  8
0
370
    50
  6
Continuous
 62
     7
100
AcDbLine
 10
83.225567
 20
-132.66928
 30
0.0
 11
103.316016
 21
-132.66928
 31
0.0
1001
ACAD
1000
TCW40_DEV_WIDTH
1002
{
1040
0.019685
1002
}
  0
LINE
  5
5D3
100
AcDbEntity
  8
0
370
    50
  6
Continuous
 62
     7
100
AcDbLine
 10
83.225564
 20
-57.673172
 30
0.0
 11
83.225564
 21
-132.689574
 31
0.0
1001
ACAD
1000
TCW40_DEV_WIDTH
1002
{
1040
0.019685
1002
}
  0
DIMENSION
  5
5F2
100
AcDbEntity
  8
0
  6
Continuous
 62
     5
100
AcDbDimension
  2
*D33
 10
103.348904
 20
-41.658374
 30
0.0
 11
88.256125
 21
-41.658374
 31
0.0
 71
     5
 72
     1
 41
1.0
 42
0.0
  1
30
  3
STANDARD
100
AcDbAlignedDimension
 13
73.163347
 23
-57.59492
 33
0.0
 14
103.348904
 24
-57.59492
 34
0.0
100
AcDbRotatedDimension
1001
ACAD
1000
DSTYLE
1002
{
1002
}
  0
DIMENSION
  5
611
100
AcDbEntity
  8
0
  6
Continuous
 62
     5
100
AcDbDimension
  2
*D34
 10
103.348904
 20
-50.189863
 30
0.0
 11
93.456159
 21
-50.189863
 31
0.0
 71
     5
 72
     1
 41
1.0
 42
0.0
  1
20
  3
STANDARD
100
AcDbAlignedDimension
 13
83.563413
 23
-57.465007
 33
0.0
 14
103.348904
 24
-57.59492
 34
0.0
100
AcDbRotatedDimension
1001
ACAD
1000
DSTYLE
1002
{
1002
}
  0
DIMENSION
  5
630
100
AcDbEntity
  8
0
  6
Continuous
 62
     5
100
AcDbDimension
  2
*D35
 10
117.816195
 20
-152.78089
 30
0.0
 11
117.816195
 21
-105.187905
 31
0.0
 71
     5
 72
     1
 41
1.0
 42
0.0
  1
95
  3
STANDARD
100
AcDbAlignedDimension
 13
105.316822
 23
-57.594919
 33
0.0
 14
105.124524
 24
-152.78089
 34
0.0
 50
-90.0
100
AcDbRotatedDimension
1001
ACAD
1000
DSTYLE
1002
{
1002
}
  0
DIMENSION
  5
64F
100
AcDbEntity
  8
0
  6
Continuous
 62
     5
100
AcDbDimension
  2
*D36
 10
111.237166
 20
-132.741739
 30
0.0
 11
111.237166
 21
-95.200037
 31
0.0
 71
     5
 72
     1
 41
1.0
 42
0.0
  1
75
  3
STANDARD
100
AcDbAlignedDimension
 13
104.554476
 23
-57.658334
 33
0.0
 14
104.363542
 24
-132.741739
 34
0.0
 50
90.0
100
AcDbRotatedDimension
1001
ACAD
1000
DSTYLE
1002
{
1002
}
  0
DIMENSION
  5
66E
100
AcDbEntity
  8
0
  6
Continuous
 62
     5
100
AcDbDimension
  2
*D37
 10
64.18872
 20
-142.634484
 30
0.0
 11
64.18872
 21
-100.146409
 31
0.0
 71
     5
 72
     1
 41
1.0
 42
0.0
  1
85
  3
STANDARD
100
AcDbAlignedDimension
 13
72.849109
 23
-57.658334
 33
0.0
 14
73.417003
 24
-142.634484
 34
0.0
 50
90.0
100
AcDbRotatedDimension
1001
ACAD
1000
DSTYLE
1002
{
1002
}
  0
DIMENSION
  5
68E
100
AcDbEntity
  8
0
  6
Continuous
 62
     5
100
AcDbDimension
  2
*D38
 10
93.202498
 20
-160.888715
 30
0.0
 11
77.596742
 21
-160.888715
 31
0.0
 71
     5
 72
     1
 41
1.0
 42
0.0
  1
10
  3
STANDARD
100
AcDbAlignedDimension
 13
103.348904
 23
-152.780892
 33
0.0
 14
93.202498
 24
-152.780892
 34
0.0
100
AcDbRotatedDimension
1001
ACAD
1000
DSTYLE
1002
{
1002
}
  0
MTEXT
  5
68F
100
AcDbEntity
  8
0
  6
Continuous
 62
     5
100
AcDbMText
 10
156.467067
 20
67.719693
 30
0.0
 40
3.222614
 41
31.364638
 71
     1
 72
     1
  1
{Kormányszervó\P     tengelye}
 11
0.0
 21
1.0
 31
0.0
 73
     1
 44
1.0
  0
DIMENSION
  5
6AE
100
AcDbEntity
  8
0
  6
Continuous
 62
     5
100
AcDbDimension
  2
*D39
 10
154.029406
 20
141.460412
 30
0.0
 11
133.97831
 21
141.460412
 31
0.0
 70
     1
 71
     5
 72
     1
 41
1.0
 42
0.0
  1
40
  3
STANDARD
100
AcDbAlignedDimension
 13
113.927214
 23
130.686689
 33
0.0
 14
154.029406
 24
130.686689
 34
0.0
1001
ACAD
1000
DSTYLE
1002
{
1002
}
  0
DIMENSION
  5
6CD
100
AcDbEntity
  8
0
  6
Continuous
 62
     5
100
AcDbDimension
  2
*D40
 10
184.854228
 20
-10.142741
 30
0.0
 11
135.474661
 21
-10.142741
 31
0.0
 71
     5
 72
     1
 41
1.0
 42
0.0
  1
100
  3
STANDARD
100
AcDbAlignedDimension
 13
86.095095
 23
5.419304
 33
0.0
 14
184.854228
 24
-1.164638
 34
0.0
100
AcDbRotatedDimension
1001
ACAD
1000
DSTYLE
1002
{
1002
}
  0
DIMENSION
  5
6EC
100
AcDbEntity
  8
0
  6
Continuous
 62
     5
100
AcDbDimension
  2
*D41
 10
64.990278
 20
143.937108
 30
0.0
 11
-0.100968
 21
143.937108
 31
0.0
 71
     5
 72
     1
 41
1.0
 42
0.0
  1
130
  3
STANDARD
100
AcDbAlignedDimension
 13
-65.192215
 23
63.059364
 33
0.0
 14
64.990278
 24
62.161554
 34
0.0
100
AcDbRotatedDimension
1001
ACAD
1000
DSTYLE
1002
{
1002
}
  0
DIMENSION
  5
70B
100
AcDbEntity
  8
0
  6
Continuous
 62
     5
100
AcDbDimension
  2
*D42
 10
-90.330903
 20
-0.124035
 30
0.0
 11
-90.330903
 21
64.873689
 31
0.0
 71
     5
 72
     1
 41
1.0
 42
0.0
  1
130
  3
STANDARD
100
AcDbAlignedDimension
 13
1.545017
 23
129.871414
 33
0.0
 14
-48.732359
 24
-0.124035
 34
0.0
 50
90.0
100
AcDbRotatedDimension
1001
ACAD
1000
DSTYLE
1002
{
1002
}
  0
MTEXT
  5
70C
100
AcDbEntity
  8
0
  6
Continuous
 62
     5
100
AcDbMText
 10
63.902257
 20
-168.340244
 30
0.0
 40
3.222614
 41
68.758818
 71
     1
 72
     1
  1
{A kormánytartó és a kormánylapát\Pnyers szabásmintája.}
 73
     1
 44
1.0
  0
MTEXT
  5
70D
100
AcDbEntity
  8
0
  6
Continuous
 62
     5
100
AcDbMText
 10
146.758557
 20
-154.998087
 30
0.0
 40
3.222614
 41
76.283069
 71
     1
 72
     1
  1
{A kormánytartó és a kormánylapát,\Pa zsanérokkal. \PA *-al jelölt méretek csak a felszerelés\Pés alaplemezhez csiszolás során\Palakulnak ki.}
 73
     1
 44
1.0
  0
MTEXT
  5
70E
100
AcDbEntity
  8
0
  6
Continuous
 62
     5
100
AcDbMText
 10
-254.782553
 20
-139.424379
 30
0.0
 40
3.222614
 41
81.311728
 71
     1
 72
     1
  1
{A szervótartó tömb\PKék színnel jelölve a nyersdarab méretei\P}
 73
     1
 44
1.0
  0
TEXT
  5
70F
100
AcDbEntity
  8
0
  6
Continuous
 62
     5
100
AcDbText
 10
-66.880867
 20
-166.540267
 30
0.0
 40
3.222614
  1
Légcsavargyűrű
 72
     5
 11
-34.755647
 21
-166.540267
 31
0.0
100
AcDbText
1001
TCAD
1000
TCW40_TEXT
1002
{
1000
Arial
1070
     0
1070
   257
1002
}
  0
LEADER
  5
710
100
AcDbEntity
  8
0
  6
Continuous
 62
     5
100
AcDbLeader
  3
STANDARD
 73
     0
 74
     0
 75
     0
 40
0.0
 76
     5
 10
56.692458
 20
41.718079
 30
0.0
 10
59.548118
 20
38.227828
 30
0.0
 10
64.942143
 20
32.516507
 30
0.0
 10
65.89403
 20
32.199211
 30
0.0
 10
69.89403
 20
32.199211
 30
0.0
 77
     5
211
0.0001
221
0.0
231
0.0
1001
ACAD
1000
DSTYLE
1002
{
1002
}
  0
MTEXT
  5
711
100
AcDbEntity
  8
0
  6
Continuous
 62
     5
100
AcDbMText
 10
71.39403
 20
34.314211
 30
0.0
 40
2.7025
 41
3.155861
 71
     1
 72
     1
  1
{II.}
 73
     1
 44
1.0
  0
LEADER
  5
712
100
AcDbEntity
  8
0
  6
Continuous
 62
     5
100
AcDbLeader
  3
STANDARD
 73
     0
 74
     0
 75
     0
 40
0.0
 76
     6
 10
47.173593
 20
11.89229
 30
0.0
 10
50.98114
 20
7.767447
 30
0.0
 10
56.057869
 20
2.690717
 30
0.0
 10
57.961631
 20
2.373422
 30
0.0
 10
57.961631
 20
2.373422
 30
0.0
 10
61.961631
 20
2.373422
 30
0.0
 77
     5
211
0.0001
221
0.0
231
0.0
1001
ACAD
1000
DSTYLE
1002
{
1002
}
  0
MTEXT
  5
713
100
AcDbEntity
  8
0
  6
Continuous
 62
     5
100
AcDbMText
 10
63.461631
 20
4.488422
 30
0.0
 40
2.7025
 41
2.103907
 71
     1
 72
     1
  1
{I.}
 73
     1
 44
1.0
  0
LEADER
  5
714
100
AcDbEntity
  8
0
  6
Continuous
 62
     5
100
AcDbLeader
  3
STANDARD
 73
     0
 74
     0
 75
     0
 40
0.0
 76
     5
 10
29.722323
 20
75.034115
 30
0.0
 10
33.52987
 20
71.543863
 30
0.0
 10
37.654713
 20
67.736316
 30
0.0
 10
37.972008
 20
68.053612
 30
0.0
 10
41.972008
 20
68.053612
 30
0.0
 77
     5
211
0.0001
221
0.0
231
0.0
1001
ACAD
1000
DSTYLE
1002
{
1002
}
  0
MTEXT
  5
715
100
AcDbEntity
  8
0
  6
Continuous
 62
     5
100
AcDbMText
 10
43.472008
 20
70.168612
 30
0.0
 40
2.7025
 41
4.207815
 71
     1
 72
     1
  1
{III.}
 73
     1
 44
1.0
  0
LEADER
  5
716
100
AcDbEntity
  8
0
  6
Continuous
 62
     5
100
AcDbLeader
  3
STANDARD
 73
     0
 74
     0
 75
     0
 40
0.0
 76
     5
 10
-28.977363
 20
85.822165
 30
0.0
 10
-25.169816
 20
81.697322
 30
0.0
 10
-21.362269
 20
78.207071
 30
0.0
 10
-21.362269
 20
78.207071
 30
0.0
 10
-17.362269
 20
78.207071
 30
0.0
 77
     5
211
0.0001
221
0.0
231
0.0
1001
ACAD
1000
DSTYLE
1002
{
1002
}
  0
MTEXT
  5
717
100
AcDbEntity
  8
0
  6
Continuous
 62
     5
100
AcDbMText
 10
-15.862269
 20
80.322071
 30
0.0
 40
2.7025
 41
4.207815
 71
     1
 72
     1
  1
{III.}
 73
     1
 44
1.0
  0
LEADER
  5
718
100
AcDbEntity
  8
0
  6
Continuous
 62
     5
100
AcDbLeader
  3
STANDARD
 73
     0
 74
     0
 75
     0
 40
0.0
 76
     5
 10
107.77704
 20
1.738831
 30
0.0
 10
109.998109
 20
-1.75142
 30
0.0
 10
112.536474
 20
-5.558968
 30
0.0
 10
113.171065
 20
-5.876263
 30
0.0
 10
117.171065
 20
-5.876263
 30
0.0
 77
     5
211
0.0001
221
0.0
231
0.0
1001
ACAD
1000
DSTYLE
1002
{
1002
}
  0
MTEXT
  5
719
100
AcDbEntity
  8
0
  6
Continuous
 62
     5
100
AcDbMText
 10
118.671065
 20
-3.761263
 30
0.0
 40
2.7025
 41
2.103907
 71
     1
 72
     1
  1
{I.}
 73
     1
 44
1.0
  0
LEADER
  5
71A
100
AcDbEntity
  8
0
  6
Continuous
 62
     5
100
AcDbLeader
  3
STANDARD
 73
     0
 74
     0
 75
     0
 40
0.0
 76
     5
 10
88.422009
 20
17.603611
 30
0.0
 10
85.566348
 20
13.796064
 30
0.0
 10
81.758801
 20
8.719334
 30
0.0
 10
81.441506
 20
9.03663
 30
0.0
 10
77.441506
 20
9.03663
 30
0.0
 77
     5
211
0.0001
221
0.0
231
0.0
1001
ACAD
1000
DSTYLE
1002
{
1002
}
  0
MTEXT
  5
71B
100
AcDbEntity
  8
0
  6
Continuous
 62
     5
100
AcDbMText
 10
72.785645
 20
11.15163
 30
0.0
 40
2.7025
 41
3.155861
 71
     1
 72
     1
  1
{II.}
 73
     1
 44
1.0
  0
LEADER
  5
71C
100
AcDbEntity
  8
0
  6
Continuous
 62
     5
100
AcDbLeader
  3
STANDARD
 73
     0
 74
     0
 75
     0
 40
0.0
 76
     4
 10
117.930499
 20
120.407385
 30
0.0
 10
120.78616
 20
124.532228
 30
0.0
 10
125.228298
 20
130.243549
 30
0.0
 10
129.228298
 20
130.243549
 30
0.0
 77
     5
211
0.0001
221
0.0
231
0.0
1001
ACAD
1000
DSTYLE
1002
{
1002
}
  0
MTEXT
  5
71D
100
AcDbEntity
  8
0
  6
Continuous
 62
     5
100
AcDbMText
 10
130.728298
 20
132.358549
 30
0.0
 40
2.7025
 41
4.207815
 71
     1
 72
     1
  1
{III.}
 73
     1
 44
1.0
  0
LEADER
  5
71E
100
AcDbEntity
  8
0
  6
Continuous
 62
     5
100
AcDbLeader
  3
STANDARD
 73
     0
 74
     0
 75
     0
 40
0.0
 76
     5
 10
132.526097
 20
122.311159
 30
0.0
 10
135.381757
 20
126.118706
 30
0.0
 10
138.872009
 20
130.560845
 30
0.0
 10
138.872009
 20
130.560845
 30
0.0
 10
142.872009
 20
130.560845
 30
0.0
 77
     5
211
0.0001
221
0.0
231
0.0
1001
ACAD
1000
DSTYLE
1002
{
1002
}
  0
MTEXT
  5
71F
100
AcDbEntity
  8
0
  6
Continuous
 62
     5
100
AcDbMText
 10
144.372009
 20
132.675845
 30
0.0
 40
2.7025
 41
4.629336
 71
     1
 72
     1
  1
{IV.}
 73
     1
 44
1.0
  0
LEADER
  5
720
100
AcDbEntity
  8
0
  6
Continuous
 62
     5
100
AcDbLeader
  3
STANDARD
 73
     0
 74
     0
 75
     0
 40
0.0
 76
     4
 10
174.146546
 20
35.440862
 30
0.0
 10
176.661624
 20
38.710463
 30
0.0
 10
183.200824
 20
45.249663
 30
0.0
 10
187.200824
 20
45.249663
 30
0.0
 77
     5
211
0.0001
221
0.0
231
0.0
1001
ACAD
1000
DSTYLE
1002
{
1002
}
  0
MTEXT
  5
721
100
AcDbEntity
  8
0
  6
Continuous
 62
     5
100
AcDbMText
 10
188.700824
 20
47.364663
 30
0.0
 40
2.7025
 41
3.577382
 71
     1
 72
     1
  1
{V.}
 73
     1
 44
1.0
  0
LEADER
  5
722
100
AcDbEntity
  8
0
  6
Continuous
 62
     5
100
AcDbLeader
  3
STANDARD
 73
     0
 74
     0
 75
     0
 40
0.0
 76
     4
 10
139.438483
 20
11.100584
 30
0.0
 10
142.456575
 20
14.8732
 30
0.0
 10
148.744268
 20
21.4124
 30
0.0
 10
152.744268
 20
21.4124
 30
0.0
 77
     5
211
0.0001
221
0.0
231
0.0
1001
ACAD
1000
DSTYLE
1002
{
1002
}
  0
MTEXT
  5
723
100
AcDbEntity
  8
0
  6
Continuous
 62
     5
100
AcDbMText
 10
154.244268
 20
23.5274
 30
0.0
 40
2.7025
 41
4.629336
 71
     1
 72
     1
  1
{VI.}
 73
     1
 44
1.0
  0
MTEXT
  5
724
100
AcDbEntity
  8
0
  6
Continuous
 62
     5
100
AcDbMText
 10
180.864524
 20
122.974963
 30
0.0
 40
3.222614
 41
48.183421
 71
     1
 72
     1
  1
{I. Alaplemez\PII. Légcsavargyűrű\PIII. Kormánytartó\PIV. Kormánylapát\PV. Szervótartó\PVI. Légcsavarszél terelő}
 73
     1
 44
1.0
  0
ENDSEC
  0
SECTION
  2
OBJECTS
  0
DICTIONARY
  5
19
100
AcDbDictionary
280
     0
281
     1
  3
ACAD_GROUP
350
1A
  3
ACAD_MLINESTYLE
350
1B
  3
ACAD_LAYOUT
350
1E
  3
ACAD_PLOTSETTINGS
350
22
  3
ACAD_PLOTSTYLENAME
350
1F
  3
ACAD_WIPEOUT_VARS
350
23
  0
DICTIONARY
  5
1A
102
{ACAD_REACTORS
330
19
102
}
100
AcDbDictionary
280
     0
281
     1
  0
DICTIONARY
  5
1B
102
{ACAD_REACTORS
330
19
102
}
100
AcDbDictionary
280
     0
281
     1
  3
Standard
350
1C
  0
MLINESTYLE
  5
1C
100
AcDbMlineStyle
  2
STANDARD
 70
     0
  3

 62
   256
 51
90.0
 52
90.0
 71
     3
 49
5.0
 62
     5
  6
Continuous
 49
0.0
 62
     5
  6
Continuous
 49
-5.0
 62
     5
  6
Continuous
  0
ACDBDICTIONARYWDFLT
  5
1F
102
{ACAD_REACTORS
330
19
102
}
100
AcDbDictionary
281
     1
  3
Normal
350
1D
100
AcDbDictionaryWithDefault
340
1D
  0
ACDBPLACEHOLDER
  5
1D
102
{ACAD_REACTORS
330
1F
102
}
  0
LAYOUT
  5
20
102
{ACAD_REACTORS
330
1E
102
}
100
AcDbPlotSettings
  1

  2

  4

  6

 40
0.0
 41
0.0
 42
0.0
 43
0.0
 44
0.0
 45
0.0
 46
0.0
 47
0.0
 48
0.0
 49
0.0
140
0.0
141
0.0
142
1.0
143
1.0
 70
  1024
 72
     0
 73
     0
 74
     0
  7

 75
     0
147
1.0
148
0.0
149
0.0
100
AcDbLayout
  1
Model
 70
     0
 71
     0
 10
0.0
 20
0.0
 11
0.0
 21
0.0
 12
0.0
 22
0.0
 32
0.0
 14
0.0
 24
0.0
 34
0.0
 15
0.0
 25
0.0
 35
0.0
146
0.0
 13
0.0
 23
0.0
 33
0.0
 16
0.0
 26
0.0
 36
0.0
 17
0.0
 27
0.0
 37
0.0
 76
     0
330
A
331
0
345
0
346
0
  0
LAYOUT
  5
21
102
{ACAD_REACTORS
330
1E
102
}
100
AcDbPlotSettings
  1

  2

  4

  6

 40
0.0
 41
0.0
 42
0.0
 43
0.0
 44
0.0
 45
0.0
 46
0.0
 47
0.0
 48
0.0
 49
0.0
140
0.0
141
0.0
142
1.0
143
1.0
 70
     0
 72
     0
 73
     0
 74
     0
  7

 75
     0
147
1.0
148
0.0
149
0.0
100
AcDbLayout
  1
Layout1
 70
     0
 71
     0
 10
0.0
 20
0.0
 11
0.0
 21
0.0
 12
0.0
 22
0.0
 32
0.0
 14
0.0
 24
0.0
 34
0.0
 15
0.0
 25
0.0
 35
0.0
146
0.0
 13
0.0
 23
0.0
 33
0.0
 16
0.0
 26
0.0
 36
0.0
 17
0.0
 27
0.0
 37
0.0
 76
     0
330
B
331
0
345
0
346
0
  0
DICTIONARY
  5
1E
102
{ACAD_REACTORS
330
19
102
}
100
AcDbDictionary
280
     0
281
     1
  3
Layout1
350
21
  3
Model
350
20
  0
DICTIONARY
  5
22
102
{ACAD_REACTORS
330
19
102
}
100
AcDbDictionary
280
     0
281
     1
  0
WIPEOUTVARIABLES
  5
23
100
AcDbWipeoutVariables
 70
     1
  0
ENDSEC
  0
EOF
