  0
SECTION
  2
HEADER
  9
$ACADVER
  1
AC1018
  9
$ACADMAINTVER
 70
     0
  9
$DWGCODEPAGE
  3
ANSI_1251
  9
$INSBASE
 10
0.0
 20
0.0
 30
0.0
  9
$EXTMIN
 10
-530.6488228331662
 20
11.42481468557386
 30
0.0
  9
$EXTMAX
 10
-233.6488228331662
 20
221.4248146855739
 30
0.0
  9
$LIMMIN
 10
-530.6488228331662
 20
11.42481468557386
  9
$LIMMAX
 10
-233.6488228331662
 20
221.4248146855739
  9
$ORTHOMODE
 70
     0
  9
$REGENMODE
 70
     1
  9
$FILLMODE
 70
     1
  9
$QTEXTMODE
 70
     0
  9
$MIRRTEXT
 70
     0
  9
$LTSCALE
 40
1.0
  9
$ATTMODE
 70
     1
  9
$TEXTSIZE
 40
12.69999980926514
  9
$TRACEWID
 40
1.0
  9
$TEXTSTYLE
  7
STANDARD
  9
$CLAYER
  8
0
  9
$CELTYPE
  6
ByLayer
  9
$CECOLOR
 62
     7
  9
$CELTSCALE
 40
1.0
  9
$DISPSILH
 70
     0
  9
$DIMSCALE
 40
1.0
  9
$DIMASZ
 40
5.0
  9
$DIMEXO
 40
0.0625
  9
$DIMDLI
 40
0.375
  9
$DIMRND
 40
0.01
  9
$DIMDLE
 40
0.0
  9
$DIMEXE
 40
0.125
  9
$DIMTP
 40
0.0
  9
$DIMTM
 40
0.0
  9
$DIMTXT
 40
3.0
  9
$DIMCEN
 40
0.09
  9
$DIMTSZ
 40
0.0
  9
$DIMTOL
 70
     0
  9
$DIMLIM
 70
     0
  9
$DIMTIH
 70
     1
  9
$DIMTOH
 70
     1
  9
$DIMSE1
 70
     0
  9
$DIMSE2
 70
     0
  9
$DIMTAD
 70
     1
  9
$DIMZIN
 70
     3
  9
$DIMBLK
  1

  9
$DIMASO
 70
     1
  9
$DIMSHO
 70
     1
  9
$DIMPOST
  1
mm
  9
$DIMAPOST
  1

  9
$DIMALT
 70
     0
  9
$DIMALTD
 70
     2
  9
$DIMALTF
 40
1.0
  9
$DIMLFAC
 40
1.0
  9
$DIMTOFL
 70
     1
  9
$DIMTVP
 40
0.0
  9
$DIMTIX
 70
     0
  9
$DIMSOXD
 70
     0
  9
$DIMSAH
 70
     0
  9
$DIMBLK1
  1

  9
$DIMBLK2
  1

  9
$DIMSTYLE
  2
Standard
  9
$DIMCLRD
 70
     7
  9
$DIMCLRE
 70
     7
  9
$DIMCLRT
 70
     7
  9
$DIMTFAC
 40
1.0
  9
$DIMGAP
 40
0.0625
  9
$DIMJUST
 70
     0
  9
$DIMSD1
 70
     0
  9
$DIMSD2
 70
     0
  9
$DIMTOLJ
 70
     1
  9
$DIMTZIN
 70
     0
  9
$DIMALTZ
 70
     3
  9
$DIMALTTZ
 70
     0
  9
$DIMUPT
 70
     0
  9
$DIMDEC
 70
     2
  9
$DIMTDEC
 70
     4
  9
$DIMALTU
 70
     2
  9
$DIMALTTD
 70
     2
  9
$DIMTXSTY
  7
_TCW_TXTSTY_1
  9
$DIMAUNIT
 70
     0
  9
$DIMADEC
 70
     2
  9
$DIMALTRND
 40
0.01
  9
$DIMAZIN
 70
     0
  9
$DIMDSEP
 70
    46
  9
$DIMATFIT
 70
     3
  9
$DIMFRAC
 70
     0
  9
$DIMLDRBLK
  1

  9
$DIMLUNIT
 70
     2
  9
$DIMLWD
 70
    -2
  9
$DIMLWE
 70
    -2
  9
$DIMTMOVE
 70
     0
  9
$LUNITS
 70
     2
  9
$LUPREC
 70
     2
  9
$SKETCHINC
 40
1.0
  9
$FILLETRAD
 40
1.0
  9
$AUNITS
 70
     0
  9
$AUPREC
 70
     2
  9
$MENU
  1
.
  9
$ELEVATION
 40
0.0
  9
$PELEVATION
 40
0.0
  9
$THICKNESS
 40
0.0
  9
$LIMCHECK
 70
     0
  9
$CHAMFERA
 40
0.5
  9
$CHAMFERB
 40
0.5
  9
$CHAMFERC
 40
1.0
  9
$CHAMFERD
 40
0.0
  9
$SKPOLY
 70
     0
  9
$TDCREATE
 40
2454518.397496921
  9
$TDUCREATE
 40
2454518.355830254
  9
$TDUPDATE
 40
2454518.397496933
  9
$TDUUPDATE
 40
2454518.355830266
  9
$TDINDWG
 40
0.0
  9
$TDUSRTIMER
 40
0.0
  9
$USRTIMER
 70
     1
  9
$ANGBASE
 50
0.0
  9
$ANGDIR
 70
     0
  9
$PDMODE
 70
     0
  9
$PDSIZE
 40
0.0
  9
$PLINEWID
 40
0.0
  9
$SPLFRAME
 70
     0
  9
$SPLINETYPE
 70
     6
  9
$SPLINESEGS
 70
    20
  9
$HANDSEED
  5
101
  9
$SURFTAB1
 70
     6
  9
$SURFTAB2
 70
     6
  9
$SURFTYPE
 70
     6
  9
$SURFU
 70
     6
  9
$SURFV
 70
     6
  9
$UCSBASE
  2

  9
$UCSNAME
  2

  9
$UCSORG
 10
0.0
 20
0.0
 30
0.0
  9
$UCSXDIR
 10
1.0
 20
0.0
 30
0.0
  9
$UCSYDIR
 10
0.0
 20
1.0
 30
0.0
  9
$UCSORTHOREF
  2

  9
$UCSORTHOVIEW
 70
     0
  9
$UCSORGTOP
 10
0.0
 20
0.0
 30
0.0
  9
$UCSORGBOTTOM
 10
0.0
 20
0.0
 30
0.0
  9
$UCSORGLEFT
 10
0.0
 20
0.0
 30
0.0
  9
$UCSORGRIGHT
 10
0.0
 20
0.0
 30
0.0
  9
$UCSORGFRONT
 10
0.0
 20
0.0
 30
0.0
  9
$UCSORGBACK
 10
0.0
 20
0.0
 30
0.0
  9
$PUCSBASE
  2

  9
$PUCSNAME
  2

  9
$PUCSORG
 10
0.0
 20
0.0
 30
0.0
  9
$PUCSXDIR
 10
1.0
 20
0.0
 30
0.0
  9
$PUCSYDIR
 10
0.0
 20
1.0
 30
0.0
  9
$PUCSORTHOREF
  2

  9
$PUCSORTHOVIEW
 70
     0
  9
$PUCSORGTOP
 10
0.0
 20
0.0
 30
0.0
  9
$PUCSORGBOTTOM
 10
0.0
 20
0.0
 30
0.0
  9
$PUCSORGLEFT
 10
0.0
 20
0.0
 30
0.0
  9
$PUCSORGRIGHT
 10
0.0
 20
0.0
 30
0.0
  9
$PUCSORGFRONT
 10
0.0
 20
0.0
 30
0.0
  9
$PUCSORGBACK
 10
0.0
 20
0.0
 30
0.0
  9
$USERI1
 70
     0
  9
$USERI2
 70
     0
  9
$USERI3
 70
     0
  9
$USERI4
 70
     0
  9
$USERI5
 70
     0
  9
$USERR1
 40
0.0
  9
$USERR2
 40
0.0
  9
$USERR3
 40
0.0
  9
$USERR4
 40
0.0
  9
$USERR5
 40
0.0
  9
$WORLDVIEW
 70
     1
  9
$SHADEDGE
 70
     3
  9
$SHADEDIF
 70
    70
  9
$TILEMODE
 70
     1
  9
$MAXACTVP
 70
    64
  9
$PINSBASE
 10
0.0
 20
0.0
 30
0.0
  9
$PLIMCHECK
 70
     0
  9
$PEXTMIN
 10
0.0
 20
0.0
 30
0.0
  9
$PEXTMAX
 10
297.0
 20
210.0
 30
0.0
  9
$PLIMMIN
 10
0.0
 20
0.0
  9
$PLIMMAX
 10
297.0
 20
210.0
  9
$UNITMODE
 70
     0
  9
$VISRETAIN
 70
     1
  9
$PLINEGEN
 70
     0
  9
$PSLTSCALE
 70
     1
  9
$TREEDEPTH
 70
  3020
  9
$CMLSTYLE
  2
Standard
  9
$CMLJUST
 70
     0
  9
$CMLSCALE
 40
1.0
  9
$PROXYGRAPHICS
 70
     1
  9
$MEASUREMENT
 70
     0
  9
$CELWEIGHT
370
    -1
  9
$ENDCAPS
280
     0
  9
$JOINSTYLE
280
     0
  9
$LWDISPLAY
290
     0
  9
$INSUNITS
 70
     1
  9
$HYPERLINKBASE
  1

  9
$STYLESHEET
  1

  9
$XEDIT
290
     1
  9
$CEPSNTYPE
380
     0
  9
$PSTYLEMODE
290
     1
  9
$FINGERPRINTGUID
  2
{079C4DCA-A11F-4394-92C7-CFEA3644DE68}
  9
$VERSIONGUID
  2
{FAEB1C32-E019-11D5-929B-00C0DF256EC4}
  9
$EXTNAMES
290
     1
  9
$PSVPSCALE
 40
0.0
  9
$OLESTARTUP
290
     0
  9
$SORTENTS
280
   127
  9
$INDEXCTL
280
     0
  9
$HIDETEXT
280
     1
  9
$XCLIPFRAME
290
     0
  9
$HALOGAP
280
     0
  9
$OBSCOLOR
 70
   257
  9
$OBSLTYPE
280
     0
  9
$INTERSECTIONDISPLAY
280
     0
  9
$INTERSECTIONCOLOR
 70
   257
  9
$DIMASSOC
280
     2
  9
$PROJECTNAME
  1

  0
ENDSEC
  0
SECTION
  2
CLASSES
  0
CLASS
  1
ACDBDICTIONARYWDFLT
  2
AcDbDictionaryWithDefault
  3
ObjectDBX Classes
 90
        0
 91
        3
280
     0
281
     0
  0
ENDSEC
  0
SECTION
  2
TABLES
  0
TABLE
  2
VPORT
  5
8
330
0
100
AcDbSymbolTable
 70
     1
  0
VPORT
  5
29
330
8
100
AcDbSymbolTableRecord
100
AcDbViewportTableRecord
  2
*Active
 70
     0
 10
0.0
 20
0.0
 11
1.0
 21
1.0
 12
-0.0000000000000284
 22
0.0
 13
0.0
 23
0.0
 14
5.0
 24
5.0
 15
5.0
 25
5.0
 16
0.0
 26
0.0
 36
1.0
 17
-374.0169924838194
 27
112.7368916438843
 37
0.0
 40
196.8600000000001
 41
1.522959183673469
 42
50.0
 43
0.0
 44
0.0
 50
0.0
 51
0.0
 71
     0
 72
   100
 73
     1
 74
     3
 75
     0
 76
     1
 77
     0
 78
     0
281
     0
 65
     1
110
0.0
120
0.0
130
0.0
111
1.0
121
0.0
131
0.0
112
0.0
122
1.0
132
0.0
 79
     0
146
0.0
  0
ENDTAB
  0
TABLE
  2
LTYPE
  5
5
330
0
100
AcDbSymbolTable
 70
    13
  0
LTYPE
  5
14
330
5
100
AcDbSymbolTableRecord
100
AcDbLinetypeTableRecord
  2
ByBlock
 70
     0
  3

 72
    65
 73
     0
 40
0.0
  0
LTYPE
  5
15
330
5
100
AcDbSymbolTableRecord
100
AcDbLinetypeTableRecord
  2
ByLayer
 70
     0
  3

 72
    65
 73
     0
 40
0.0
  0
LTYPE
  5
16
330
5
100
AcDbSymbolTableRecord
100
AcDbLinetypeTableRecord
  2
Continuous
 70
     0
  3
Solid line
 72
    65
 73
     0
 40
0.0
  0
LTYPE
  5
2B
330
5
100
AcDbSymbolTableRecord
100
AcDbLinetypeTableRecord
  2
BORDER
 70
     0
  3
BORDER
 72
    65
 73
     6
 40
1.75
 49
0.5
 74
     0
 49
-0.25
 74
     0
 49
0.5
 74
     0
 49
-0.25
 74
     0
 49
0.0
 74
     0
 49
-0.25
 74
     0
  0
LTYPE
  5
2C
330
5
100
AcDbSymbolTableRecord
100
AcDbLinetypeTableRecord
  2
CENTER
 70
     0
  3
CENTER
 72
    65
 73
     4
 40
2.0
 49
1.25
 74
     0
 49
-0.25
 74
     0
 49
0.25
 74
     0
 49
-0.25
 74
     0
  0
LTYPE
  5
2D
330
5
100
AcDbSymbolTableRecord
100
AcDbLinetypeTableRecord
  2
DASHDOT
 70
     0
  3
DASHDOT
 72
    65
 73
     4
 40
1.0
 49
0.5
 74
     0
 49
-0.25
 74
     0
 49
0.0
 74
     0
 49
-0.25
 74
     0
  0
LTYPE
  5
2E
330
5
100
AcDbSymbolTableRecord
100
AcDbLinetypeTableRecord
  2
DASHED
 70
     0
  3
DASHED
 72
    65
 73
     2
 40
0.75
 49
0.5
 74
     0
 49
-0.25
 74
     0
  0
LTYPE
  5
2F
330
5
100
AcDbSymbolTableRecord
100
AcDbLinetypeTableRecord
  2
DIVIDE
 70
     0
  3
DIVIDE
 72
    65
 73
     6
 40
1.25
 49
0.5
 74
     0
 49
-0.25
 74
     0
 49
0.0
 74
     0
 49
-0.25
 74
     0
 49
0.0
 74
     0
 49
-0.25
 74
     0
  0
LTYPE
  5
30
330
5
100
AcDbSymbolTableRecord
100
AcDbLinetypeTableRecord
  2
DOT
 70
     0
  3
DOT
 72
    65
 73
     2
 40
0.25
 49
0.0
 74
     0
 49
-0.25
 74
     0
  0
LTYPE
  5
31
330
5
100
AcDbSymbolTableRecord
100
AcDbLinetypeTableRecord
  2
HIDDEN
 70
     0
  3
HIDDEN
 72
    65
 73
     2
 40
0.375
 49
0.25
 74
     0
 49
-0.125
 74
     0
  0
LTYPE
  5
32
330
5
100
AcDbSymbolTableRecord
100
AcDbLinetypeTableRecord
  2
PHANTOM
 70
     0
  3
PHANTOM
 72
    65
 73
     6
 40
2.5
 49
1.25
 74
     0
 49
-0.25
 74
     0
 49
0.25
 74
     0
 49
-0.25
 74
     0
 49
0.25
 74
     0
 49
-0.25
 74
     0
  0
LTYPE
  5
33
330
5
100
AcDbSymbolTableRecord
100
AcDbLinetypeTableRecord
  2
$INVISIBLE
 70
     0
  3
$INVISIBLE
 72
    65
 73
     2
 40
200.0
 49
-100.0
 74
     0
 49
-100.0
 74
     0
  0
LTYPE
  5
34
330
5
100
AcDbSymbolTableRecord
100
AcDbLinetypeTableRecord
  2
$AUXILIARY
 70
     0
  3
$AUXILIARY
 72
    65
 73
     2
 40
0.1000000014901161
 49
0.0500000007450581
 74
     0
 49
-0.0500000007450581
 74
     0
  0
LTYPE
  5
35
330
5
100
AcDbSymbolTableRecord
100
AcDbLinetypeTableRecord
  2
$CONSTRUCTION
 70
     0
  3
$CONSTRUCTION
 72
    65
 73
     4
 40
0.3
 49
0.2
 74
     0
 49
-0.05
 74
     0
 49
0.0
 74
     0
 49
-0.05
 74
     0
  0
LTYPE
  5
36
330
5
100
AcDbSymbolTableRecord
100
AcDbLinetypeTableRecord
  2
$SNAPEXT
 70
     0
  3
$SNAPEXT
 72
    65
 73
     2
 40
0.04
 49
0.02
 74
     0
 49
-0.02
 74
     0
  0
ENDTAB
  0
TABLE
  2
LAYER
  5
2
330
0
100
AcDbSymbolTable
 70
     2
  0
LAYER
  5
10
330
2
100
AcDbSymbolTableRecord
100
AcDbLayerTableRecord
  2
0
 70
     0
 62
     7
  6
Continuous
370
     0
390
F
1001
TCAD
1000
TCW_LAYER_ORDER
1002
{
1071
        0
1002
}
  0
LAYER
  5
5C
330
2
100
AcDbSymbolTableRecord
100
AcDbLayerTableRecord
  2
Defpoints
 70
     0
 62
     7
  6
Continuous
290
     0
370
    -3
390
F
  0
ENDTAB
  0
TABLE
  2
STYLE
  5
3
330
0
100
AcDbSymbolTable
 70
    19
  0
STYLE
  5
11
330
3
100
AcDbSymbolTableRecord
100
AcDbTextStyleTableRecord
  2
STANDARD
 70
     0
 40
0.0
 41
1.0
 50
0.0
 71
     0
 42
7.619999885559082
  3
txt
  4

1001
ACAD
1000
Times New Roman
1071
      290
  0
STYLE
  5
38
330
3
100
AcDbSymbolTableRecord
100
AcDbTextStyleTableRecord
  2
_TCW_TXTSTY_1
 70
     0
 40
0.0
 41
1.0
 50
0.0
 71
     0
 42
0.6000000238418579
  3
TIMES.TTF
  4

1001
ACAD
1000
Times New Roman
1071
      290
  0
STYLE
  5
6B
330
3
100
AcDbSymbolTableRecord
100
AcDbTextStyleTableRecord
  2
_TCW_TXTSTY_2
 70
     0
 40
0.0
 41
1.0
 50
0.0
 71
     0
 42
0.6000000238418579
  3
TIMES.TTF
  4

1001
ACAD
1000
Times New Roman
1071
      290
  0
STYLE
  5
7A
330
3
100
AcDbSymbolTableRecord
100
AcDbTextStyleTableRecord
  2
_TCW_TXTSTY_3
 70
     0
 40
0.0
 41
1.0
 50
0.0
 71
     0
 42
0.6000000238418579
  3
TIMES.TTF
  4

1001
ACAD
1000
Times New Roman
1071
      290
  0
STYLE
  5
88
330
3
100
AcDbSymbolTableRecord
100
AcDbTextStyleTableRecord
  2
_TCW_TXTSTY_4
 70
     0
 40
0.0
 41
1.0
 50
0.0
 71
     0
 42
0.6000000238418579
  3
TIMES.TTF
  4

1001
ACAD
1000
Times New Roman
1071
      290
  0
STYLE
  5
97
330
3
100
AcDbSymbolTableRecord
100
AcDbTextStyleTableRecord
  2
_TCW_TXTSTY_5
 70
     0
 40
0.0
 41
1.0
 50
0.0
 71
     0
 42
0.6000000238418579
  3
TIMES.TTF
  4

1001
ACAD
1000
Times New Roman
1071
      290
  0
STYLE
  5
A6
330
3
100
AcDbSymbolTableRecord
100
AcDbTextStyleTableRecord
  2
_TCW_TXTSTY_6
 70
     0
 40
0.0
 41
1.0
 50
0.0
 71
     0
 42
7.619999885559082
  3
TIMES.TTF
  4

1001
ACAD
1000
Times New Roman
1071
      290
  0
STYLE
  5
A8
330
3
100
AcDbSymbolTableRecord
100
AcDbTextStyleTableRecord
  2
_TCW_TXTSTY_7
 70
     0
 40
0.0
 41
1.0
 50
0.0
 71
     0
 42
3.263872623443604
  3
TIMES.TTF
  4

1001
ACAD
1000
Times New Roman
1071
      290
  0
STYLE
  5
AB
330
3
100
AcDbSymbolTableRecord
100
AcDbTextStyleTableRecord
  2
_TCW_TXTSTY_8
 70
     0
 40
0.0
 41
1.0
 50
0.0
 71
     0
 42
0.6000000238418579
  3
TIMES.TTF
  4

1001
ACAD
1000
Times New Roman
1071
      290
  0
STYLE
  5
BA
330
3
100
AcDbSymbolTableRecord
100
AcDbTextStyleTableRecord
  2
_TCW_TXTSTY_9
 70
     0
 40
0.0
 41
1.0
 50
0.0
 71
     0
 42
0.6000000238418579
  3
TIMES.TTF
  4

1001
ACAD
1000
Times New Roman
1071
      290
  0
STYLE
  5
C8
330
3
100
AcDbSymbolTableRecord
100
AcDbTextStyleTableRecord
  2
_TCW_TXTSTY_A
 70
     0
 40
0.0
 41
1.0
 50
0.0
 71
     0
 42
5.012131690979004
  3
TIMES.TTF
  4

1001
ACAD
1000
Times New Roman
1071
      290
  0
STYLE
  5
CB
330
3
100
AcDbSymbolTableRecord
100
AcDbTextStyleTableRecord
  2
_TCW_TXTSTY_B
 70
     0
 40
0.0
 41
1.0
 50
0.0
 71
     0
 42
3.522528171539307
  3
TIMES.TTF
  4

1001
ACAD
1000
Times New Roman
1071
      290
  0
STYLE
  5
D3
330
3
100
AcDbSymbolTableRecord
100
AcDbTextStyleTableRecord
  2
_TCW_TXTSTY_C
 70
     0
 40
0.0
 41
1.0
 50
0.0
 71
     0
 42
5.012131690979004
  3
TIMES.TTF
  4

1001
ACAD
1000
Times New Roman
1071
      290
  0
STYLE
  5
DA
330
3
100
AcDbSymbolTableRecord
100
AcDbTextStyleTableRecord
  2
_TCW_TXTSTY_D
 70
     0
 40
0.0
 41
1.0
 50
0.0
 71
     0
 42
5.012131690979004
  3
TIMES.TTF
  4

1001
ACAD
1000
Times New Roman
1071
      290
  0
STYLE
  5
E1
330
3
100
AcDbSymbolTableRecord
100
AcDbTextStyleTableRecord
  2
_TCW_TXTSTY_E
 70
     0
 40
0.0
 41
1.0
 50
0.0
 71
     0
 42
5.012131690979004
  3
TIMES.TTF
  4

1001
ACAD
1000
Times New Roman
1071
      290
  0
STYLE
  5
E4
330
3
100
AcDbSymbolTableRecord
100
AcDbTextStyleTableRecord
  2
_TCW_TXTSTY_F
 70
     0
 40
0.0
 41
1.0
 50
0.0
 71
     0
 42
5.012131690979004
  3
TIMES.TTF
  4

1001
ACAD
1000
Times New Roman
1071
      290
  0
STYLE
  5
E7
330
3
100
AcDbSymbolTableRecord
100
AcDbTextStyleTableRecord
  2
_TCW_TXTSTY_10
 70
     0
 40
0.0
 41
1.0
 50
0.0
 71
     0
 42
5.012131690979004
  3
TIMES.TTF
  4

1001
ACAD
1000
Times New Roman
1071
      290
  0
STYLE
  5
F6
330
3
100
AcDbSymbolTableRecord
100
AcDbTextStyleTableRecord
  2
_TCW_TXTSTY_11
 70
     0
 40
0.0
 41
1.0
 50
0.0
 71
     0
 42
5.012131690979004
  3
TIMES.TTF
  4

1001
ACAD
1000
Times New Roman
1071
      290
  0
STYLE
  5
FD
330
3
100
AcDbSymbolTableRecord
100
AcDbTextStyleTableRecord
  2
_TCW_TXTSTY_12
 70
     0
 40
0.0
 41
1.0
 50
0.0
 71
     0
 42
3.522528171539307
  3
TIMES.TTF
  4

1001
ACAD
1000
Times New Roman
1071
      290
  0
ENDTAB
  0
TABLE
  2
VIEW
  5
6
330
0
100
AcDbSymbolTable
 70
     1
  0
VIEW
  5
37
330
6
100
AcDbSymbolTableRecord
100
AcDbViewTableRecord
  2
View_0
 70
     0
 40
210.0
 10
148.5
 20
105.0
 41
297.0
 11
0.0
 21
0.0
 31
1.0
 12
0.0
 22
0.0
 32
0.0
 42
50.0
 43
0.0
 44
0.0
 50
0.0
 71
     0
281
     0
 72
     0
  0
ENDTAB
  0
TABLE
  2
UCS
  5
7
330
0
100
AcDbSymbolTable
 70
     0
  0
ENDTAB
  0
TABLE
  2
APPID
  5
9
330
0
100
AcDbSymbolTable
 70
     2
  0
APPID
  5
12
330
9
100
AcDbSymbolTableRecord
100
AcDbRegAppTableRecord
  2
ACAD
 70
     0
  0
APPID
  5
2A
330
9
100
AcDbSymbolTableRecord
100
AcDbRegAppTableRecord
  2
TCAD
 70
     0
  0
ENDTAB
  0
TABLE
  2
DIMSTYLE
  5
A
330
0
100
AcDbSymbolTable
 70
     1
100
AcDbDimStyleTable
  0
DIMSTYLE
105
27
102
{ACAD_REACTORS
330
5B
330
6C
330
7B
330
89
330
98
330
AC
330
BB
102
}
330
A
100
AcDbSymbolTableRecord
100
AcDbDimStyleTableRecord
  2
Standard
 70
     0
  3
mm
 41
5.0
 43
0.375
 44
0.125
 45
0.01
 77
     1
 78
     3
140
3.0
143
1.0
147
0.0625
148
0.01
172
     1
176
     7
177
     7
178
     7
179
     2
271
     2
285
     3
340
38
  0
ENDTAB
  0
TABLE
  2
BLOCK_RECORD
  5
1
330
0
100
AcDbSymbolTable
 70
     8
  0
BLOCK_RECORD
  5
1F
330
1
100
AcDbSymbolTableRecord
100
AcDbBlockTableRecord
  2
*Model_Space
340
22
  0
BLOCK_RECORD
  5
1B
330
1
100
AcDbSymbolTableRecord
100
AcDbBlockTableRecord
  2
*Paper_Space
340
1E
  0
BLOCK_RECORD
  5
5D
330
1
100
AcDbSymbolTableRecord
100
AcDbBlockTableRecord
  2
*D1
340
0
  0
BLOCK_RECORD
  5
6D
330
1
100
AcDbSymbolTableRecord
100
AcDbBlockTableRecord
  2
*D2
340
0
  0
BLOCK_RECORD
  5
7C
330
1
100
AcDbSymbolTableRecord
100
AcDbBlockTableRecord
  2
*D3
340
0
  0
BLOCK_RECORD
  5
8A
330
1
100
AcDbSymbolTableRecord
100
AcDbBlockTableRecord
  2
*D4
340
0
  0
BLOCK_RECORD
  5
99
330
1
100
AcDbSymbolTableRecord
100
AcDbBlockTableRecord
  2
*D5
340
0
  0
BLOCK_RECORD
  5
AD
330
1
100
AcDbSymbolTableRecord
100
AcDbBlockTableRecord
  2
*D6
340
0
  0
BLOCK_RECORD
  5
BC
330
1
100
AcDbSymbolTableRecord
100
AcDbBlockTableRecord
  2
*D7
340
0
  0
ENDTAB
  0
ENDSEC
  0
SECTION
  2
BLOCKS
  0
BLOCK
  5
20
330
1F
100
AcDbEntity
  8
0
100
AcDbBlockBegin
  2
*Model_Space
 70
     0
 71
     0
 10
0.0
 20
0.0
 30
0.0
  3
*Model_Space
  1

  0
ENDBLK
  5
21
330
1F
100
AcDbEntity
  8
0
100
AcDbBlockEnd
  0
BLOCK
  5
1C
330
1B
100
AcDbEntity
 67
     1
  8
0
100
AcDbBlockBegin
  2
*Paper_Space
 70
     0
 71
     0
 10
0.0
 20
0.0
 30
0.0
  3
*Paper_Space
  1

  0
ENDBLK
  5
1D
330
1B
100
AcDbEntity
 67
     1
  8
0
100
AcDbBlockEnd
  0
BLOCK
  5
69
330
5D
100
AcDbEntity
  8
0
100
AcDbBlockBegin
  2
*D1
 70
     1
 71
     0
 10
0.0
 20
0.0
 30
0.0
  3
*D1
  1

  0
LINE
  5
5E
330
5D
100
AcDbEntity
  8
0
  6
Continuous
 62
     7
370
    -2
100
AcDbLine
 10
-344.8191175067862
 20
45.15154527169724
 30
0.0
 11
-344.8191175067862
 21
37.13545006938437
 31
0.0
  0
LINE
  5
5F
330
5D
100
AcDbEntity
  8
0
  6
Continuous
 62
     7
370
    -2
100
AcDbLine
 10
-335.3207115813522
 20
45.09652424409344
 30
0.0
 11
-335.3207115813522
 21
37.13545006938437
 31
0.0
  0
LINE
  5
60
330
5D
100
AcDbEntity
  8
0
  6
Continuous
 62
     7
370
    -2
100
AcDbLine
 10
-344.8191175067862
 20
37.26045006938437
 30
0.0
 11
-335.3207115813522
 21
37.26045006938437
 31
0.0
  0
LINE
  5
61
330
5D
100
AcDbEntity
  8
0
  6
Continuous
 62
     7
370
    -2
100
AcDbLine
 10
-349.8191175067862
 20
37.26045006938437
 30
0.0
 11
-354.8191175067862
 21
37.26045006938437
 31
0.0
  0
LINE
  5
62
330
5D
100
AcDbEntity
  8
0
  6
Continuous
 62
     7
370
    -2
100
AcDbLine
 10
-330.3207115813522
 20
37.26045006938437
 30
0.0
 11
-325.3207115813522
 21
37.26045006938437
 31
0.0
  0
SOLID
  5
63
330
5D
100
AcDbEntity
  8
0
 62
     7
100
AcDbTrace
 10
-349.8191175067862
 20
36.42711673605103
 30
0.0
 11
-349.8191175067862
 21
38.0937834027177
 31
0.0
 12
-344.8191175067862
 22
37.26045006938437
 32
0.0
 13
-344.8191175067862
 23
37.26045006938437
 33
0.0
  0
SOLID
  5
64
330
5D
100
AcDbEntity
  8
0
 62
     7
100
AcDbTrace
 10
-330.3207115813522
 20
38.0937834027177
 30
0.0
 11
-330.3207115813522
 21
36.42711673605103
 31
0.0
 12
-335.3207115813522
 22
37.26045006938437
 32
0.0
 13
-335.3207115813522
 23
37.26045006938437
 33
0.0
  0
MTEXT
  5
65
330
5D
100
AcDbEntity
  8
0
 62
     7
100
AcDbMText
 10
-340.0699145440692
 20
38.8529800994144
 30
0.0
 40
3.0
 41
0.0
 71
     5
 72
     1
  1
\A1;19
  7
_TCW_TXTSTY_1
 73
     1
 44
1.0
  0
POINT
  5
66
330
5D
100
AcDbEntity
  8
Defpoints
 62
     0
100
AcDbPoint
 10
-344.8191175067862
 20
45.21404527169724
 30
0.0
  0
POINT
  5
67
330
5D
100
AcDbEntity
  8
Defpoints
 62
     0
100
AcDbPoint
 10
-335.3207115813522
 20
45.15902424409344
 30
0.0
  0
POINT
  5
68
330
5D
100
AcDbEntity
  8
Defpoints
 62
     0
100
AcDbPoint
 10
-335.3207115813522
 20
37.26045006938437
 30
0.0
  0
ENDBLK
  5
6A
330
5D
100
AcDbEntity
  8
0
100
AcDbBlockEnd
  0
BLOCK
  5
78
330
6D
100
AcDbEntity
  8
0
100
AcDbBlockBegin
  2
*D2
 70
     1
 71
     0
 10
0.0
 20
0.0
 30
0.0
  3
*D2
  1

  0
LINE
  5
6E
330
6D
100
AcDbEntity
  8
0
  6
Continuous
 62
     7
370
    -2
100
AcDbLine
 10
-333.6372366209317
 20
55.95868810050637
 30
0.0
 11
-326.005604894399
 21
55.95868810050636
 31
0.0
  0
LINE
  5
6F
330
6D
100
AcDbEntity
  8
0
  6
Continuous
 62
     7
370
    -2
100
AcDbLine
 10
-333.6369259742825
 20
108.9584355081229
 30
0.0
 11
-326.005604894399
 21
108.9584355081229
 31
0.0
  0
LINE
  5
70
330
6D
100
AcDbEntity
  8
0
  6
Continuous
 62
     7
370
    -2
100
AcDbLine
 10
-326.130604894399
 20
60.95868810050636
 30
0.0
 11
-326.130604894399
 21
80.87053627878912
 31
0.0
  0
LINE
  5
71
330
6D
100
AcDbEntity
  8
0
  6
Continuous
 62
     7
370
    -2
100
AcDbLine
 10
-326.130604894399
 20
103.9584355081229
 30
0.0
 11
-326.130604894399
 21
84.04658732984016
 31
0.0
  0
SOLID
  5
72
330
6D
100
AcDbEntity
  8
0
 62
     7
100
AcDbTrace
 10
-326.9639382277323
 20
60.95868810050636
 30
0.0
 11
-325.2972715610657
 21
60.95868810050636
 31
0.0
 12
-326.130604894399
 22
55.95868810050636
 32
0.0
 13
-326.130604894399
 23
55.95868810050636
 33
0.0
  0
SOLID
  5
73
330
6D
100
AcDbEntity
  8
0
 62
     7
100
AcDbTrace
 10
-325.2972715610657
 20
103.9584355081229
 30
0.0
 11
-326.9639382277323
 21
103.9584355081229
 31
0.0
 12
-326.130604894399
 22
108.9584355081229
 32
0.0
 13
-326.130604894399
 23
108.9584355081229
 33
0.0
  0
MTEXT
  5
74
330
6D
100
AcDbEntity
  8
0
 62
     7
100
AcDbMText
 10
-326.130604894399
 20
82.45856180431464
 30
0.0
 40
3.0
 41
0.0
 71
     5
 72
     1
  1
\A1;106
  7
_TCW_TXTSTY_2
 73
     1
 44
1.0
  0
POINT
  5
75
330
6D
100
AcDbEntity
  8
Defpoints
 62
     0
100
AcDbPoint
 10
-333.6997366209317
 20
55.95868810050637
 30
0.0
  0
POINT
  5
76
330
6D
100
AcDbEntity
  8
Defpoints
 62
     0
100
AcDbPoint
 10
-333.6994259742825
 20
108.9584355081229
 30
0.0
  0
POINT
  5
77
330
6D
100
AcDbEntity
  8
Defpoints
 62
     0
100
AcDbPoint
 10
-326.130604894399
 20
108.9584355081229
 30
0.0
  0
ENDBLK
  5
79
330
6D
100
AcDbEntity
  8
0
100
AcDbBlockEnd
  0
BLOCK
  5
86
330
7C
100
AcDbEntity
  8
0
100
AcDbBlockBegin
  2
*D3
 70
     1
 71
     0
 10
0.0
 20
0.0
 30
0.0
  3
*D3
  1

  0
LINE
  5
7D
330
7C
100
AcDbEntity
  8
0
  6
Continuous
 62
     7
370
    -2
100
AcDbLine
 10
-448.2838802728467
 20
43.70539539861338
 30
0.0
 11
-448.2838802728467
 21
40.2071318507482
 31
0.0
  0
LINE
  5
7E
330
7C
100
AcDbEntity
  8
0
  6
Continuous
 62
     7
370
    -2
100
AcDbLine
 10
-344.8178209141012
 20
43.70538957369334
 30
0.0
 11
-344.8178209141012
 21
40.2071318507482
 31
0.0
  0
LINE
  5
7F
330
7C
100
AcDbEntity
  8
0
  6
Continuous
 62
     7
370
    -2
100
AcDbLine
 10
-443.2838802728467
 20
40.3321318507482
 30
0.0
 11
-349.8178209141012
 21
40.3321318507482
 31
0.0
  0
SOLID
  5
80
330
7C
100
AcDbEntity
  8
0
 62
     7
100
AcDbTrace
 10
-443.2838802728467
 20
41.16546518408154
 30
0.0
 11
-443.2838802728467
 21
39.49879851741487
 31
0.0
 12
-448.2838802728467
 22
40.3321318507482
 32
0.0
 13
-448.2838802728467
 23
40.3321318507482
 33
0.0
  0
SOLID
  5
81
330
7C
100
AcDbEntity
  8
0
 62
     7
100
AcDbTrace
 10
-349.8178209141012
 20
39.49879851741487
 30
0.0
 11
-349.8178209141012
 21
41.16546518408154
 31
0.0
 12
-344.8178209141012
 22
40.3321318507482
 32
0.0
 13
-344.8178209141012
 23
40.3321318507482
 33
0.0
  0
MTEXT
  5
82
330
7C
100
AcDbEntity
  8
0
 62
     7
100
AcDbMText
 10
-396.550850593474
 20
41.92466188077823
 30
0.0
 40
3.0
 41
0.0
 71
     5
 72
     1
  1
\A1;207
  7
_TCW_TXTSTY_3
 73
     1
 44
1.0
  0
POINT
  5
83
330
7C
100
AcDbEntity
  8
Defpoints
 62
     0
100
AcDbPoint
 10
-448.2838802728467
 20
43.76789539861338
 30
0.0
  0
POINT
  5
84
330
7C
100
AcDbEntity
  8
Defpoints
 62
     0
100
AcDbPoint
 10
-344.8178209141012
 20
43.76788957369334
 30
0.0
  0
POINT
  5
85
330
7C
100
AcDbEntity
  8
Defpoints
 62
     0
100
AcDbPoint
 10
-344.8178209141012
 20
40.3321318507482
 30
0.0
  0
ENDBLK
  5
87
330
7C
100
AcDbEntity
  8
0
100
AcDbBlockEnd
  0
BLOCK
  5
94
330
8A
100
AcDbEntity
  8
0
100
AcDbBlockBegin
  2
*D4
 70
     1
 71
     0
 10
0.0
 20
0.0
 30
0.0
  3
*D4
  1

  0
LINE
  5
8B
330
8A
100
AcDbEntity
  8
0
  6
Continuous
 62
     7
370
    -2
100
AcDbLine
 10
-463.8088952794034
 20
44.26785211773439
 30
0.0
 11
-463.8088952794034
 21
33.74883070836191
 31
0.0
  0
LINE
  5
8C
330
8A
100
AcDbEntity
  8
0
  6
Continuous
 62
     7
370
    -2
100
AcDbLine
 10
-344.8178199958715
 20
43.04683893620069
 30
0.0
 11
-344.8178199958715
 21
33.74883070836191
 31
0.0
  0
LINE
  5
8D
330
8A
100
AcDbEntity
  8
0
  6
Continuous
 62
     7
370
    -2
100
AcDbLine
 10
-458.8088952794034
 20
33.87383070836191
 30
0.0
 11
-349.8178199958715
 21
33.87383070836191
 31
0.0
  0
SOLID
  5
8E
330
8A
100
AcDbEntity
  8
0
 62
     7
100
AcDbTrace
 10
-458.8088952794034
 20
34.70716404169524
 30
0.0
 11
-458.8088952794034
 21
33.04049737502857
 31
0.0
 12
-463.8088952794034
 22
33.87383070836191
 32
0.0
 13
-463.8088952794034
 23
33.87383070836191
 33
0.0
  0
SOLID
  5
8F
330
8A
100
AcDbEntity
  8
0
 62
     7
100
AcDbTrace
 10
-349.8178199958715
 20
33.04049737502857
 30
0.0
 11
-349.8178199958715
 21
34.70716404169524
 31
0.0
 12
-344.8178199958715
 22
33.87383070836191
 32
0.0
 13
-344.8178199958715
 23
33.87383070836191
 33
0.0
  0
MTEXT
  5
90
330
8A
100
AcDbEntity
  8
0
 62
     7
100
AcDbMText
 10
-404.3133576376375
 20
35.46185623388743
 30
0.0
 40
3.0
 41
0.0
 71
     5
 72
     1
  1
\A1;238
  7
_TCW_TXTSTY_4
 73
     1
 44
1.0
  0
POINT
  5
91
330
8A
100
AcDbEntity
  8
Defpoints
 62
     0
100
AcDbPoint
 10
-463.8088952794034
 20
44.33035211773439
 30
0.0
  0
POINT
  5
92
330
8A
100
AcDbEntity
  8
Defpoints
 62
     0
100
AcDbPoint
 10
-344.8178199958715
 20
43.10933893620069
 30
0.0
  0
POINT
  5
93
330
8A
100
AcDbEntity
  8
Defpoints
 62
     0
100
AcDbPoint
 10
-344.8178199958715
 20
33.87383070836191
 30
0.0
  0
ENDBLK
  5
95
330
8A
100
AcDbEntity
  8
0
100
AcDbBlockEnd
  0
BLOCK
  5
A4
330
99
100
AcDbEntity
  8
0
100
AcDbBlockBegin
  2
*D5
 70
     1
 71
     0
 10
0.0
 20
0.0
 30
0.0
  3
*D5
  1

  0
LINE
  5
9A
330
99
100
AcDbEntity
  8
0
  6
Continuous
 62
     7
370
    -2
100
AcDbLine
 10
-468.1269308574232
 20
93.43326134300385
 30
0.0
 11
-484.5169790659232
 21
93.43326134300385
 31
0.0
  0
LINE
  5
9B
330
99
100
AcDbEntity
  8
0
  6
Continuous
 62
     7
370
    -2
100
AcDbLine
 10
-468.127006679249
 20
71.48449774511245
 30
0.0
 11
-484.5169790659232
 21
71.48449774511245
 31
0.0
  0
LINE
  5
9C
330
99
100
AcDbEntity
  8
0
  6
Continuous
 62
     7
370
    -2
100
AcDbLine
 10
-484.3919790659232
 20
88.43326134300385
 30
0.0
 11
-484.3919790659232
 21
84.02137954405815
 31
0.0
  0
LINE
  5
9D
330
99
100
AcDbEntity
  8
0
  6
Continuous
 62
     7
370
    -2
100
AcDbLine
 10
-484.3919790659232
 20
76.48449774511245
 30
0.0
 11
-484.3919790659232
 21
80.89637954405815
 31
0.0
  0
SOLID
  5
9E
330
99
100
AcDbEntity
  8
0
 62
     7
100
AcDbTrace
 10
-483.5586457325899
 20
88.43326134300385
 30
0.0
 11
-485.2253123992565
 21
88.43326134300385
 31
0.0
 12
-484.3919790659232
 22
93.43326134300385
 32
0.0
 13
-484.3919790659232
 23
93.43326134300385
 33
0.0
  0
SOLID
  5
9F
330
99
100
AcDbEntity
  8
0
 62
     7
100
AcDbTrace
 10
-485.2253123992565
 20
76.48449774511245
 30
0.0
 11
-483.5586457325899
 21
76.48449774511245
 31
0.0
 12
-484.3919790659232
 22
71.48449774511245
 32
0.0
 13
-484.3919790659232
 23
71.48449774511245
 33
0.0
  0
MTEXT
  5
A0
330
99
100
AcDbEntity
  8
0
 62
     7
100
AcDbMText
 10
-484.3919790659232
 20
82.45887954405815
 30
0.0
 40
3.0
 41
0.0
 71
     5
 72
     1
  1
\A1;44
  7
_TCW_TXTSTY_5
 73
     1
 44
1.0
  0
POINT
  5
A1
330
99
100
AcDbEntity
  8
Defpoints
 62
     0
100
AcDbPoint
 10
-468.0644308574232
 20
93.43326134300385
 30
0.0
  0
POINT
  5
A2
330
99
100
AcDbEntity
  8
Defpoints
 62
     0
100
AcDbPoint
 10
-468.064506679249
 20
71.48449774511245
 30
0.0
  0
POINT
  5
A3
330
99
100
AcDbEntity
  8
Defpoints
 62
     0
100
AcDbPoint
 10
-484.3919790659232
 20
71.48449774511245
 30
0.0
  0
ENDBLK
  5
A5
330
99
100
AcDbEntity
  8
0
100
AcDbBlockEnd
  0
BLOCK
  5
B8
330
AD
100
AcDbEntity
  8
0
100
AcDbBlockBegin
  2
*D6
 70
     1
 71
     0
 10
0.0
 20
0.0
 30
0.0
  3
*D6
  1

  0
LINE
  5
AE
330
AD
100
AcDbEntity
  8
0
  6
Continuous
 62
     7
370
    -2
100
AcDbLine
 10
-333.4444998147091
 20
118.9583927264463
 30
0.0
 11
-315.7280391271607
 21
118.9583927264463
 31
0.0
  0
LINE
  5
AF
330
AD
100
AcDbEntity
  8
0
  6
Continuous
 62
     7
370
    -2
100
AcDbLine
 10
-333.5278853219291
 20
45.95939052336895
 30
0.0
 11
-315.7280391271607
 21
45.95939052336895
 31
0.0
  0
LINE
  5
B0
330
AD
100
AcDbEntity
  8
0
  6
Continuous
 62
     7
370
    -2
100
AcDbLine
 10
-315.8530391271607
 20
113.9583927264463
 30
0.0
 11
-315.8530391271607
 21
84.04691715043315
 31
0.0
  0
LINE
  5
B1
330
AD
100
AcDbEntity
  8
0
  6
Continuous
 62
     7
370
    -2
100
AcDbLine
 10
-315.8530391271607
 20
50.95939052336895
 30
0.0
 11
-315.8530391271607
 21
80.8708660993821
 31
0.0
  0
SOLID
  5
B2
330
AD
100
AcDbEntity
  8
0
 62
     7
100
AcDbTrace
 10
-315.0197057938274
 20
113.9583927264463
 30
0.0
 11
-316.6863724604941
 21
113.9583927264463
 31
0.0
 12
-315.8530391271607
 22
118.9583927264463
 32
0.0
 13
-315.8530391271607
 23
118.9583927264463
 33
0.0
  0
SOLID
  5
B3
330
AD
100
AcDbEntity
  8
0
 62
     7
100
AcDbTrace
 10
-316.6863724604941
 20
50.95939052336895
 30
0.0
 11
-315.0197057938274
 21
50.95939052336895
 31
0.0
 12
-315.8530391271607
 22
45.95939052336895
 32
0.0
 13
-315.8530391271607
 23
45.95939052336895
 33
0.0
  0
MTEXT
  5
B4
330
AD
100
AcDbEntity
  8
0
 62
     7
100
AcDbMText
 10
-315.8530391271607
 20
82.45889162490762
 30
0.0
 40
3.0
 41
0.0
 71
     5
 72
     1
  1
\A1;146
  7
_TCW_TXTSTY_8
 73
     1
 44
1.0
  0
POINT
  5
B5
330
AD
100
AcDbEntity
  8
Defpoints
 62
     0
100
AcDbPoint
 10
-333.5069998147091
 20
118.9583927264463
 30
0.0
  0
POINT
  5
B6
330
AD
100
AcDbEntity
  8
Defpoints
 62
     0
100
AcDbPoint
 10
-333.5903853219291
 20
45.95939052336895
 30
0.0
  0
POINT
  5
B7
330
AD
100
AcDbEntity
  8
Defpoints
 62
     0
100
AcDbPoint
 10
-315.8530391271607
 20
45.95939052336895
 30
0.0
  0
ENDBLK
  5
B9
330
AD
100
AcDbEntity
  8
0
100
AcDbBlockEnd
  0
BLOCK
  5
C6
330
BC
100
AcDbEntity
  8
0
100
AcDbBlockBegin
  2
*D7
 70
     1
 71
     0
 10
0.0
 20
0.0
 30
0.0
  3
*D7
  1

  0
LINE
  5
BD
330
BC
100
AcDbEntity
  8
0
  6
Continuous
 62
     7
370
    -2
100
AcDbLine
 10
-335.3178176267209
 20
44.11656184207943
 30
0.0
 11
-335.3178176267209
 21
26.8697769929237
 31
0.0
  0
LINE
  5
BE
330
BC
100
AcDbEntity
  8
0
  6
Continuous
 62
     7
370
    -2
100
AcDbLine
 10
-507.3093689031505
 20
44.1249273414721
 30
0.0
 11
-507.3093689031505
 21
26.8697769929237
 31
0.0
  0
LINE
  5
BF
330
BC
100
AcDbEntity
  8
0
  6
Continuous
 62
     7
370
    -2
100
AcDbLine
 10
-340.3178176267209
 20
26.9947769929237
 30
0.0
 11
-502.3093689031505
 21
26.9947769929237
 31
0.0
  0
SOLID
  5
C0
330
BC
100
AcDbEntity
  8
0
 62
     7
100
AcDbTrace
 10
-340.3178176267209
 20
26.16144365959037
 30
0.0
 11
-340.3178176267209
 21
27.82811032625703
 31
0.0
 12
-335.3178176267209
 22
26.9947769929237
 32
0.0
 13
-335.3178176267209
 23
26.9947769929237
 33
0.0
  0
SOLID
  5
C1
330
BC
100
AcDbEntity
  8
0
 62
     7
100
AcDbTrace
 10
-502.3093689031505
 20
27.82811032625703
 30
0.0
 11
-502.3093689031505
 21
26.16144365959037
 31
0.0
 12
-507.3093689031505
 22
26.9947769929237
 32
0.0
 13
-507.3093689031505
 23
26.9947769929237
 33
0.0
  0
MTEXT
  5
C2
330
BC
100
AcDbEntity
  8
0
 62
     7
100
AcDbMText
 10
-421.3135932649357
 20
28.58280251844923
 30
0.0
 40
3.0
 41
0.0
 71
     5
 72
     1
  1
\A1;344
  7
_TCW_TXTSTY_9
 73
     1
 44
1.0
  0
POINT
  5
C3
330
BC
100
AcDbEntity
  8
Defpoints
 62
     0
100
AcDbPoint
 10
-335.3178176267209
 20
44.17906184207943
 30
0.0
  0
POINT
  5
C4
330
BC
100
AcDbEntity
  8
Defpoints
 62
     0
100
AcDbPoint
 10
-507.3093689031505
 20
44.1874273414721
 30
0.0
  0
POINT
  5
C5
330
BC
100
AcDbEntity
  8
Defpoints
 62
     0
100
AcDbPoint
 10
-507.3093689031505
 20
26.9947769929237
 30
0.0
  0
ENDBLK
  5
C7
330
BC
100
AcDbEntity
  8
0
100
AcDbBlockEnd
  0
ENDSEC
  0
SECTION
  2
ENTITIES
  0
LINE
  5
39
330
1F
100
AcDbEntity
  8
0
  6
Continuous
 62
     7
370
     0
100
AcDbLine
 10
-444.1059294991765
 20
144.5681491812904
 30
0.0
 11
-237.2993628430636
 21
144.5681491812904
 31
0.0
1001
TCAD
1000
TCW_CUSTOM_DATA
1002
{
1000
#$AUX@_ToolInfo Properties
1070
     8
1000
CMD_LINE@
1002
}
  0
LINE
  5
3A
330
1F
100
AcDbEntity
  8
0
  6
Continuous
 62
     7
370
     0
100
AcDbLine
 10
-237.2992965545066
 20
144.5684223467177
 30
0.0
 11
-237.2992965545066
 21
130.9373457281926
 31
0.0
1001
TCAD
1000
TCW_CUSTOM_DATA
1002
{
1000
#$AUX@_ToolInfo Properties
1070
     8
1000
CMD_LINE@
1002
}
  0
LINE
  5
3B
330
1F
100
AcDbEntity
  8
0
  6
Continuous
 62
     7
370
     0
100
AcDbLine
 10
-237.2993026874345
 20
130.9374011944819
 30
0.0
 11
-444.1059294991765
 21
130.937401194482
 31
0.0
1001
TCAD
1000
TCW_CUSTOM_DATA
1002
{
1000
#$AUX@_ToolInfo Properties
1070
     8
1000
CMD_LINE@
1002
}
  0
LINE
  5
3C
330
1F
100
AcDbEntity
  8
0
  6
Continuous
 62
     7
370
     0
100
AcDbLine
 10
-444.2356933150321
 20
144.5466101872749
 30
0.0
 11
-444.2356933150321
 21
130.9139898566588
 31
0.0
1001
TCAD
1000
TCW_CUSTOM_DATA
1002
{
1000
#$AUX@_ToolInfo Properties
1070
     8
1000
CMD_LINE@
1002
}
  0
LINE
  5
3D
330
1F
100
AcDbEntity
  8
0
  6
Continuous
 62
     7
370
     0
100
AcDbLine
 10
-444.2356810243216
 20
138.8346938126171
 30
0.0
 11
-237.2993041672065
 21
133.9378409153009
 31
0.0
1001
TCAD
1000
TCW_CUSTOM_DATA
1002
{
1000
#$AUX@_ToolInfo Properties
1070
     8
1000
CMD_LINE@
1002
}
  0
SOLID
  5
3E
330
1F
100
AcDbEntity
  8
0
  6
Continuous
 62
     7
100
AcDbTrace
 10
-434.4178217874927
 20
133.1414469493001
 30
0.0
 11
-438.4178217874927
 21
133.1414469493001
 31
0.0
 12
-434.4178217874927
 22
133.1414469493001
 32
0.0
 13
-436.4178217874927
 23
136.6055485644378
 33
0.0
1001
TCAD
1000
TCW_CUSTOM_DATA
1002
{
1000
#$AUX@_ToolInfo Properties
1070
     8
1000
CMD_POLYLINE@
1002
}
  0
LINE
  5
3F
330
1F
100
AcDbEntity
  8
0
  6
Continuous
 62
     7
370
     0
100
AcDbLine
 10
-238.6281153454283
 20
171.1844246935786
 30
0.0
 11
-445.4346820015412
 21
171.1844246935786
 31
0.0
1001
TCAD
1000
TCW_CUSTOM_DATA
1002
{
1000
#$AUX@_ToolInfo Properties
1070
     8
1000
CMD_LINE@
1002
}
  0
LINE
  5
40
330
1F
100
AcDbEntity
  8
0
  6
Continuous
 62
     7
370
     0
100
AcDbLine
 10
-445.4347482900982
 20
171.1846978590058
 30
0.0
 11
-445.4347482900982
 21
157.5536212404807
 31
0.0
1001
TCAD
1000
TCW_CUSTOM_DATA
1002
{
1000
#$AUX@_ToolInfo Properties
1070
     8
1000
CMD_LINE@
1002
}
  0
LINE
  5
41
330
1F
100
AcDbEntity
  8
0
  6
Continuous
 62
     7
370
     0
100
AcDbLine
 10
-445.4347421571701
 20
157.5536767067701
 30
0.0
 11
-238.6281153454283
 21
157.5536767067702
 31
0.0
1001
TCAD
1000
TCW_CUSTOM_DATA
1002
{
1000
#$AUX@_ToolInfo Properties
1070
     8
1000
CMD_LINE@
1002
}
  0
LINE
  5
42
330
1F
100
AcDbEntity
  8
0
  6
Continuous
 62
     7
370
     0
100
AcDbLine
 10
-238.4983515295727
 20
171.1628856995631
 30
0.0
 11
-238.4983515295727
 21
157.5302653689469
 31
0.0
1001
TCAD
1000
TCW_CUSTOM_DATA
1002
{
1000
#$AUX@_ToolInfo Properties
1070
     8
1000
CMD_LINE@
1002
}
  0
LINE
  5
43
330
1F
100
AcDbEntity
  8
0
  6
Continuous
 62
     7
370
     0
100
AcDbLine
 10
-238.4983638202831
 20
165.4509693249053
 30
0.0
 11
-445.4347406773982
 21
160.554116427589
 31
0.0
1001
TCAD
1000
TCW_CUSTOM_DATA
1002
{
1000
#$AUX@_ToolInfo Properties
1070
     8
1000
CMD_LINE@
1002
}
  0
SOLID
  5
44
330
1F
100
AcDbEntity
  8
0
  6
Continuous
 62
     7
100
AcDbTrace
 10
-248.3162230571122
 20
159.7577224615882
 30
0.0
 11
-244.3162230571122
 21
159.7577224615882
 31
0.0
 12
-248.3162230571122
 22
159.7577224615882
 32
0.0
 13
-246.3162230571122
 23
163.2218240767259
 33
0.0
1001
TCAD
1000
TCW_CUSTOM_DATA
1002
{
1000
#$AUX@_ToolInfo Properties
1070
     8
1000
CMD_POLYLINE@
1002
}
  0
LWPOLYLINE
  5
45
330
1F
100
AcDbEntity
  8
0
  6
Continuous
 62
     7
370
     0
100
AcDbPolyline
 90
        4
 70
   129
 43
0.0
 10
-494.8263366907174
 20
191.5604544962405
 10
-494.8263366907174
 20
205.2104544962405
 10
-394.8263749429158
 20
205.2104544962405
 10
-394.8263749429158
 20
191.5604544962405
1001
TCAD
1000
TCW_CUSTOM_DATA
1002
{
1000
#$AUX@_ToolInfo Properties
1070
     8
1000
CMD_RECTANGLE@
1002
}
  0
LINE
  5
46
330
1F
100
AcDbEntity
  8
0
  6
Continuous
 62
     7
370
     0
100
AcDbLine
 10
-494.8263217304902
 20
194.5604570746783
 30
0.0
 11
-394.8263217304902
 21
194.5604570746783
 31
0.0
1001
TCAD
1000
TCW_CUSTOM_DATA
1002
{
1000
#$AUX@_ToolInfo Properties
1070
     8
1000
CMD_LINE@
1002
}
  0
LWPOLYLINE
  5
47
330
1F
100
AcDbEntity
  8
0
  6
Continuous
 62
     7
370
     0
100
AcDbPolyline
 90
        4
 70
   129
 43
0.0
 10
-362.4002176050243
 20
204.8203220031716
 10
-318.5002176050243
 20
204.8203220031716
 10
-318.5002176050243
 20
191.1703220031717
 10
-362.4002176050243
 20
191.1703220031717
1001
TCAD
1000
TCW_CUSTOM_DATA
1002
{
1000
#$AUX@_ToolInfo Properties
1070
     8
1000
CMD_RECTANGLE@
1002
}
  0
SOLID
  5
48
330
1F
100
AcDbEntity
  8
0
  6
Continuous
 62
     7
100
AcDbTrace
 10
-355.5106352424708
 20
193.407598177772
 30
0.0
 11
-359.5106352424708
 21
193.407598177772
 31
0.0
 12
-355.5106352424708
 22
193.407598177772
 32
0.0
 13
-357.5106352424708
 23
196.8716997929097
 33
0.0
1001
TCAD
1000
TCW_CUSTOM_DATA
1002
{
1000
#$AUX@_ToolInfo Properties
1070
     8
1000
CMD_POLYLINE@
1002
}
  0
LINE
  5
49
330
1F
100
AcDbEntity
  8
0
  6
Continuous
 62
     7
370
     0
100
AcDbLine
 10
-362.4002211828455
 20
199.8003064791776
 30
0.0
 11
-318.5002211828455
 21
199.8003064791776
 31
0.0
1001
TCAD
1000
TCW_CUSTOM_DATA
1002
{
1000
#$AUX@_ToolInfo Properties
1070
     8
1000
CMD_LINE@
1002
}
  0
LWPOLYLINE
  5
4A
330
1F
100
AcDbEntity
  8
0
  6
Continuous
 62
     7
370
     0
100
AcDbPolyline
 90
        4
 70
   129
 43
0.0
 10
-286.5689496918429
 20
204.8203220048791
 10
-242.6689496918429
 20
204.8203220048791
 10
-242.6689496918429
 20
191.1703220048791
 10
-286.5689496918429
 20
191.1703220048791
1001
TCAD
1000
TCW_CUSTOM_DATA
1002
{
1000
#$AUX@_ToolInfo Properties
1070
     8
1000
CMD_RECTANGLE@
1002
}
  0
SOLID
  5
4B
330
1F
100
AcDbEntity
  8
0
  6
Continuous
 62
     7
100
AcDbTrace
 10
-279.6793673292894
 20
193.4075981794794
 30
0.0
 11
-283.6793673292894
 21
193.4075981794794
 31
0.0
 12
-279.6793673292894
 22
193.4075981794794
 32
0.0
 13
-281.6793673292894
 23
196.8716997946172
 33
0.0
1001
TCAD
1000
TCW_CUSTOM_DATA
1002
{
1000
#$AUX@_ToolInfo Properties
1070
     8
1000
CMD_POLYLINE@
1002
}
  0
LINE
  5
4C
330
1F
100
AcDbEntity
  8
0
  6
Continuous
 62
     7
370
     0
100
AcDbLine
 10
-286.5689361255843
 20
199.8002981524127
 30
0.0
 11
-242.6689407735336
 21
199.0702979247579
 31
0.0
1001
TCAD
1000
TCW_CUSTOM_DATA
1002
{
1000
#$AUX@_ToolInfo Properties
1070
     8
1000
CMD_LINE@
1002
}
  0
LWPOLYLINE
  5
4D
330
1F
100
AcDbEntity
  8
0
  6
Continuous
 62
     7
370
     0
100
AcDbPolyline
 90
        4
 70
   129
 43
0.0
 10
-455.7788948403634
 20
184.0835473745289
 10
-499.6788948403633
 20
184.0835473745289
 10
-499.6788948403633
 20
170.4335473745289
 10
-455.7788948403634
 20
170.4335473745289
1001
TCAD
1000
TCW_CUSTOM_DATA
1002
{
1000
#$AUX@_ToolInfo Properties
1070
     8
1000
CMD_RECTANGLE@
1002
}
  0
SOLID
  5
4E
330
1F
100
AcDbEntity
  8
0
  6
Continuous
 62
     7
100
AcDbTrace
 10
-462.6684772029168
 20
172.6708235491291
 30
0.0
 11
-458.6684772029168
 21
172.6708235491291
 31
0.0
 12
-462.6684772029168
 22
172.6708235491291
 32
0.0
 13
-460.6684772029168
 23
176.1349251642669
 33
0.0
1001
TCAD
1000
TCW_CUSTOM_DATA
1002
{
1000
#$AUX@_ToolInfo Properties
1070
     8
1000
CMD_POLYLINE@
1002
}
  0
LINE
  5
4F
330
1F
100
AcDbEntity
  8
0
  6
Continuous
 62
     7
370
     0
100
AcDbLine
 10
-455.7789084066219
 20
179.0635235220624
 30
0.0
 11
-499.6789037586726
 21
178.3335232944077
 31
0.0
1001
TCAD
1000
TCW_CUSTOM_DATA
1002
{
1000
#$AUX@_ToolInfo Properties
1070
     8
1000
CMD_LINE@
1002
}
  0
LINE
  5
50
330
1F
100
AcDbEntity
  8
0
  6
DASHED
 62
     5
420
      255
370
     0
100
AcDbLine
 10
-335.3200240700924
 20
82.45837292507808
 30
0.0
 11
-507.28841440166
 21
82.45837292507808
 31
0.0
1001
TCAD
1000
TCW_CUSTOM_DATA
1002
{
1000
#$AUX@_ToolInfo Properties
1070
     8
1000
CMD_LINE@
1002
}
  0
LINE
  5
51
330
1F
100
AcDbEntity
  8
0
  6
Continuous
 62
     7
370
     0
100
AcDbLine
 10
-507.3092499063025
 20
118.958974087605
 30
0.0
 11
-507.3092499063025
 21
45.95702115490287
 31
0.0
1001
TCAD
1000
TCW_CUSTOM_DATA
1002
{
1000
#$AUX@_ToolInfo Properties
1070
     8
1000
CMD_LINE@
1002
}
  0
LINE
  5
52
330
1F
100
AcDbEntity
  8
0
  6
Continuous
 62
     7
370
     0
100
AcDbLine
 10
-335.3178249493221
 20
118.9584255856562
 30
0.0
 11
-335.3178249493221
 21
45.97785326051679
 31
0.0
1001
TCAD
1000
TCW_CUSTOM_DATA
1002
{
1000
#$AUX@_ToolInfo Properties
1070
     8
1000
CMD_LINE@
1002
}
  0
LINE
  5
53
330
1F
100
AcDbEntity
  8
0
  6
Continuous
 62
     7
370
     0
100
AcDbLine
 10
-507.3085565119675
 20
118.9583786761449
 30
0.0
 11
-335.3178466927313
 21
118.9583786761449
 31
0.0
1001
TCAD
1000
TCW_CUSTOM_DATA
1002
{
1000
#$AUX@_ToolInfo Properties
1070
     8
1000
CMD_LINE@
1002
}
  0
LINE
  5
54
330
1F
100
AcDbEntity
  8
0
  6
Continuous
 62
     7
370
     0
100
AcDbLine
 10
-507.3093677416089
 20
45.95837562899811
 30
0.0
 11
-335.3092519541732
 21
45.95837562899811
 31
0.0
1001
TCAD
1000
TCW_CUSTOM_DATA
1002
{
1000
#$AUX@_ToolInfo Properties
1070
     8
1000
CMD_LINE@
1002
}
  0
LINE
  5
55
330
1F
100
AcDbEntity
  8
0
  6
Continuous
 62
     1
420
 16711680
370
     0
100
AcDbLine
 10
-448.2846060154199
 20
55.95837323168399
 30
0.0
 11
-344.8158448973666
 21
55.95837323168399
 31
0.0
1001
TCAD
1000
TCW_CUSTOM_DATA
1002
{
1000
#$AUX@_ToolInfo Properties
1070
     8
1000
CMD_LINE@
1002
}
  0
LINE
  5
56
330
1F
100
AcDbEntity
  8
0
  6
Continuous
 62
     1
420
 16711680
370
     0
100
AcDbLine
 10
-448.2818571410027
 20
108.9583738784042
 30
0.0
 11
-344.819461488457
 21
108.9583738784042
 31
0.0
1001
TCAD
1000
TCW_CUSTOM_DATA
1002
{
1000
#$AUX@_ToolInfo Properties
1070
     8
1000
CMD_LINE@
1002
}
  0
LINE
  5
57
330
1F
100
AcDbEntity
  8
0
  6
Continuous
 62
     7
370
     0
100
AcDbLine
 10
-463.8088947001248
 20
71.48794224001634
 30
0.0
 11
-463.8088947001248
 21
93.43330795501267
 31
0.0
1001
TCAD
1000
TCW_CUSTOM_DATA
1002
{
1000
#$AUX@_ToolInfo Properties
1070
     8
1000
CMD_LINE@
1002
}
  0
LINE
  5
58
330
1F
100
AcDbEntity
  8
0
  6
Continuous
 62
     7
370
     0
100
AcDbLine
 10
-344.8178202734255
 20
108.9610050043125
 30
0.0
 11
-344.8178202734255
 21
55.95185059158194
 31
0.0
1001
TCAD
1000
TCW_CUSTOM_DATA
1002
{
1000
#$AUX@_ToolInfo Properties
1070
     8
1000
CMD_LINE@
1002
}
  0
LINE
  5
59
330
1F
100
AcDbEntity
  8
0
  6
Continuous
 62
     7
370
     0
100
AcDbLine
 10
-463.8088939678695
 20
93.43336611685844
 30
0.0
 11
-448.2879001208248
 21
108.9543599639032
 31
0.0
1001
TCAD
1000
TCW_CUSTOM_DATA
1002
{
1000
#$AUX@_ToolInfo Properties
1070
     8
1000
CMD_LINE@
1002
}
  0
LINE
  5
5A
330
1F
100
AcDbEntity
  8
0
  6
Continuous
 62
     7
370
     0
100
AcDbLine
 10
-463.8088910885053
 20
71.48338341587481
 30
0.0
 11
-448.2878972414606
 21
55.96238956883008
 31
0.0
1001
TCAD
1000
TCW_CUSTOM_DATA
1002
{
1000
#$AUX@_ToolInfo Properties
1070
     8
1000
CMD_LINE@
1002
}
  0
DIMENSION
  5
5B
330
1F
100
AcDbEntity
  8
0
  6
Continuous
 62
     7
100
AcDbDimension
  2
*D1
 10
-335.3207115813522
 20
37.26045006938437
 30
0.0
 11
-340.0699145440692
 21
38.8529800994144
 31
0.0
 70
    32
  1
19
 71
     5
 42
9.498405925434042
  3
Standard
100
AcDbAlignedDimension
 13
-344.8191175067862
 23
45.21404527169724
 33
0.0
 14
-335.3207115813522
 24
45.15902424409344
 34
0.0
100
AcDbRotatedDimension
1001
TCAD
1000
TCW_CUSTOM_DATA
1002
{
1000
#$AUX@_ToolInfo Properties
1070
     8
1000
CMD_ORTHOGONALDIM@
1002
}
1001
ACAD
1000
DSTYLE
1002
{
1070
   148
1040
0.01
1002
}
  0
DIMENSION
  5
6C
330
1F
100
AcDbEntity
  8
0
  6
Continuous
 62
     7
100
AcDbDimension
  2
*D2
 10
-326.130604894399
 20
108.9584355081229
 30
0.0
 11
-326.130604894399
 21
82.45856180431464
 31
0.0
 70
    32
  1
106
 71
     5
 42
52.99974740761655
  3
Standard
100
AcDbAlignedDimension
 13
-333.6997366209317
 23
55.95868810050637
 33
0.0
 14
-333.6994259742825
 24
108.9584355081229
 34
0.0
 50
90.0
100
AcDbRotatedDimension
1001
TCAD
1000
TCW_CUSTOM_DATA
1002
{
1000
#$AUX@_ToolInfo Properties
1070
     8
1000
CMD_ORTHOGONALDIM@
1002
}
1001
ACAD
1000
DSTYLE
1002
{
1070
   148
1040
0.01
1070
   340
1005
6B
1002
}
  0
DIMENSION
  5
7B
330
1F
100
AcDbEntity
  8
0
  6
Continuous
 62
     7
100
AcDbDimension
  2
*D3
 10
-344.8178209141012
 20
40.3321318507482
 30
0.0
 11
-396.550850593474
 21
41.92466188077823
 31
0.0
 70
    32
  1
207
 71
     5
 42
103.4660593587455
  3
Standard
100
AcDbAlignedDimension
 13
-448.2838802728467
 23
43.76789539861338
 33
0.0
 14
-344.8178209141012
 24
43.76788957369334
 34
0.0
100
AcDbRotatedDimension
1001
TCAD
1000
TCW_CUSTOM_DATA
1002
{
1000
#$AUX@_ToolInfo Properties
1070
     8
1000
CMD_ORTHOGONALDIM@
1002
}
1001
ACAD
1000
DSTYLE
1002
{
1070
   148
1040
0.01
1070
   340
1005
7A
1002
}
  0
DIMENSION
  5
89
330
1F
100
AcDbEntity
  8
0
  6
Continuous
 62
     7
100
AcDbDimension
  2
*D4
 10
-344.8178199958715
 20
33.87383070836191
 30
0.0
 11
-404.3133576376375
 21
35.46185623388743
 31
0.0
 70
    32
  1
238
 71
     5
 42
118.9910752835319
  3
Standard
100
AcDbAlignedDimension
 13
-463.8088952794034
 23
44.33035211773439
 33
0.0
 14
-344.8178199958715
 24
43.10933893620069
 34
0.0
100
AcDbRotatedDimension
1001
TCAD
1000
TCW_CUSTOM_DATA
1002
{
1000
#$AUX@_ToolInfo Properties
1070
     8
1000
CMD_ORTHOGONALDIM@
1002
}
1001
ACAD
1000
DSTYLE
1002
{
1070
   148
1040
0.01
1070
   340
1005
88
1002
}
  0
LINE
  5
96
330
1F
100
AcDbEntity
  8
0
  6
Continuous
 62
     7
370
     0
100
AcDbLine
 10
-437.3144924964263
 20
80.86541237650746
 30
0.0
 11
-437.3144924964263
 21
84.07660512935938
 31
0.0
1001
TCAD
1000
TCW_CUSTOM_DATA
1002
{
1000
#$AUX@_ToolInfo Properties
1070
     8
1000
CMD_LINE@
1002
}
  0
DIMENSION
  5
98
330
1F
100
AcDbEntity
  8
0
  6
Continuous
 62
     7
100
AcDbDimension
  2
*D5
 10
-484.3919790659232
 20
71.48449774511245
 30
0.0
 11
-484.3919790659232
 21
82.45887954405815
 31
0.0
 70
    32
  1
44
 71
     5
 42
21.9487635978914
  3
Standard
100
AcDbAlignedDimension
 13
-468.0644308574232
 23
93.43326134300385
 33
0.0
 14
-468.064506679249
 24
71.48449774511245
 34
0.0
 50
-90.0
100
AcDbRotatedDimension
1001
TCAD
1000
TCW_CUSTOM_DATA
1002
{
1000
#$AUX@_ToolInfo Properties
1070
     8
1000
CMD_ORTHOGONALDIM@
1002
}
1001
ACAD
1000
DSTYLE
1002
{
1070
   148
1040
0.01
1070
   340
1005
97
1002
}
  0
TEXT
  5
A7
330
1F
100
AcDbEntity
  8
0
  6
Continuous
 62
     5
420
      255
100
AcDbText
 10
-504.9497435909513
 20
51.16937209256169
 30
0.0
 40
7.619999885559082
  1
M 1:2
  7
_TCW_TXTSTY_6
 11
-504.9497435909513
 21
58.78937197812077
 31
0.0
100
AcDbText
 73
     3
1001
TCAD
1000
TCW40_TEXT
1002
{
1000
Times New Roman
1070
     0
1070
   257
1002
}
1000
TCW_CUSTOM_DATA
1002
{
1000
#$AUX@_ToolInfo Properties
1070
     8
1000
CMD_TEXT@
1002
}
  0
TEXT
  5
A9
330
1F
100
AcDbEntity
  8
0
  6
Continuous
 62
     5
420
      255
100
AcDbText
 10
-505.3138241554298
 20
61.37797476594285
 30
0.0
 40
3.263872718811035
  1
Fedйlzet Panel
  7
_TCW_TXTSTY_7
 11
-505.3138241554298
 21
64.64184748475388
 31
0.0
100
AcDbText
 73
     3
1001
TCAD
1000
TCW40_TEXT
1002
{
1000
Times New Roman
1070
     0
1070
   257
1002
}
1000
TCW_CUSTOM_DATA
1002
{
1000
#$AUX@_ToolInfo Properties
1070
     8
1000
CMD_TEXT@
1002
}
  0
LWPOLYLINE
  5
AA
330
1F
100
AcDbEntity
  8
0
  6
Continuous
 62
     7
370
     0
100
AcDbPolyline
 90
        4
 70
   129
 43
0.0
 10
-514.0169924838194
 20
209.2368916438844
 10
-234.0169924838195
 20
209.2368916438844
 10
-234.0169924838195
 20
16.23689164388433
 10
-514.0169924838194
 20
16.23689164388433
1001
TCAD
1000
TCW_CUSTOM_DATA
1002
{
1000
#$AUX@_ToolInfo Properties
1070
     8
1000
CMD_RECTANGLE@
1002
}
  0
DIMENSION
  5
AC
330
1F
100
AcDbEntity
  8
0
  6
Continuous
 62
     7
100
AcDbDimension
  2
*D6
 10
-315.8530391271607
 20
45.95939052336895
 30
0.0
 11
-315.8530391271607
 21
82.45889162490762
 31
0.0
 70
    32
  1
146
 71
     5
 42
72.99900220307737
  3
Standard
100
AcDbAlignedDimension
 13
-333.5069998147091
 23
118.9583927264463
 33
0.0
 14
-333.5903853219291
 24
45.95939052336895
 34
0.0
 50
-90.0
100
AcDbRotatedDimension
1001
TCAD
1000
TCW_CUSTOM_DATA
1002
{
1000
#$AUX@_ToolInfo Properties
1070
     8
1000
CMD_ORTHOGONALDIM@
1002
}
1001
ACAD
1000
DSTYLE
1002
{
1070
   148
1040
0.01
1070
   340
1005
AB
1002
}
  0
DIMENSION
  5
BB
330
1F
100
AcDbEntity
  8
0
  6
Continuous
 62
     7
100
AcDbDimension
  2
*D7
 10
-507.3093689031505
 20
26.9947769929237
 30
0.0
 11
-421.3135932649357
 21
28.58280251844923
 31
0.0
 70
    32
  1
344
 71
     5
 42
171.9915512764296
  3
Standard
100
AcDbAlignedDimension
 13
-335.3178176267209
 23
44.17906184207943
 33
0.0
 14
-507.3093689031505
 24
44.1874273414721
 34
0.0
100
AcDbRotatedDimension
1001
TCAD
1000
TCW_CUSTOM_DATA
1002
{
1000
#$AUX@_ToolInfo Properties
1070
     8
1000
CMD_ORTHOGONALDIM@
1002
}
1001
ACAD
1000
DSTYLE
1002
{
1070
   148
1040
0.01
1070
   340
1005
BA
1002
}
  0
TEXT
  5
C9
330
1F
100
AcDbEntity
  8
0
  6
Continuous
 62
     5
420
      255
100
AcDbText
 10
-502.7530599866465
 20
70.34855902966125
 30
0.0
 40
5.012131690979004
  1
16.
  7
_TCW_TXTSTY_A
 11
-502.7530599866465
 21
75.36069072064025
 31
0.0
100
AcDbText
 73
     3
1001
TCAD
1000
TCW40_TEXT
1002
{
1000
Times New Roman
1070
     0
1070
   257
1002
}
1000
TCW_CUSTOM_DATA
1002
{
1000
#$AUX@_ToolInfo Properties
1070
     8
1000
CMD_TEXT@
1002
}
  0
CIRCLE
  5
CA
330
1F
100
AcDbEntity
  8
0
  6
Continuous
 62
     5
420
      255
370
     0
100
AcDbCircle
 10
-498.4547155518265
 20
72.76663719274784
 30
0.0
 40
5.862654945854388
1001
TCAD
1000
TCW_CUSTOM_DATA
1002
{
1000
#$AUX@_ToolInfo Properties
1070
     8
1000
CMD_CENTERPTCIRCLE@
1002
}
  0
MTEXT
  5
CC
330
1F
100
AcDbEntity
  8
0
  6
Continuous
 62
     5
420
      255
100
AcDbMText
 10
-306.9113355931012
 20
106.0385829698016
 30
0.0
 40
3.522528076171875
 41
71.85808210074902
 71
     1
 72
     1
  3
{16.: Fedйlzet\P20.:Fedйlzeti nyнlбs hбtfal\P21.:Fedйlzati nyнlбs bal oldalfal\P22.:Fedйlzeti nyнlбs jobb oldalfal\P23.:Fedйlzeti nyнlбs bal rйzsutfal\P24.:Fedйlzeti nyнlбs jobb rйzsutfal\P25.:Fedйlzeti nyнlбs homlokfal\P26.:Fedйlzeti nyнlбsfed\U+0151
  7
_TCW_TXTSTY_B
 73
     1
 44
1.0
1001
TCAD
1000
TCW40_TEXT
1002
{
1000
Times New Roman
1070
     0
1070
   257
1002
}
1000
TCW_CUSTOM_DATA
1002
{
1000
#$AUX@_ToolInfo Properties
1070
     8
1000
CMD_TEXT@
1002
}
  0
TEXT
  5
CD
330
1F
100
AcDbEntity
  8
0
  6
Continuous
 62
     5
420
      255
100
AcDbText
 10
-507.6302603859683
 20
196.2184732719545
 30
0.0
 40
5.012131690979004
  1
20.
  7
_TCW_TXTSTY_B
 11
-507.6302603859683
 21
201.2306049629335
 31
0.0
100
AcDbText
 73
     3
1001
TCAD
1000
TCW40_TEXT
1002
{
1000
Times New Roman
1070
     0
1070
   257
1002
}
1000
TCW_CUSTOM_DATA
1002
{
1000
#$AUX@_ToolInfo Properties
1070
     8
1000
CMD_TEXT@
1002
}
  0
CIRCLE
  5
CE
330
1F
100
AcDbEntity
  8
0
  6
Continuous
 62
     5
420
      255
370
     0
100
AcDbCircle
 10
-503.3319159511482
 20
198.6365514350411
 30
0.0
 40
5.862654945854388
1001
TCAD
1000
TCW_CUSTOM_DATA
1002
{
1000
#$AUX@_ToolInfo Properties
1070
     8
1000
CMD_CENTERPTCIRCLE@
1002
}
  0
LWPOLYLINE
  5
CF
330
1F
100
AcDbEntity
  8
0
  6
Continuous
 62
     5
420
      255
370
     0
100
AcDbPolyline
 90
        4
 70
   128
 43
0.0
 10
-494.659984288073
 20
188.7653447004211
 10
-479.8720846456863
 20
188.7653447004211
 10
-485.1961712699892
 20
190.3592500510975
 10
-463.2799726981882
 20
190.3592500510975
1001
TCAD
1000
TCW_CUSTOM_DATA
1002
{
1000
#$AUX@_ToolInfo Properties
1070
     8
1000
CMD_POLYLINE@
1002
}
  0
LWPOLYLINE
  5
D0
330
1F
100
AcDbEntity
  8
0
  6
Continuous
 62
     5
420
      255
370
     0
100
AcDbPolyline
 90
        3
 70
   128
 43
0.0
 10
-494.671053076788
 20
189.5622973757593
 10
-484.6205943378004
 20
189.5622973757593
 10
-487.1885529583346
 20
190.4035251997275
1001
TCAD
1000
TCW_CUSTOM_DATA
1002
{
1000
#$AUX@_ToolInfo Properties
1070
     8
1000
CMD_POLYLINE@
1002
}
  0
LWPOLYLINE
  5
D1
330
1F
100
AcDbEntity
  8
0
  6
Continuous
 62
     5
420
      255
370
     0
100
AcDbPolyline
 90
        3
 70
   128
 43
0.0
 10
-463.6341738872275
 20
188.7210695517911
 10
-477.5808457056462
 20
188.7210695517911
 10
-481.8755351227467
 20
190.0935991593181
1001
TCAD
1000
TCW_CUSTOM_DATA
1002
{
1000
#$AUX@_ToolInfo Properties
1070
     8
1000
CMD_POLYLINE@
1002
}
  0
LINE
  5
D2
330
1F
100
AcDbEntity
  8
0
  6
Continuous
 62
     5
420
      255
370
     0
100
AcDbLine
 10
-487.1504140171826
 20
190.3843613335567
 30
0.0
 11
-494.5784434311347
 21
190.3843613335567
 31
0.0
1001
TCAD
1000
TCW_CUSTOM_DATA
1002
{
1000
#$AUX@_ToolInfo Properties
1070
     8
1000
CMD_LINE@
1002
}
  0
TEXT
  5
D4
330
1F
100
AcDbEntity
  8
0
  6
Continuous
 62
     5
420
      255
100
AcDbText
 10
-373.6247117908262
 20
195.5772438400851
 30
0.0
 40
5.012131690979004
  1
25.
  7
_TCW_TXTSTY_C
 11
-373.6247117908262
 21
200.5893755310641
 31
0.0
100
AcDbText
 73
     3
1001
TCAD
1000
TCW40_TEXT
1002
{
1000
Times New Roman
1070
     0
1070
   257
1002
}
1000
TCW_CUSTOM_DATA
1002
{
1000
#$AUX@_ToolInfo Properties
1070
     8
1000
CMD_TEXT@
1002
}
  0
CIRCLE
  5
D5
330
1F
100
AcDbEntity
  8
0
  6
Continuous
 62
     5
420
      255
370
     0
100
AcDbCircle
 10
-369.3263673560062
 20
197.9953220031717
 30
0.0
 40
5.862654945854388
1001
TCAD
1000
TCW_CUSTOM_DATA
1002
{
1000
#$AUX@_ToolInfo Properties
1070
     8
1000
CMD_CENTERPTCIRCLE@
1002
}
  0
LWPOLYLINE
  5
D6
330
1F
100
AcDbEntity
  8
0
  6
Continuous
 62
     5
420
      255
370
     0
100
AcDbPolyline
 90
        4
 70
   128
 43
0.0
 10
-362.4121142645353
 20
187.9077825922106
 10
-347.6242146221486
 20
187.9077825922106
 10
-352.9483012464515
 20
189.5016879428869
 10
-331.0321026746505
 20
189.5016879428869
1001
TCAD
1000
TCW_CUSTOM_DATA
1002
{
1000
#$AUX@_ToolInfo Properties
1070
     8
1000
CMD_POLYLINE@
1002
}
  0
LWPOLYLINE
  5
D7
330
1F
100
AcDbEntity
  8
0
  6
Continuous
 62
     5
420
      255
370
     0
100
AcDbPolyline
 90
        3
 70
   128
 43
0.0
 10
-362.4231830532503
 20
188.7047352675487
 10
-352.3727243142627
 20
188.7047352675487
 10
-354.9406829347969
 20
189.5459630915169
1001
TCAD
1000
TCW_CUSTOM_DATA
1002
{
1000
#$AUX@_ToolInfo Properties
1070
     8
1000
CMD_POLYLINE@
1002
}
  0
LWPOLYLINE
  5
D8
330
1F
100
AcDbEntity
  8
0
  6
Continuous
 62
     5
420
      255
370
     0
100
AcDbPolyline
 90
        3
 70
   128
 43
0.0
 10
-331.3863038636898
 20
187.8635074435805
 10
-345.3329756821085
 20
187.8635074435805
 10
-349.627665099209
 20
189.2360370511075
1001
TCAD
1000
TCW_CUSTOM_DATA
1002
{
1000
#$AUX@_ToolInfo Properties
1070
     8
1000
CMD_POLYLINE@
1002
}
  0
LINE
  5
D9
330
1F
100
AcDbEntity
  8
0
  6
Continuous
 62
     5
420
      255
370
     0
100
AcDbLine
 10
-354.9025439936449
 20
189.5267992253461
 30
0.0
 11
-362.330573407597
 21
189.5267992253461
 31
0.0
1001
TCAD
1000
TCW_CUSTOM_DATA
1002
{
1000
#$AUX@_ToolInfo Properties
1070
     8
1000
CMD_LINE@
1002
}
  0
TEXT
  5
DB
330
1F
100
AcDbEntity
  8
0
  6
Continuous
 62
     5
420
      255
100
AcDbText
 10
-297.7934376295796
 20
195.5772438417925
 30
0.0
 40
5.012131690979004
  1
24.
  7
_TCW_TXTSTY_D
 11
-297.7934376295796
 21
200.5893755327715
 31
0.0
100
AcDbText
 73
     3
1001
TCAD
1000
TCW40_TEXT
1002
{
1000
Times New Roman
1070
     0
1070
   257
1002
}
1000
TCW_CUSTOM_DATA
1002
{
1000
#$AUX@_ToolInfo Properties
1070
     8
1000
CMD_TEXT@
1002
}
  0
CIRCLE
  5
DC
330
1F
100
AcDbEntity
  8
0
  6
Continuous
 62
     5
420
      255
370
     0
100
AcDbCircle
 10
-293.4950931947595
 20
197.9953220048791
 30
0.0
 40
5.862654945854388
1001
TCAD
1000
TCW_CUSTOM_DATA
1002
{
1000
#$AUX@_ToolInfo Properties
1070
     8
1000
CMD_CENTERPTCIRCLE@
1002
}
  0
LWPOLYLINE
  5
DD
330
1F
100
AcDbEntity
  8
0
  6
Continuous
 62
     5
420
      255
370
     0
100
AcDbPolyline
 90
        4
 70
   128
 43
0.0
 10
-286.4013885271608
 20
187.4055887212382
 10
-271.6134888847741
 20
187.4055887212382
 10
-276.937575509077
 20
188.9994940719146
 10
-255.021376937276
 20
188.9994940719146
1001
TCAD
1000
TCW_CUSTOM_DATA
1002
{
1000
#$AUX@_ToolInfo Properties
1070
     8
1000
CMD_POLYLINE@
1002
}
  0
LWPOLYLINE
  5
DE
330
1F
100
AcDbEntity
  8
0
  6
Continuous
 62
     5
420
      255
370
     0
100
AcDbPolyline
 90
        3
 70
   128
 43
0.0
 10
-286.4124573158758
 20
188.2025413965764
 10
-276.3619985768882
 20
188.2025413965764
 10
-278.9299571974224
 20
189.0437692205446
1001
TCAD
1000
TCW_CUSTOM_DATA
1002
{
1000
#$AUX@_ToolInfo Properties
1070
     8
1000
CMD_POLYLINE@
1002
}
  0
LWPOLYLINE
  5
DF
330
1F
100
AcDbEntity
  8
0
  6
Continuous
 62
     5
420
      255
370
     0
100
AcDbPolyline
 90
        3
 70
   128
 43
0.0
 10
-255.3755781263152
 20
187.3613135726082
 10
-269.322249944734
 20
187.3613135726082
 10
-273.6169393618345
 20
188.7338431801352
1001
TCAD
1000
TCW_CUSTOM_DATA
1002
{
1000
#$AUX@_ToolInfo Properties
1070
     8
1000
CMD_POLYLINE@
1002
}
  0
LINE
  5
E0
330
1F
100
AcDbEntity
  8
0
  6
Continuous
 62
     5
420
      255
370
     0
100
AcDbLine
 10
-278.8918182562704
 20
189.0246053543738
 30
0.0
 11
-286.3198476702225
 21
189.0246053543738
 31
0.0
1001
TCAD
1000
TCW_CUSTOM_DATA
1002
{
1000
#$AUX@_ToolInfo Properties
1070
     8
1000
CMD_LINE@
1002
}
  0
TEXT
  5
E2
330
1F
100
AcDbEntity
  8
0
  6
Continuous
 62
     5
420
      255
100
AcDbText
 10
-510.6522947576087
 20
174.5893722726417
 30
0.0
 40
5.012131690979004
  1
23.
  7
_TCW_TXTSTY_E
 11
-510.6522947576087
 21
179.6015039636207
 31
0.0
100
AcDbText
 73
     3
1001
TCAD
1000
TCW40_TEXT
1002
{
1000
Times New Roman
1070
     0
1070
   257
1002
}
1000
TCW_CUSTOM_DATA
1002
{
1000
#$AUX@_ToolInfo Properties
1070
     8
1000
CMD_TEXT@
1002
}
  0
CIRCLE
  5
E3
330
1F
100
AcDbEntity
  8
0
  6
Continuous
 62
     5
420
      255
370
     0
100
AcDbCircle
 10
-506.3539503227887
 20
177.0074504357283
 30
0.0
 40
5.862654945854388
1001
TCAD
1000
TCW_CUSTOM_DATA
1002
{
1000
#$AUX@_ToolInfo Properties
1070
     8
1000
CMD_CENTERPTCIRCLE@
1002
}
  0
TEXT
  5
E5
330
1F
100
AcDbEntity
  8
0
  6
Continuous
 62
     5
420
      255
100
AcDbText
 10
-455.7431596617258
 20
161.6883065120892
 30
0.0
 40
5.012131690979004
  1
21.
  7
_TCW_TXTSTY_F
 11
-455.7431596617258
 21
166.7004382030682
 31
0.0
100
AcDbText
 73
     3
1001
TCAD
1000
TCW40_TEXT
1002
{
1000
Times New Roman
1070
     0
1070
   257
1002
}
1000
TCW_CUSTOM_DATA
1002
{
1000
#$AUX@_ToolInfo Properties
1070
     8
1000
CMD_TEXT@
1002
}
  0
CIRCLE
  5
E6
330
1F
100
AcDbEntity
  8
0
  6
Continuous
 62
     5
420
      255
370
     0
100
AcDbCircle
 10
-451.4448152269057
 20
164.1063846751757
 30
0.0
 40
5.862654945854388
1001
TCAD
1000
TCW_CUSTOM_DATA
1002
{
1000
#$AUX@_ToolInfo Properties
1070
     8
1000
CMD_CENTERPTCIRCLE@
1002
}
  0
TEXT
  5
E8
330
1F
100
AcDbEntity
  8
0
  6
Continuous
 62
     5
420
      255
100
AcDbText
 10
-456.4400207592407
 20
135.3231279386016
 30
0.0
 40
5.012131690979004
  1
22.
  7
_TCW_TXTSTY_10
 11
-456.4400207592407
 21
140.3352596295806
 31
0.0
100
AcDbText
 73
     3
1001
TCAD
1000
TCW40_TEXT
1002
{
1000
Times New Roman
1070
     0
1070
   257
1002
}
1000
TCW_CUSTOM_DATA
1002
{
1000
#$AUX@_ToolInfo Properties
1070
     8
1000
CMD_TEXT@
1002
}
  0
CIRCLE
  5
E9
330
1F
100
AcDbEntity
  8
0
  6
Continuous
 62
     5
420
      255
370
     0
100
AcDbCircle
 10
-452.1416763244206
 20
137.7412061016882
 30
0.0
 40
5.862654945854388
1001
TCAD
1000
TCW_CUSTOM_DATA
1002
{
1000
#$AUX@_ToolInfo Properties
1070
     8
1000
CMD_CENTERPTCIRCLE@
1002
}
  0
LWPOLYLINE
  5
EA
330
1F
100
AcDbEntity
  8
0
  6
Continuous
 62
     5
420
      255
370
     0
100
AcDbPolyline
 90
        4
 70
   128
 43
0.0
 10
-445.1790173515445
 20
154.269942210046
 10
-430.3911177091578
 20
154.269942210046
 10
-435.7152043334607
 20
155.8638475607223
 10
-413.7990057616597
 20
155.8638475607223
1001
TCAD
1000
TCW_CUSTOM_DATA
1002
{
1000
#$AUX@_ToolInfo Properties
1070
     8
1000
CMD_POLYLINE@
1002
}
  0
LWPOLYLINE
  5
EB
330
1F
100
AcDbEntity
  8
0
  6
Continuous
 62
     5
420
      255
370
     0
100
AcDbPolyline
 90
        3
 70
   128
 43
0.0
 10
-445.1900861402595
 20
155.0668948853842
 10
-435.1396274012719
 20
155.0668948853842
 10
-437.7075860218062
 20
155.9081227093524
1001
TCAD
1000
TCW_CUSTOM_DATA
1002
{
1000
#$AUX@_ToolInfo Properties
1070
     8
1000
CMD_POLYLINE@
1002
}
  0
LWPOLYLINE
  5
EC
330
1F
100
AcDbEntity
  8
0
  6
Continuous
 62
     5
420
      255
370
     0
100
AcDbPolyline
 90
        3
 70
   128
 43
0.0
 10
-414.153206950699
 20
154.2256670614159
 10
-428.0998787691177
 20
154.2256670614159
 10
-432.3945681862182
 20
155.5981966689429
1001
TCAD
1000
TCW_CUSTOM_DATA
1002
{
1000
#$AUX@_ToolInfo Properties
1070
     8
1000
CMD_POLYLINE@
1002
}
  0
LINE
  5
ED
330
1F
100
AcDbEntity
  8
0
  6
Continuous
 62
     5
420
      255
370
     0
100
AcDbLine
 10
-437.6694470806541
 20
155.8889588431815
 30
0.0
 11
-445.0974764946062
 21
155.8889588431815
 31
0.0
1001
TCAD
1000
TCW_CUSTOM_DATA
1002
{
1000
#$AUX@_ToolInfo Properties
1070
     8
1000
CMD_LINE@
1002
}
  0
LWPOLYLINE
  5
EE
330
1F
100
AcDbEntity
  8
0
  6
Continuous
 62
     5
420
      255
370
     0
100
AcDbPolyline
 90
        4
 70
   128
 43
0.0
 10
-499.8370555030023
 20
167.1710079705483
 10
-485.0491558606155
 20
167.1710079705483
 10
-490.3732424849185
 20
168.7649133212246
 10
-468.4570439131174
 20
168.7649133212246
1001
TCAD
1000
TCW_CUSTOM_DATA
1002
{
1000
#$AUX@_ToolInfo Properties
1070
     8
1000
CMD_POLYLINE@
1002
}
  0
LWPOLYLINE
  5
EF
330
1F
100
AcDbEntity
  8
0
  6
Continuous
 62
     5
420
      255
370
     0
100
AcDbPolyline
 90
        3
 70
   128
 43
0.0
 10
-499.8481242917172
 20
167.9679606458865
 10
-489.7976655527297
 20
167.9679606458865
 10
-492.3656241732639
 20
168.8091884698547
1001
TCAD
1000
TCW_CUSTOM_DATA
1002
{
1000
#$AUX@_ToolInfo Properties
1070
     8
1000
CMD_POLYLINE@
1002
}
  0
LWPOLYLINE
  5
F0
330
1F
100
AcDbEntity
  8
0
  6
Continuous
 62
     5
420
      255
370
     0
100
AcDbPolyline
 90
        3
 70
   128
 43
0.0
 10
-468.8112451021567
 20
167.1267328219183
 10
-482.7579169205754
 20
167.1267328219183
 10
-487.0526063376759
 20
168.4992624294453
1001
TCAD
1000
TCW_CUSTOM_DATA
1002
{
1000
#$AUX@_ToolInfo Properties
1070
     8
1000
CMD_POLYLINE@
1002
}
  0
LINE
  5
F1
330
1F
100
AcDbEntity
  8
0
  6
Continuous
 62
     5
420
      255
370
     0
100
AcDbLine
 10
-492.3274852321118
 20
168.7900246036838
 30
0.0
 11
-499.7555146460639
 21
168.7900246036838
 31
0.0
1001
TCAD
1000
TCW_CUSTOM_DATA
1002
{
1000
#$AUX@_ToolInfo Properties
1070
     8
1000
CMD_LINE@
1002
}
  0
LWPOLYLINE
  5
F2
330
1F
100
AcDbEntity
  8
0
  6
Continuous
 62
     5
420
      255
370
     0
100
AcDbPolyline
 90
        4
 70
   128
 43
0.0
 10
-443.7500799688899
 20
126.9003758835154
 10
-428.9621803265032
 20
126.9003758835154
 10
-434.2862669508061
 20
128.4942812341917
 10
-412.3700683790051
 20
128.4942812341917
1001
TCAD
1000
TCW_CUSTOM_DATA
1002
{
1000
#$AUX@_ToolInfo Properties
1070
     8
1000
CMD_POLYLINE@
1002
}
  0
LWPOLYLINE
  5
F3
330
1F
100
AcDbEntity
  8
0
  6
Continuous
 62
     5
420
      255
370
     0
100
AcDbPolyline
 90
        3
 70
   128
 43
0.0
 10
-443.7611487576049
 20
127.6973285588536
 10
-433.7106900186173
 20
127.6973285588536
 10
-436.2786486391515
 20
128.5385563828218
1001
TCAD
1000
TCW_CUSTOM_DATA
1002
{
1000
#$AUX@_ToolInfo Properties
1070
     8
1000
CMD_POLYLINE@
1002
}
  0
LWPOLYLINE
  5
F4
330
1F
100
AcDbEntity
  8
0
  6
Continuous
 62
     5
420
      255
370
     0
100
AcDbPolyline
 90
        3
 70
   128
 43
0.0
 10
-412.7242695680443
 20
126.8561007348854
 10
-426.6709413864631
 20
126.8561007348854
 10
-430.9656308035636
 20
128.2286303424123
1001
TCAD
1000
TCW_CUSTOM_DATA
1002
{
1000
#$AUX@_ToolInfo Properties
1070
     8
1000
CMD_POLYLINE@
1002
}
  0
LINE
  5
F5
330
1F
100
AcDbEntity
  8
0
  6
Continuous
 62
     5
420
      255
370
     0
100
AcDbLine
 10
-436.2405096979995
 20
128.5193925166509
 30
0.0
 11
-443.6685391119516
 21
128.5193925166509
 31
0.0
1001
TCAD
1000
TCW_CUSTOM_DATA
1002
{
1000
#$AUX@_ToolInfo Properties
1070
     8
1000
CMD_LINE@
1002
}
  0
TEXT
  5
F7
330
1F
100
AcDbEntity
  8
0
  6
Continuous
 62
     5
420
      255
100
AcDbText
 10
-357.8369360266439
 20
95.69909231971285
 30
0.0
 40
5.012131690979004
  1
26.
  7
_TCW_TXTSTY_11
 11
-357.8369360266439
 21
100.7112240106919
 31
0.0
100
AcDbText
 73
     3
1001
TCAD
1000
TCW40_TEXT
1002
{
1000
Times New Roman
1070
     0
1070
   257
1002
}
1000
TCW_CUSTOM_DATA
1002
{
1000
#$AUX@_ToolInfo Properties
1070
     8
1000
CMD_TEXT@
1002
}
  0
CIRCLE
  5
F8
330
1F
100
AcDbEntity
  8
0
  6
Continuous
 62
     5
420
      255
370
     0
100
AcDbCircle
 10
-353.5385915918239
 20
98.11717048279944
 30
0.0
 40
5.862654945854388
1001
TCAD
1000
TCW_CUSTOM_DATA
1002
{
1000
#$AUX@_ToolInfo Properties
1070
     8
1000
CMD_CENTERPTCIRCLE@
1002
}
  0
LWPOLYLINE
  5
F9
330
1F
100
AcDbEntity
  8
0
  6
Continuous
 62
     5
420
      255
370
     0
100
AcDbPolyline
 90
        4
 70
   128
 43
0.0
 10
-505.3176038223448
 20
47.60302392493854
 10
-490.5297041799581
 20
47.60302392493854
 10
-495.8537908042611
 20
49.19692927561486
 10
-473.93759223246
 20
49.19692927561486
1001
TCAD
1000
TCW_CUSTOM_DATA
1002
{
1000
#$AUX@_ToolInfo Properties
1070
     8
1000
CMD_POLYLINE@
1002
}
  0
LWPOLYLINE
  5
FA
330
1F
100
AcDbEntity
  8
0
  6
Continuous
 62
     5
420
      255
370
     0
100
AcDbPolyline
 90
        3
 70
   128
 43
0.0
 10
-505.3286726110598
 20
48.3999766002767
 10
-495.2782138720722
 20
48.3999766002767
 10
-497.8461724926065
 20
49.24120442424491
1001
TCAD
1000
TCW_CUSTOM_DATA
1002
{
1000
#$AUX@_ToolInfo Properties
1070
     8
1000
CMD_POLYLINE@
1002
}
  0
LWPOLYLINE
  5
FB
330
1F
100
AcDbEntity
  8
0
  6
Continuous
 62
     5
420
      255
370
     0
100
AcDbPolyline
 90
        3
 70
   128
 43
0.0
 10
-474.2917934214993
 20
47.55874877630849
 10
-488.238465239918
 20
47.55874877630849
 10
-492.5331546570185
 20
48.93127838383548
1001
TCAD
1000
TCW_CUSTOM_DATA
1002
{
1000
#$AUX@_ToolInfo Properties
1070
     8
1000
CMD_POLYLINE@
1002
}
  0
LINE
  5
FC
330
1F
100
AcDbEntity
  8
0
  6
Continuous
 62
     5
420
      255
370
     0
100
AcDbLine
 10
-497.8080335514544
 20
49.22204055807406
 30
0.0
 11
-505.2360629654065
 21
49.22204055807406
 31
0.0
1001
TCAD
1000
TCW_CUSTOM_DATA
1002
{
1000
#$AUX@_ToolInfo Properties
1070
     8
1000
CMD_LINE@
1002
}
  0
MTEXT
  5
FE
330
1F
100
AcDbEntity
  8
0
  6
Continuous
 62
     7
100
AcDbMText
 10
-296.9829882717206
 20
53.28666341586448
 30
0.0
 40
3.522528076171875
 41
60.20518770813942
 71
     1
 72
     1
  1
{SPRINGER    OSZTБLYЪ \PTOLУHAJУ R/C Modellje\PM1:1\PSRY MODELL 2008\Pfile: walrus06.tcw\PA/4 -ben nyomtathatу}
  7
_TCW_TXTSTY_12
 73
     1
 44
1.0
1001
TCAD
1000
TCW40_TEXT
1002
{
1000
Times New Roman
1070
     0
1070
   257
1002
}
1000
TCW_CUSTOM_DATA
1002
{
1000
#$AUX@_ToolInfo Properties
1070
     8
1000
CMD_TEXT@
1002
}
  0
LWPOLYLINE
  5
FF
330
1F
100
AcDbEntity
  8
0
  6
Continuous
 62
     7
370
     0
100
AcDbPolyline
 90
        4
 70
   129
 43
0.0
 10
-298.780269040989
 20
55.47653206114975
 10
-236.2571312796345
 20
55.47653206114975
 10
-236.2571312796345
 20
18.8163789962592
 10
-298.780269040989
 20
18.8163789962592
1001
TCAD
1000
TCW_CUSTOM_DATA
1002
{
1000
#$AUX@_ToolInfo Properties
1070
     8
1000
CMD_RECTANGLE@
1002
}
  0
LINE
  5
100
330
1F
100
AcDbEntity
  8
0
  6
Continuous
 62
     7
370
     0
100
AcDbLine
 10
-296.7714935305839
 20
48.82246318293332
 30
0.0
 11
-238.2659067900395
 21
48.82246318293332
 31
0.0
1001
TCAD
1000
TCW_CUSTOM_DATA
1002
{
1000
#$AUX@_ToolInfo Properties
1070
     8
1000
CMD_LINE@
1002
}
  0
ENDSEC
  0
SECTION
  2
OBJECTS
  0
DICTIONARY
  5
C
330
0
100
AcDbDictionary
281
     1
  3
ACAD_GROUP
350
D
  3
ACAD_LAYOUT
350
1A
  3
ACAD_MLINESTYLE
350
17
  3
ACAD_PLOTSETTINGS
350
19
  3
ACAD_PLOTSTYLENAME
350
E
  0
DICTIONARY
  5
D
102
{ACAD_REACTORS
330
C
102
}
330
C
100
AcDbDictionary
281
     1
  0
DICTIONARY
  5
1A
102
{ACAD_REACTORS
330
C
102
}
330
C
100
AcDbDictionary
281
     1
  3
Model
350
22
  3
Paper 1
350
1E
  0
DICTIONARY
  5
17
102
{ACAD_REACTORS
330
C
102
}
330
C
100
AcDbDictionary
281
     1
  3
Standard
350
18
  0
DICTIONARY
  5
19
102
{ACAD_REACTORS
330
C
102
}
330
C
100
AcDbDictionary
281
     1
  0
ACDBDICTIONARYWDFLT
  5
E
102
{ACAD_REACTORS
330
C
102
}
330
C
100
AcDbDictionary
281
     1
  3
Normal
350
F
100
AcDbDictionaryWithDefault
340
F
  0
LAYOUT
  5
22
102
{ACAD_REACTORS
330
1A
102
}
330
1A
100
AcDbPlotSettings
  1

  2
none_device
  4

  6

 40
7.0
 41
7.0
 42
7.0
 43
7.0
 44
297.0
 45
210.0
 46
523.6488228331662
 47
-18.42481468557386
 48
0.0
 49
0.0
140
0.0
141
0.0
142
1.0
143
1.0
 70
  1712
 72
     1
 73
     0
 74
     0
  7

 75
     0
 76
     0
 77
     2
 78
   300
147
1.0
148
0.0
149
0.0
100
AcDbLayout
  1
Model
 70
     1
 71
     0
 10
-530.6488228331662
 20
11.42481468557386
 11
-233.6488228331662
 21
221.4248146855739
 12
0.0
 22
0.0
 32
0.0
 14
-530.6488228331662
 24
11.42481468557386
 34
0.0
 15
-233.6488228331662
 25
221.4248146855739
 35
0.0
146
0.0
 13
0.0
 23
0.0
 33
0.0
 16
1.0
 26
0.0
 36
0.0
 17
0.0
 27
1.0
 37
0.0
 76
     0
330
1F
  0
LAYOUT
  5
1E
102
{ACAD_REACTORS
330
1A
102
}
330
1A
100
AcDbPlotSettings
  1

  2
none_device
  4

  6

 40
7.0
 41
7.0
 42
7.0
 43
7.0
 44
297.0
 45
210.0
 46
-7.0
 47
-7.0
 48
0.0
 49
0.0
140
0.0
141
0.0
142
1.0
143
1.0
 70
   688
 72
     1
 73
     0
 74
     5
  7

 75
    16
 76
     0
 77
     2
 78
   300
147
1.0
148
0.0
149
0.0
100
AcDbLayout
  1
Paper 1
 70
     1
 71
     1
 10
0.0
 20
0.0
 11
297.0
 21
210.0
 12
0.0
 22
0.0
 32
0.0
 14
0.0
 24
0.0
 34
0.0
 15
297.0
 25
210.0
 35
0.0
146
0.0
 13
0.0
 23
0.0
 33
0.0
 16
1.0
 26
0.0
 36
0.0
 17
0.0
 27
1.0
 37
0.0
 76
     0
330
1B
  0
MLINESTYLE
  5
18
102
{ACAD_REACTORS
330
17
102
}
330
17
100
AcDbMlineStyle
  2
Standard
 70
     0
  3

 62
   256
 51
90.0
 52
90.0
 71
     5
 49
0.5
 62
   256
  6
BYLAYER
 49
-0.5
 62
   256
  6
BYLAYER
 49
0.25
 62
     7
  6
BYLAYER
 49
0.0
 62
     7
  6
BYLAYER
 49
-0.25
 62
     7
  6
BYLAYER
  0
ACDBPLACEHOLDER
  5
F
102
{ACAD_REACTORS
330
E
102
}
330
E
  0
ENDSEC
  0
SECTION
  2
THUMBNAILIMAGE
 90
    16364
310
28000000B40000005500000001000800000000000000000000000000000000000000000000000000FFFFFF000000FF0000FFFF0000FF0000FFFF0000FF000000FF00FF000000000080808000C0C0C0000000FF007F7FFF000000A5005252A50000007F003F3F7F0000004C0026264C000000260013132600003FFF007F9FFF
310
000029A5005267A500001F7F003F4F7F0000134C00262F4C000009260013172600007FFF007FBFFF000052A500527CA500003F7F003F5F7F0000264C0026394C0000132600131C260000BFFF007FDFFF00007CA5005291A500005F7F003F6F7F0000394C0026424C00001C26001321260000FFFF007FFFFF0000A5A50052A5
310
A500007F7F003F7F7F00004C4C00264C4C00002626001326260000FFBF007FFFDF0000A57C0052A59100007F5F003F7F6F00004C3900264C420000261C001326210000FF7F007FFFBF0000A5520052A57C00007F3F003F7F5F00004C2600264C39000026130013261C0000FF3F007FFF9F0000A5290052A56700007F1F003F
310
7F4F00004C1300264C2F00002609001326170000FF00007FFF7F0000A5000052A55200007F00003F7F3F00004C0000264C260000260000132613003FFF00009FFF7F0029A5000067A552001F7F00004F7F3F00134C00002F4C260009260000172613007FFF0000BFFF7F0052A500007CA552003F7F00005F7F3F00264C0000
310
394C2600132600001C261300BFFF0000DFFF7F007CA5000091A552005F7F00006F7F3F00394C0000424C26001C26000021261300FFFF0000FFFF7F00A5A50000A5A552007F7F00007F7F3F004C4C00004C4C26002626000026261300FFBF0000FFDF7F00A57C0000A59152007F5F00007F6F3F004C3900004C422600261C00
310
0026211300FF7F0000FFBF7F00A5520000A57C52007F3F00007F5F3F004C2600004C39260026130000261C1300FF3F0000FF9F7F00A5290000A56752007F1F00007F4F3F004C1300004C2F26002609000026171300FF000000FF7F7F00A5000000A55252007F0000007F3F3F004C0000004C2626002600000026131300FF00
310
3F00FF7F9F00A5002900A55267007F001F007F3F4F004C0013004C262F002600090026131700FF007F00FF7FBF00A5005200A5527C007F003F007F3F5F004C0026004C2639002600130026131C00FF00BF00FF7FDF00A5007C00A55291007F005F007F3F6F004C0039004C26420026001C0026132100FF00FF00FF7FFF00A5
310
00A500A552A5007F007F007F3F7F004C004C004C264C002600260026132600BF00FF00DF7FFF007C00A5009152A5005F007F006F3F7F0039004C0042264C001C002600211326007F00FF00BF7FFF005200A5007C52A5003F007F005F3F7F0026004C0039264C00130026001C1326003F00FF009F7FFF002900A5006752A500
310
1F007F004F3F7F0013004C002F264C000900260017132600000000002D2D2D005B5B5B0089898900B7B7B700B3B3B30000000000000000000000000000000000000000000000000000000000000007070707070707070707070707070707070707070707070707070707070707070707070707070707070707070707070707
310
07070707070707070707070707070707070707070707070707070707070707070707070707070707070707070707070707070707070707070707070707070707070707070707070700000000000000000000000000000000000000000000000000000000000000000000000000000000000000000000000000000000000000
310
00000000070000000000000000000000000000000000000000000000000000000000000000000000000000000000000000000000000000000000000000000000000000000000000000000000000000000000000000000000000000000000000007070707070707070707070707070707070707070707070707070707070000
310
00000000000000000000000000000000000000000000000000000000000000000000000000000000000000000000000000000000000000000007000000000000000000000000000000000000000000000000000000000000000000000000000000000000000000000000000000000000000000000000000000000000000000
310
00000000000000000000000000000000000000000000070707070707070707070707070707070707070707070000000000070700000000000000000000000000000000000000000000000000000000000000000000000000000000000000000000000000000000000000000000000700000000000000000000000000000000
310
00000000000000000000000000000000000000000000000000000000000000000000000000000000000000000000000000000000000000000000000000000000000000000000000000000007000707070007070707070707070707070707070707000000000007070000000000000000000000000000000000000000000000
310
00000000000000000000000000000000000000000000000000000000000000000000000007000707070707070707070707070707070707070707070707070707070707070707070707070707070707070707070707070707070707070707070707070707070707070707070707070707070700000000000000000000000000
310
00070707070707070707070707070707070707000000000000000000070700000000000000000000000000000000000000000000000000000000000000000000000000000000000000000000000000000000000000000000000700070007070000000000000000000000000000000000000000000000000000000000000000
310
07070707000000000000000000000000000000000000000000000000000000000000000000070707000000000000000000000000000007070707070707070707070707070707070700000000000000000007070000000000000000000000000000000000000000000000000000000000000000000000000000000000000000
310
00000000000000000000000000000007000700000000000000000000000000000000000000000000000000000000000000000000000707070700000000000000000000000000000000000000000000000000000000000000000000000700000000000000000000000000000700070700000000070000000707000000000000
310
00000000000000070700000000000000000000000000000000000000000000000000000000000000000000000000000000000000000000000000000000000000000000000700070000000000000000000000000000000000000707070707070707070707070707070707070707070707070707070707070707070707070707
310
07070707070707070707070707070700000007000000000000000000000000000007070707070707070707070707070707070707070700000000000007070000000000000000000000000000000000000000000000000000000000000000000000000000000000000000000000000000000000000000000000070007000000
310
00000000000000000000000000000007070700000000000000000000000000000000000000000000070707000000000000000000000000000000000000000000070700070000000700000000000000000000000000000707070707070707070707070707070707070707070000000000000707000000000000000000000000
310
00000000000000000000000000000000000000000000000000000000000000000000000000000000000000000000000700070000000000000000000000000000000000000700000000000000000000000000000000000000000000000007070700000000000000000000000000000000000000070707070707070707070707
310
07070000000000000000000007070707070707000000000000000000000000000000000000000007070000000000000000000000000000000000000000000000000000000000000000000000000000000000000000000000000000000000000000000000070007000000000000000000000000000000000000070000000000
310
00070707070707070707070707070707070707070707070707070707070707070707070707070707070707070707070707000700000000000000000000000000000707070707070700000000000000000000000000000000000000000707000000000000000000000000000000000000000000000000000000000000000000
310
00000000000000000000000000000000000000000000000000000700070000000000000000000000000000000000000700000000000007070700000000000000000000000000000000000007070700000000000000000000000000000000000007070007000000070000000000000000000000000000070707070707070000
310
00000000000000000000000000000007000007070000000000000000000000000000000000000000000000000000000000000000000000000000000000000000000000000000000000000000000000070007000000000000000000000000000000000000070000000000000700000000000000000000000000000000000000
310
00070707070000000000000000000000000000000000000000070000000700000000000000000000000000000700070707070707070707070707070707070707070707070707070707000000000000000000000000000000000000000000000000000000000000000000000000000000000000000000000000000000000000
310
00000000000700070505050505050505050505050505050707070707070707070707070707070707070707070707070707070707070707070707070707070707070707070707070707070707070707070707070707070707070707000000000000070707070707070707070707070707070707070707070707070707070700
310
00000000000000000000000000000000000000000000000000000000000000000000000000000000000000000000000000000000000000000000070007050505050505050505050505050505000000000000000000000000000000000000000000000000000000000000000000000000000000000000000000000000000000
310
00000000000000000700000000000000070000000000000707070707070707070707070707070707070707070707070707070707000000000000000000000000000000000000000000000000000000000000000000000000000000000000000000000000000000000000000000000007000700050505050500050500050505
310
00000000000000000000000000000000000000000000000000000000000000000000000000000000000000000000000000000000000000000000000000070000000000000007000000000000070707070707070707070707070007070707070707070707070707070700000000000000000000000000000000000000000000
310
00000000000000000000000000000000000000000000000000000000000000000000000000070007000505050500000500000005050000000000000000000000000000000000000000000000000000000000000000000000000000000000000000000000000000000000000000000000000007000000000000000700000005
310
05050707070707070707070707070705070707070707070707070707000707000000000000000000000000000000000000000000000000000000000000000000000000000000000000000000000000000000000000000000000007000700050505050000050000050505000000000000000000000000070101010101010101
310
01010101010101010101010101010101010101010101010101010101010101010101010107000000070707070700000007000000050505070707070707070707070707070707070707070707070707070707070700000000000000000000000000000000000000000000000000000000000000000000000000000000000000
310
00000000000000000000000000000000070007000500000505000500000505050000000000000000000000070000000000000000000000000000000000000000000000000000000000000000000000000000000000000000000700000007000007070000000700000005050505050505050500000505000000050505050005
310
00000000000000000007000000000000000000000000000000000000000000000000000000000000000000000000000000000000000000000000000000000000000000000007000705050505050505050505050505050000000000000000000700000000000000000000000000000000000000000000000000000000000000
310
00000000000000000000000000000007000000070000070700000007000000050505050505050505050505050505050505050505050505050505050500000700000000000000000000000000000000000000000000000000000000000000000000000000000000000000000000000000000000000000000000000700070005
310
05050505050505050505050500000000000000000700000000000000000000000000000000000000000000000000000000000000000000000000000000000000000000000700000007000000070000000700000005050505050505050505050505050505050505050505050505050505050000070000000000000000000000
310
00000000000000000000000000000000000000000000000000000000000000000000000000000000000000000000000007000705050005050500050505000005050000000000000007000000000000000000000000000000000000000000000000000000000000000000000000000000000000000000000000070000000700
310
00000700000007000000050505050505000505000005050000000505050500000005000505050500000700000000000000000000000000000000000000000000000000000000000000000000000000000000000000000000000000000000000000000000000700070000050500000000000000000000000000000000070000
310
00000000000000000000000000000000000000000000000000000000000000000000000000000000000000000000000700000007000000070000000700000005050505050505050500000000000000000000000000000000000000000000070000000000000000000000000000000000000000000000000000000000000000
310
00000000000000000000000000000000000000000000000000000007000700050505050500000000000000000000000000070000000000000000000000000000000000000000000000000000000000000000000000000000000000000000000000000000070000000700000007000000070000000505050505050505050000
310
00000000000000000000000000000000000000000700000000000000000000000000000000000000000000000000000000000000000000000000000000000000000000000000000000000000000000000700070005050505050000000707070707070707000700000000000000000000000000000000000000000000000000
310
00000000000000000000000000000000000000000000000000000700000007000000070000000700000005050505050505050505050505050505050505050505050500000000000000070000000000000000000000000000000000000000000000000000000000000000000000000000000000000000000000000000000000
310
00000000000007000700050505050500000007000000000000000007000000000000000000000000000000000000000000000000000000000000000000000000000000000000000000000000000000070000000700000007000000070000000505050005050505050505050505050505050505050505050000000000000007
310
00000000000000000000000000000000000000000000000000000000000000000000000000000000000000000000000000000000000000000000000700070000050005050000000707000000000000000700000000000000000000000000000000000000000000000000000000000000000000000000000000000000000000
310
00000000000700000007000000070000000700000005050505050505050500000505000500050505000005050000000000000000070000000000000000000000000000000000000000000000000000000000000000000000000000000000000000000000000000000000000000000000070007000005050000000000070000
310
00000000000007000000000000000000000000000000000000000000000000000000000000000000000000000000000000000000000000000000070000000700000007000000070000000505050505050505050505050505050505050505050505050505050505050507000000000000000000000000000000000000000000
310
00000000000000000000000000000000000000000000000000000000000000000000000000000700070505050505050505070707050505050505050705050505050505050505050705050505050505050505050505050505050505050505050505050505050505050505050505050507050505070007070707000707070000
310
05050505050505050505050505050505050505050505050505050505050505070000000000000000000000000000000000000000000000000000000000000000000000000000000000000000000000000000000000000000000000070007000000000000000000070700000000000000070000000000000000000000070000
310
00000000000000000000000000000000000000000000000000000000000000000000000000070000000700070707070007070700000505050505050505050505050505050505050505050505050505050505050507000000000000000000000000000000000000000000000000000000000000000000000000000000000000
310
00000000000000000000000000000000000700070000000000000000000700000000000000000700000000000000000000000000000000000000000000000000000000000000000000000000000000000000000000000000000007000000070000000700000007000000050505050505050505050505050505050505050505
310
05050505050505050505070000000000000000000000000000000000000000000000000000000000000000000000000000000000000000000000000000000000000000000000070007000000000000000000070700000000000000070000000000000000000000000000000000000000000000000000000000000000000000
310
00000000000000000000000000000000070000000700000007000000070000000505050505050505050000050500050005050500000505000005050005050507000000000000000000000000000000000000000000000000000000000000000000000000000000000000000000000000000000000000000000000007000700
310
00000000000000000700000000000000000700000000000000000000000000000000000000000000000000000000000000000000000000000000000000000000000000000007000000070000000700000007000000050505050505050505050505050505050505050505050505050505050505000700000000000000000000
310
00000000000000000000000000000000000000000000000000000000000000000000000000000000000000000000000000070007000000000000000000070707070707070700070000000000000000000000000000000000000000000000000000000000000000000000000000000000000000000005050000000700000007
310
00000007000000070000000505050505050505050505050505050505050505050505050505050505050007000000000000000000000000000000000000000000000000000000000000000000000000000000000000000000000000000000000000000000000007000700000000000000000000000000000000000000070000
310
00000000000000000000000000000000000000000000000000000000000000000000000000000000000005050505050007000000070000000700000007000000050505050505050505050505050505050505050505050505050000000000000700000000000000000000000000000000000000000000000000000000000000
310
00000000000000000000000000000000000000000000000000000000070007000000000000000000000000000000000000000007000000000000000000000000000000000000000000000000000000000000000000000000000000000000050005050505000700000007000000070000000700000005050505050505050505
310
05050505050505050505050505050500000000000007000000000000000000000000000000000000000000000000000000000000000000000000000000000000000000000000000000000000000000000007000700000000000000000000000000000000000000000007000000000000000000000000000000000000000000
310
00000000000000000000000000000000000000000005050505050007000000070000000700000007000000050505050505050505000505050500000505050505050505050000000000000700000000000000000000000000000000000000000000000000000000000000000000000000000000000000000000000000000000
310
00000000000000070007000000000000000000000000000000000000000000000700000000000000000000000000000000000000000000000000000000000000000000000000000000000500000505000700000007000000070000000700000005050500050505050505050505000000000000000000000000000000000000
310
07000000000000000000000000000000000000000000000000000000000000000000000000000000000000000000000000000000000000000000000007000700000000000000000000000000000000000000000000000700000000000000000000000000000000000000000000000000000000000000000000000000000000
310
00050500000007000000070000070700000007000000050505000505050505050505000000000000000000000000000000000000000700000000000000000000000000000000000000000000000000000000000000000000000000000000000000000000000000000000000000000000000700070000000000000000000000
310
00000000000000000000000000070000000000000000000000000000000000000000000000000000000000000000000000000000000000000000000700000007000007070000000700000005000500050500050505000000000000000000000000000000000000000000070000000000000000000000000000000000000000
310
00000000000000000000000000000000000000000000000000000000000000000000000000000007000700000000000000000000000000000000000000000000000000070101010101010101010101010101010101010101010101010101010101010101010101010101010101010101070000000707070707000000070000
310
00000000000000000000000000000000000000000000000000000000000000000700000000000000000000000000000000000000000000000000000000000000000000000000000000000000000000000000000000000000000000000700070000000000000000000000000000000000000000000000000000000000000000
310
00000000000000000000000000000000000000000000000000000000000000000000000000000000000007000000000000000700000000000000000000000000000000000000000000000000000000000000000000070000000000000000000000000000000000000000000000000000000000000000000000000000000000
310
00000000000000000000000000000000000007000700000000000000000000000000000000000000000000000000000000000000000000000000000000000000000000000000000000000000000000000000000000000000000000000000000700000000000000070000000000000000000000000000000000000000000000
310
00000000000000000000000700000000000000000000000000000000000000000000000000000000000000000000000000000000000000000000000000000000000000000000000700070000000000000000000000000000000000000000000000000000000000000000000000000000000000000000000000000000000000
310
00000000000000000000000000000000000000000007000000000000000700000000000000000000000000000000000000000000000000000000000000000000070000000000000000000000000000000000000000000000000000000000000000000000000000000000000000000000000000000000000000000000070007
310
07070707070707070707070707070707070707070707070707070707070707070707070707070707070707070707070707070707070707070707070707070707070707070707070707070707070707070707070000000000000000000000000000000000000000000000000000000000000000000007000000000000000000
310
00000000000000000000000000000000000000000000000000000000000000000000000000000000000000000000000000000700000000000000000000000000000000000000000000000000000000000000000000000000000000000000000000000000000000000000000000000000000000000000000000000000000000
310
00000000000000000000000000000000000000000000000000000000000000000000000000000000000000070000000000000000000000000000000000000000000000000000000000000000000000000000000000000000000000000000000000000000000000070000000000000000000000000000000000000000000000
310
00000000000000000000000000000000000000000000000000000000000000000000000000000000000000000000000000000000000000000000000000000000000000000000000000000000000000000000000000000000000000000000000007000000000000000000000000000000000000000000000000000000000000
310
00000000000000000000000000000000000000000000000000000000000700000000000000000000000000000000000000000000000000000000000000000000000000000000000000000000000000000000000000000000000000000000000000000000000000000000000000000000000000000000000000000000000000
310
00000000000000000000000000000000000000000000070000000000000000000000000000000000000000000000000000000000000000000000000000000000000000000000000000000000000000000000070000000000000000000000000000000000000000000000000000000000050505050505050505050505050500
310
00000000000000000000000000000000000000000000000000000000000000000000000000000000000000000000000000000000000000000000000000000000000000000000000000000007000000000000000000000000000000000000000000000000000000000000000000000000000000000000000000000000000000
310
00000000000000000700000000000000000000000000000000000000000000000000000000000707070707070707070707070707070707070707070707070707070707070707070707070707070707070707070707070707070707070707070707070707070707070707070707070707070707070707070707070707070707
310
07070000000000000000000000000000000000000000000000000000000000000000000000000000000000000000000000000000000000000000000000070000000000000000000000000000000000000000000000000505000000070007070700000000000000000000000000000000000000000000000000000000000000
310
00000000000000000000000000000000000000000000000000000000000000000000000000000000000000000000000000000000000707000000000000000000000000000000000000000000000000000000000000000000000000000000000000000000000000000000000000000000000007000000000000000000000000
310
00000000000000000000000505050505000700070700000000000000000000000000000000000000000000000000000000000000000000000000000000000000000000000000000000000000000000000000000007070707070707070707070707070707070707070707070700000000000000000000000000000000000000
310
00000000000000000000000000000000000000000000000000000000000000000000000000000000070000000000000000000000000000000000000000000000050505050500070000070000000000000000000000000000000000000007070707070707070707070707070707070707070707070707070707070707070707
310
07070707070707070707000000000000000000000000000000000000000000000707000000000000000000000000000000000000000000000000000000000000000000000000000000000000000000000000000000000000000000000007000000000000000000000000000000000000000000000005050505050007070707
310
07070707070707070707070707070707070707000000000000000000000000000000000000000000000000000000000000000000000000000000000000000000000000000000000000000000000000000000000000070700000000000000000000000000000000000000000000000000000000000000000000000000000000
310
00000000000000000000000000000000000000070000000000000000000000000000000000000000000000000500050500070000000000000000000000000000000000000000000000000000000000000000000000000000000000000000000000000000000000000000000000000000000000000000000000000000000000
310
00000000000000000000000707000000000000000000000000000000000000000000000000000000000000000000000000000000000000000000000000000000000000000000000007000000000000000000000000000000000000000000000000050500000007070707070707070707070707070707070707070707070707
310
07070707070707070707070707070707070707070707070707070707070707070707070707070707070707070707070707070707070707070707070707070707070700000000000000000000000000000000000000000000000000000000000000000000000000000000000000000000000000000000000000000000000700
310
00000000000000000000000000000000000000000000000000000000000000000000000000000000000000000000000000000000000000000000000000000000000000000000000000000000000000000000000000000000000000000000000000000000000000000000000000000000000000000000070000000000000000
310
00000000000000000000000000000000000000000000000000000000000000000000000000000000000000000000000000000007000000000000000000000000000000000000000000000000000000000000000000000000000000000000000000000000000000000000000000000000000000000000000000000000000000
310
00000000000000000000000000000000000000000000000000000000000000000000000000000000000000000700000000000000000000000000000000000000000000000000000000000000000000000000000000000000000000000000000000000000000000000700000000000000000000000000000000000000000000
310
00000000000000000000000000000000000000000000000000000000000000000000000000000000000000000000000000000000000000000000000000000000000000000000000000000000000000000000000000000000000000000000000000070000000000000000000000000000000000000000000000000000000000
310
00000000000000000000000000000000000000000000000000000000000007000000000000000000000000000000000000000000000000000000000505050505050505050505050505050000000000000000000000000000000000000000000000000000000000000000000000000000000000000000000000000000000000
310
00000000000000000000000000000000000000000000000700000000000000000000000000000000000000000000000000000000000000000000000000000000000000000000000000000000000000000000000700000000000000000000000000000000000000000000000000000000050505050505050505050505050505
310
00000000000000000000000000000000000000000000000000000000000000000000000000000000000000000000000000000000000000000000000000000000000000000000000000000000070000000000000000000000000000000000000000000000000000000000000000000000000000000000000000000000000000
310
00000000000000000007000000000000000000000000000000000000000000000000000505000707070707070707070707070707070707070707070707070707070707070707070707070707070707070707070707070707070707070707070707070707070707070707070707070707070707070707070707070707070707
310
07070700000000000000000000000000000000000000000000000000000000000000000000000000000000000000000000000000000000000000000000000700000000000000000000000000000000000000000000000005000005050707070707070707070707070707070707070707070700000000000000000000000000
310
00000000000000000000000000000000000000000000000000000000000000000000000000000000000000000000000000070707000007070000000000000000000000000000000000000000000000000000000000000000000000000000000000000000000000000000000000000000000000070000000000000000000000
310
00000000000000000000000000050505050500000000000000000000000000000000000000000000070707070707070707070707070707070707070707070707070707070707070707070707070707070707070707000000000000000000000000000000000000070000000707000000000000000000000000000000000000
310
00000000000000000000000000000000000000000000000000000000000000000000000000000000000700000000000000000000000000000000000000000000000505050500050000000000000000000000000000000000000000000000000000000000000000000000000000000000000000000000000000000000000000
310
00000000000000000000000707070707070707070707070707070707070707070707070000000000000000000000000000000000000000000000000000000000000000000000000000000000000000000000000000000000000000000000070000000000050505050505050505050505050500000000000505050505000000
310
00000000000000000000000000000000000000000000000000000000000000000000000000000000000000000000000000000000000000000000000000000000000000000000000000000000000000000000000000000707000000000000000000000000000000000000000000000000000000000000000000000000000000
310
00000000000000000000000000000000000000000700000000000505050505050505050505050505070707070707050500070000000000000000000000000000000000000000000000000000000000000000000000000000000000000000000000000000000000000000000000000000000000000000000000000000000000
310
00000000000000000000000007070000000000000000000000000000000000000000000000000000000000000000000000000000000000000000000000000000000000000000000000070005050000070000000000000000000000000000000707000700000007070707070707070707070707070707070707070707070707
310
07070707070707070707070707070707070707070707070707070707070707070707070707070707070707070707070707070707070707070707070707070707070707000000000000000000000000000000000000000000000000000000000000000000000000000000000000000000000000000000000000000000000007
310
05050505050700000000000000000000000000000007070007000000000000000000000000000000000000000000000000000000000000000000000000000000000000000000000000000000000000000000000000000000000000000000000000000000000000000000000000000000000000000000000700000000000000
310
00000000000000000000000000000000000000000000000000000000000000000000000000000000000000000000000000000000050505050505070000000000000000000000000000000007000700000000000000000000000000000000000000000000000000000000000000000000000000000000000000000000000000
310
00000000000000000000000000000000000000000000000000000000000000000000000000000000000000000007000000000000000000000000000000000000000000000000000000000000000000000000000000000000000000000000000000000000000000000007050505050507070707070707070707070707070707
310
07070707000000000000000000000000000000000000000000000000000000000000000000000000000000000000000000000000000000000000000000000000000000000000000000000000000000000000000000000000000000000000000000000700000000000000000000000000000000000000000000000000000000
310
00000000000000000000000000000000000000000000000000000000000000070500000505070000000000000000000000000000000000000700000000000000000000000000000000000000000000000000000000000000000000000000000000000000000000000000000000000000000000000000000000000000000000
310
00000000000000000000000000000000000000000000000007000000000000000000000000000000000000000000000000000000000000000000000000000000000000000000000000000000000000000000000007000505000007070707070707070707070707070707070707070000000000000000000000000000000000
310
00000000000000000000000000000000000000000000000000000000000000000000000000000000000000000000000000000000000000000000000000000000000000000000000000000000000700000000000000000000000000000000000000000000000000000000000000000000000000000000000000000000000000
310
00000000000000000000070000000000000000000000000000000000000000000000000000000000000000000000000000000000000000000000000000000000000000000000000000000000000000000000000000000000000000000000000000000000000000000000000000000000000000000000000000000000000000
310
00000007000000000000000000000000000000000000000000000000000000000000000000000000000000000000000000000000000000000000000000000007000000000000000505050505050505050505050505000000000000000000000000000000000000000000000000000000000000000000000000000000000000
310
00050505050505050505050505050500000000000000000000000000000000000000050505050505050505050505050500000000000000000700000000000000000000000000000000000000000000000000000000000000000000000000000000000000000000000000000000000000000000000700000000000000050505
310
05050505050505050505050000000000000000000000000000000000000000000000000000000000000000000000000000000000000005050505050505050505050505050507070707070000000000000000000000000007070707070707070707070707070707070707070000070000000000000000000000000000000000
310
00000000000000000000000000000000000000000000000000000000000000000000000000000000000007000005050000000707070707070707070707070707070707070707070707070707070707070707070707070707070707070707000000000000000000050500000707070700000000000000000000000000000007
310
00000000000000000005050000070707070000000000000000000000000000000700000700000000000000000000000000000000000000000000000000000000000000000000000000000000000000000000000000000000000000000000000700000500050500070707070707070707070707070707070707070707070707
310
07070707070707070707070707070707070707070000000000000000050505050507070700000000000000000000000000000000070000000000000000050505050507070700000000000000000000000000000000070000070000000000000000000000000000000000000000000000000000000000000000000000000000
310
00000000000000000000000000000000000000000007000505050505000700000000000000000000000000000000000000000000000000000000000000000000000000000000000007000000000000000500050505050700070000000000000000000000000000000007000000000000000505050505050700070000000000
310
00000000000000000000000700000700000000000000000000000000000000000000000000000000000000000000000000000000000000000000000000000000000000000000000000000700050505050500070000000000000000000000000000000000000000000000000000000000000000000000000000000000000700
310
00000000000000050505050507070707070707070707070707070707070707070000000000000000050505050507070707070707070707070707070707070707070000070000000000000000000000000000000000000000000000000000000000000000000000000000000000000000000000000000000000000000000000
310
07000505050505000700000000000000000000000000000000000000000000000000000000000000000000000000000000000007000000000000000005000005050700000000000000000000000000000000000007000000000000000005000005050700000000000000000000000000000000000007000007000000000000
310
00000000000000000000000000000000000000000000000000000000000000000000000000000000000000000000000000000000000700000505000000070707070707070707070707070707070707070707070707070707070707070707070707070707070707070700000000000000000005050000070707070707070707
310
07070707070707070707070000000000000000000505000007070707070707070707070707070707070707070000070000000000000000000000000000000000000000000000000000000000000000000000000000000000000000000000000000000000000000000000070000000000000000000000000000000000000000
310
00000000000000000000000000000000000000000000000000000000000000000000000000000000000000000000000000000000000000000000000000000000000000000000000000000000000000000000000000000000000000000000000000000007000000000000000000000000000000000000000000000000000000
310
00000000000000000000000000000000000000000000000000000000000000000707070707070707070707070707070707070707070707070707070707070707070707070707070707070707070707070707070707070707070707070707070707070707070707070707070707070707070707070707070707070707070707
310
07070707070707070707070707070707070707070707070707070000000000000000000000000000000000000000000000000000000000000000000000000000000000000000000000000000000000000000000000000000000000000000000000000000000000000000000000000000000000000000000000000000000000
310
000000000000000000000000000000000000000000000000000000000000000000000000000000000000000000000000000000000000000000000000000000000000000000000000000000000000000000000000000000000000000000000000000000000000000000000000
  0
ENDSEC
  0
EOF
