  0
SECTION
  2
HEADER
  9
$ACADVER
  1
AC1018
  9
$ACADMAINTVER
 70
     0
  9
$DWGCODEPAGE
  3
ANSI_1251
  9
$INSBASE
 10
0.0
 20
0.0
 30
0.0
  9
$EXTMIN
 10
-530.6488228331662
 20
11.42481468557386
 30
0.0
  9
$EXTMAX
 10
-233.6488228331662
 20
221.4248146855739
 30
0.0
  9
$LIMMIN
 10
-530.6488228331662
 20
11.42481468557386
  9
$LIMMAX
 10
-233.6488228331662
 20
221.4248146855739
  9
$ORTHOMODE
 70
     0
  9
$REGENMODE
 70
     1
  9
$FILLMODE
 70
     1
  9
$QTEXTMODE
 70
     0
  9
$MIRRTEXT
 70
     0
  9
$LTSCALE
 40
1.0
  9
$ATTMODE
 70
     1
  9
$TEXTSIZE
 40
12.69999980926514
  9
$TRACEWID
 40
1.0
  9
$TEXTSTYLE
  7
STANDARD
  9
$CLAYER
  8
0
  9
$CELTYPE
  6
ByLayer
  9
$CECOLOR
 62
     7
  9
$CELTSCALE
 40
1.0
  9
$DISPSILH
 70
     0
  9
$DIMSCALE
 40
1.0
  9
$DIMASZ
 40
5.0
  9
$DIMEXO
 40
0.0625
  9
$DIMDLI
 40
0.375
  9
$DIMRND
 40
0.01
  9
$DIMDLE
 40
0.0
  9
$DIMEXE
 40
0.125
  9
$DIMTP
 40
0.0
  9
$DIMTM
 40
0.0
  9
$DIMTXT
 40
3.0
  9
$DIMCEN
 40
0.09
  9
$DIMTSZ
 40
0.0
  9
$DIMTOL
 70
     0
  9
$DIMLIM
 70
     0
  9
$DIMTIH
 70
     1
  9
$DIMTOH
 70
     1
  9
$DIMSE1
 70
     0
  9
$DIMSE2
 70
     0
  9
$DIMTAD
 70
     1
  9
$DIMZIN
 70
     3
  9
$DIMBLK
  1

  9
$DIMASO
 70
     1
  9
$DIMSHO
 70
     1
  9
$DIMPOST
  1
mm
  9
$DIMAPOST
  1

  9
$DIMALT
 70
     0
  9
$DIMALTD
 70
     2
  9
$DIMALTF
 40
1.0
  9
$DIMLFAC
 40
1.0
  9
$DIMTOFL
 70
     1
  9
$DIMTVP
 40
0.0
  9
$DIMTIX
 70
     0
  9
$DIMSOXD
 70
     0
  9
$DIMSAH
 70
     0
  9
$DIMBLK1
  1

  9
$DIMBLK2
  1

  9
$DIMSTYLE
  2
Standard
  9
$DIMCLRD
 70
     7
  9
$DIMCLRE
 70
     7
  9
$DIMCLRT
 70
     7
  9
$DIMTFAC
 40
1.0
  9
$DIMGAP
 40
0.0625
  9
$DIMJUST
 70
     0
  9
$DIMSD1
 70
     0
  9
$DIMSD2
 70
     0
  9
$DIMTOLJ
 70
     1
  9
$DIMTZIN
 70
     0
  9
$DIMALTZ
 70
     3
  9
$DIMALTTZ
 70
     0
  9
$DIMUPT
 70
     0
  9
$DIMDEC
 70
     2
  9
$DIMTDEC
 70
     4
  9
$DIMALTU
 70
     2
  9
$DIMALTTD
 70
     2
  9
$DIMTXSTY
  7
_TCW_TXTSTY_1
  9
$DIMAUNIT
 70
     0
  9
$DIMADEC
 70
     2
  9
$DIMALTRND
 40
0.01
  9
$DIMAZIN
 70
     0
  9
$DIMDSEP
 70
    46
  9
$DIMATFIT
 70
     3
  9
$DIMFRAC
 70
     0
  9
$DIMLDRBLK
  1

  9
$DIMLUNIT
 70
     2
  9
$DIMLWD
 70
    -2
  9
$DIMLWE
 70
    -2
  9
$DIMTMOVE
 70
     0
  9
$LUNITS
 70
     2
  9
$LUPREC
 70
     2
  9
$SKETCHINC
 40
1.0
  9
$FILLETRAD
 40
1.0
  9
$AUNITS
 70
     0
  9
$AUPREC
 70
     2
  9
$MENU
  1
.
  9
$ELEVATION
 40
0.0
  9
$PELEVATION
 40
0.0
  9
$THICKNESS
 40
0.0
  9
$LIMCHECK
 70
     0
  9
$CHAMFERA
 40
0.5
  9
$CHAMFERB
 40
0.5
  9
$CHAMFERC
 40
1.0
  9
$CHAMFERD
 40
0.0
  9
$SKPOLY
 70
     0
  9
$TDCREATE
 40
2454518.410698056
  9
$TDUCREATE
 40
2454518.369031389
  9
$TDUPDATE
 40
2454518.410698067
  9
$TDUUPDATE
 40
2454518.3690314
  9
$TDINDWG
 40
0.0
  9
$TDUSRTIMER
 40
0.0
  9
$USRTIMER
 70
     1
  9
$ANGBASE
 50
0.0
  9
$ANGDIR
 70
     0
  9
$PDMODE
 70
     0
  9
$PDSIZE
 40
0.0
  9
$PLINEWID
 40
0.0
  9
$SPLFRAME
 70
     0
  9
$SPLINETYPE
 70
     6
  9
$SPLINESEGS
 70
    20
  9
$HANDSEED
  5
22C
  9
$SURFTAB1
 70
     6
  9
$SURFTAB2
 70
     6
  9
$SURFTYPE
 70
     6
  9
$SURFU
 70
     6
  9
$SURFV
 70
     6
  9
$UCSBASE
  2

  9
$UCSNAME
  2

  9
$UCSORG
 10
0.0
 20
0.0
 30
0.0
  9
$UCSXDIR
 10
1.0
 20
0.0
 30
0.0
  9
$UCSYDIR
 10
0.0
 20
1.0
 30
0.0
  9
$UCSORTHOREF
  2

  9
$UCSORTHOVIEW
 70
     0
  9
$UCSORGTOP
 10
0.0
 20
0.0
 30
0.0
  9
$UCSORGBOTTOM
 10
0.0
 20
0.0
 30
0.0
  9
$UCSORGLEFT
 10
0.0
 20
0.0
 30
0.0
  9
$UCSORGRIGHT
 10
0.0
 20
0.0
 30
0.0
  9
$UCSORGFRONT
 10
0.0
 20
0.0
 30
0.0
  9
$UCSORGBACK
 10
0.0
 20
0.0
 30
0.0
  9
$PUCSBASE
  2

  9
$PUCSNAME
  2

  9
$PUCSORG
 10
0.0
 20
0.0
 30
0.0
  9
$PUCSXDIR
 10
1.0
 20
0.0
 30
0.0
  9
$PUCSYDIR
 10
0.0
 20
1.0
 30
0.0
  9
$PUCSORTHOREF
  2

  9
$PUCSORTHOVIEW
 70
     0
  9
$PUCSORGTOP
 10
0.0
 20
0.0
 30
0.0
  9
$PUCSORGBOTTOM
 10
0.0
 20
0.0
 30
0.0
  9
$PUCSORGLEFT
 10
0.0
 20
0.0
 30
0.0
  9
$PUCSORGRIGHT
 10
0.0
 20
0.0
 30
0.0
  9
$PUCSORGFRONT
 10
0.0
 20
0.0
 30
0.0
  9
$PUCSORGBACK
 10
0.0
 20
0.0
 30
0.0
  9
$USERI1
 70
     0
  9
$USERI2
 70
     0
  9
$USERI3
 70
     0
  9
$USERI4
 70
     0
  9
$USERI5
 70
     0
  9
$USERR1
 40
0.0
  9
$USERR2
 40
0.0
  9
$USERR3
 40
0.0
  9
$USERR4
 40
0.0
  9
$USERR5
 40
0.0
  9
$WORLDVIEW
 70
     1
  9
$SHADEDGE
 70
     3
  9
$SHADEDIF
 70
    70
  9
$TILEMODE
 70
     1
  9
$MAXACTVP
 70
    64
  9
$PINSBASE
 10
0.0
 20
0.0
 30
0.0
  9
$PLIMCHECK
 70
     0
  9
$PEXTMIN
 10
0.0
 20
0.0
 30
0.0
  9
$PEXTMAX
 10
297.0
 20
210.0
 30
0.0
  9
$PLIMMIN
 10
0.0
 20
0.0
  9
$PLIMMAX
 10
297.0
 20
210.0
  9
$UNITMODE
 70
     0
  9
$VISRETAIN
 70
     1
  9
$PLINEGEN
 70
     0
  9
$PSLTSCALE
 70
     1
  9
$TREEDEPTH
 70
  3020
  9
$CMLSTYLE
  2
Standard
  9
$CMLJUST
 70
     0
  9
$CMLSCALE
 40
1.0
  9
$PROXYGRAPHICS
 70
     1
  9
$MEASUREMENT
 70
     0
  9
$CELWEIGHT
370
    -1
  9
$ENDCAPS
280
     0
  9
$JOINSTYLE
280
     0
  9
$LWDISPLAY
290
     0
  9
$INSUNITS
 70
     1
  9
$HYPERLINKBASE
  1

  9
$STYLESHEET
  1

  9
$XEDIT
290
     1
  9
$CEPSNTYPE
380
     0
  9
$PSTYLEMODE
290
     1
  9
$FINGERPRINTGUID
  2
{1B0ABE8C-F626-4132-A232-C6B890B03098}
  9
$VERSIONGUID
  2
{FAEB1C32-E019-11D5-929B-00C0DF256EC4}
  9
$EXTNAMES
290
     1
  9
$PSVPSCALE
 40
0.0
  9
$OLESTARTUP
290
     0
  9
$SORTENTS
280
   127
  9
$INDEXCTL
280
     0
  9
$HIDETEXT
280
     1
  9
$XCLIPFRAME
290
     0
  9
$HALOGAP
280
     0
  9
$OBSCOLOR
 70
   257
  9
$OBSLTYPE
280
     0
  9
$INTERSECTIONDISPLAY
280
     0
  9
$INTERSECTIONCOLOR
 70
   257
  9
$DIMASSOC
280
     2
  9
$PROJECTNAME
  1

  0
ENDSEC
  0
SECTION
  2
CLASSES
  0
CLASS
  1
ACDBDICTIONARYWDFLT
  2
AcDbDictionaryWithDefault
  3
ObjectDBX Classes
 90
        0
 91
        3
280
     0
281
     0
  0
ENDSEC
  0
SECTION
  2
TABLES
  0
TABLE
  2
VPORT
  5
8
330
0
100
AcDbSymbolTable
 70
     1
  0
VPORT
  5
29
330
8
100
AcDbSymbolTableRecord
100
AcDbViewportTableRecord
  2
*Active
 70
     0
 10
0.0
 20
0.0
 11
1.0
 21
1.0
 12
0.0
 22
0.0
 13
0.0
 23
0.0
 14
5.0
 24
5.0
 15
5.0
 25
5.0
 16
0.0
 26
0.0
 36
1.0
 17
-374.0169924838194
 27
112.7368916438844
 37
0.0
 40
196.8600000000001
 41
1.522959183673469
 42
50.0
 43
0.0
 44
0.0
 50
0.0
 51
0.0
 71
     0
 72
   100
 73
     1
 74
     3
 75
     0
 76
     1
 77
     0
 78
     0
281
     0
 65
     1
110
0.0
120
0.0
130
0.0
111
1.0
121
0.0
131
0.0
112
0.0
122
1.0
132
0.0
 79
     0
146
0.0
  0
ENDTAB
  0
TABLE
  2
LTYPE
  5
5
330
0
100
AcDbSymbolTable
 70
    13
  0
LTYPE
  5
14
330
5
100
AcDbSymbolTableRecord
100
AcDbLinetypeTableRecord
  2
ByBlock
 70
     0
  3

 72
    65
 73
     0
 40
0.0
  0
LTYPE
  5
15
330
5
100
AcDbSymbolTableRecord
100
AcDbLinetypeTableRecord
  2
ByLayer
 70
     0
  3

 72
    65
 73
     0
 40
0.0
  0
LTYPE
  5
16
330
5
100
AcDbSymbolTableRecord
100
AcDbLinetypeTableRecord
  2
Continuous
 70
     0
  3
Solid line
 72
    65
 73
     0
 40
0.0
  0
LTYPE
  5
2B
330
5
100
AcDbSymbolTableRecord
100
AcDbLinetypeTableRecord
  2
BORDER
 70
     0
  3
BORDER
 72
    65
 73
     6
 40
1.75
 49
0.5
 74
     0
 49
-0.25
 74
     0
 49
0.5
 74
     0
 49
-0.25
 74
     0
 49
0.0
 74
     0
 49
-0.25
 74
     0
  0
LTYPE
  5
2C
330
5
100
AcDbSymbolTableRecord
100
AcDbLinetypeTableRecord
  2
CENTER
 70
     0
  3
CENTER
 72
    65
 73
     4
 40
2.0
 49
1.25
 74
     0
 49
-0.25
 74
     0
 49
0.25
 74
     0
 49
-0.25
 74
     0
  0
LTYPE
  5
2D
330
5
100
AcDbSymbolTableRecord
100
AcDbLinetypeTableRecord
  2
DASHDOT
 70
     0
  3
DASHDOT
 72
    65
 73
     4
 40
1.0
 49
0.5
 74
     0
 49
-0.25
 74
     0
 49
0.0
 74
     0
 49
-0.25
 74
     0
  0
LTYPE
  5
2E
330
5
100
AcDbSymbolTableRecord
100
AcDbLinetypeTableRecord
  2
DASHED
 70
     0
  3
DASHED
 72
    65
 73
     2
 40
0.75
 49
0.5
 74
     0
 49
-0.25
 74
     0
  0
LTYPE
  5
2F
330
5
100
AcDbSymbolTableRecord
100
AcDbLinetypeTableRecord
  2
DIVIDE
 70
     0
  3
DIVIDE
 72
    65
 73
     6
 40
1.25
 49
0.5
 74
     0
 49
-0.25
 74
     0
 49
0.0
 74
     0
 49
-0.25
 74
     0
 49
0.0
 74
     0
 49
-0.25
 74
     0
  0
LTYPE
  5
30
330
5
100
AcDbSymbolTableRecord
100
AcDbLinetypeTableRecord
  2
DOT
 70
     0
  3
DOT
 72
    65
 73
     2
 40
0.25
 49
0.0
 74
     0
 49
-0.25
 74
     0
  0
LTYPE
  5
31
330
5
100
AcDbSymbolTableRecord
100
AcDbLinetypeTableRecord
  2
HIDDEN
 70
     0
  3
HIDDEN
 72
    65
 73
     2
 40
0.375
 49
0.25
 74
     0
 49
-0.125
 74
     0
  0
LTYPE
  5
32
330
5
100
AcDbSymbolTableRecord
100
AcDbLinetypeTableRecord
  2
PHANTOM
 70
     0
  3
PHANTOM
 72
    65
 73
     6
 40
2.5
 49
1.25
 74
     0
 49
-0.25
 74
     0
 49
0.25
 74
     0
 49
-0.25
 74
     0
 49
0.25
 74
     0
 49
-0.25
 74
     0
  0
LTYPE
  5
33
330
5
100
AcDbSymbolTableRecord
100
AcDbLinetypeTableRecord
  2
$INVISIBLE
 70
     0
  3
$INVISIBLE
 72
    65
 73
     2
 40
200.0
 49
-100.0
 74
     0
 49
-100.0
 74
     0
  0
LTYPE
  5
34
330
5
100
AcDbSymbolTableRecord
100
AcDbLinetypeTableRecord
  2
$AUXILIARY
 70
     0
  3
$AUXILIARY
 72
    65
 73
     2
 40
0.1000000014901161
 49
0.0500000007450581
 74
     0
 49
-0.0500000007450581
 74
     0
  0
LTYPE
  5
35
330
5
100
AcDbSymbolTableRecord
100
AcDbLinetypeTableRecord
  2
$CONSTRUCTION
 70
     0
  3
$CONSTRUCTION
 72
    65
 73
     4
 40
0.3
 49
0.2
 74
     0
 49
-0.05
 74
     0
 49
0.0
 74
     0
 49
-0.05
 74
     0
  0
LTYPE
  5
36
330
5
100
AcDbSymbolTableRecord
100
AcDbLinetypeTableRecord
  2
$SNAPEXT
 70
     0
  3
$SNAPEXT
 72
    65
 73
     2
 40
0.04
 49
0.02
 74
     0
 49
-0.02
 74
     0
  0
ENDTAB
  0
TABLE
  2
LAYER
  5
2
330
0
100
AcDbSymbolTable
 70
     2
  0
LAYER
  5
10
330
2
100
AcDbSymbolTableRecord
100
AcDbLayerTableRecord
  2
0
 70
     0
 62
     7
  6
Continuous
370
     0
390
F
1001
TCAD
1000
TCW_LAYER_ORDER
1002
{
1071
        0
1002
}
  0
LAYER
  5
A1
330
2
100
AcDbSymbolTableRecord
100
AcDbLayerTableRecord
  2
Defpoints
 70
     0
 62
     7
  6
Continuous
290
     0
370
    -3
390
F
  0
ENDTAB
  0
TABLE
  2
STYLE
  5
3
330
0
100
AcDbSymbolTable
 70
    26
  0
STYLE
  5
11
330
3
100
AcDbSymbolTableRecord
100
AcDbTextStyleTableRecord
  2
STANDARD
 70
     0
 40
0.0
 41
1.0
 50
0.0
 71
     0
 42
7.619999885559082
  3
txt
  4

1001
ACAD
1000
Times New Roman
1071
      290
  0
STYLE
  5
38
330
3
100
AcDbSymbolTableRecord
100
AcDbTextStyleTableRecord
  2
_TCW_TXTSTY_1
 70
     0
 40
0.0
 41
1.0
 50
0.0
 71
     0
 42
0.6000000238418579
  3
TIMES.TTF
  4

1001
ACAD
1000
Times New Roman
1071
      290
  0
STYLE
  5
AE
330
3
100
AcDbSymbolTableRecord
100
AcDbTextStyleTableRecord
  2
_TCW_TXTSTY_2
 70
     0
 40
0.0
 41
1.0
 50
0.0
 71
     0
 42
0.6000000238418579
  3
TIMES.TTF
  4

1001
ACAD
1000
Times New Roman
1071
      290
  0
STYLE
  5
BF
330
3
100
AcDbSymbolTableRecord
100
AcDbTextStyleTableRecord
  2
_TCW_TXTSTY_3
 70
     0
 40
0.0
 41
1.0
 50
0.0
 71
     0
 42
0.6000000238418579
  3
TIMES.TTF
  4

1001
ACAD
1000
Times New Roman
1071
      290
  0
STYLE
  5
D0
330
3
100
AcDbSymbolTableRecord
100
AcDbTextStyleTableRecord
  2
_TCW_TXTSTY_4
 70
     0
 40
0.0
 41
1.0
 50
0.0
 71
     0
 42
0.6000000238418579
  3
TIMES.TTF
  4

1001
ACAD
1000
Times New Roman
1071
      290
  0
STYLE
  5
DF
330
3
100
AcDbSymbolTableRecord
100
AcDbTextStyleTableRecord
  2
_TCW_TXTSTY_5
 70
     0
 40
0.0
 41
1.0
 50
0.0
 71
     0
 42
0.6000000238418579
  3
TIMES.TTF
  4

1001
ACAD
1000
Times New Roman
1071
      290
  0
STYLE
  5
121
330
3
100
AcDbSymbolTableRecord
100
AcDbTextStyleTableRecord
  2
_TCW_TXTSTY_6
 70
     0
 40
0.0
 41
1.0
 50
0.0
 71
     0
 42
0.6000000238418579
  3
TIMES.TTF
  4

1001
ACAD
1000
Times New Roman
1071
      290
  0
STYLE
  5
132
330
3
100
AcDbSymbolTableRecord
100
AcDbTextStyleTableRecord
  2
_TCW_TXTSTY_7
 70
     0
 40
0.0
 41
1.0
 50
0.0
 71
     0
 42
0.6000000238418579
  3
TIMES.TTF
  4

1001
ACAD
1000
Times New Roman
1071
      290
  0
STYLE
  5
140
330
3
100
AcDbSymbolTableRecord
100
AcDbTextStyleTableRecord
  2
_TCW_TXTSTY_8
 70
     0
 40
0.0
 41
1.0
 50
0.0
 71
     0
 42
0.6000000238418579
  3
TIMES.TTF
  4

1001
ACAD
1000
Times New Roman
1071
      290
  0
STYLE
  5
150
330
3
100
AcDbSymbolTableRecord
100
AcDbTextStyleTableRecord
  2
_TCW_TXTSTY_9
 70
     0
 40
0.0
 41
1.0
 50
0.0
 71
     0
 42
0.6000000238418579
  3
TIMES.TTF
  4

1001
ACAD
1000
Times New Roman
1071
      290
  0
STYLE
  5
161
330
3
100
AcDbSymbolTableRecord
100
AcDbTextStyleTableRecord
  2
_TCW_TXTSTY_A
 70
     0
 40
0.0
 41
1.0
 50
0.0
 71
     0
 42
0.6000000238418579
  3
TIMES.TTF
  4

1001
ACAD
1000
Times New Roman
1071
      290
  0
STYLE
  5
172
330
3
100
AcDbSymbolTableRecord
100
AcDbTextStyleTableRecord
  2
_TCW_TXTSTY_B
 70
     0
 40
0.0
 41
1.0
 50
0.0
 71
     0
 42
0.6000000238418579
  3
TIMES.TTF
  4

1001
ACAD
1000
Times New Roman
1071
      290
  0
STYLE
  5
180
330
3
100
AcDbSymbolTableRecord
100
AcDbTextStyleTableRecord
  2
_TCW_TXTSTY_C
 70
     0
 40
0.0
 41
1.0
 50
0.0
 71
     0
 42
0.6000000238418579
  3
TIMES.TTF
  4

1001
ACAD
1000
Times New Roman
1071
      290
  0
STYLE
  5
190
330
3
100
AcDbSymbolTableRecord
100
AcDbTextStyleTableRecord
  2
_TCW_TXTSTY_D
 70
     0
 40
0.0
 41
1.0
 50
0.0
 71
     0
 42
0.6000000238418579
  3
TIMES.TTF
  4

1001
ACAD
1000
Times New Roman
1071
      290
  0
STYLE
  5
19F
330
3
100
AcDbSymbolTableRecord
100
AcDbTextStyleTableRecord
  2
_TCW_TXTSTY_E
 70
     0
 40
0.0
 41
1.0
 50
0.0
 71
     0
 42
5.012131690979004
  3
TIMES.TTF
  4

1001
ACAD
1000
Times New Roman
1071
      290
  0
STYLE
  5
1A2
330
3
100
AcDbSymbolTableRecord
100
AcDbTextStyleTableRecord
  2
_TCW_TXTSTY_F
 70
     0
 40
0.0
 41
1.0
 50
0.0
 71
     0
 42
5.012131690979004
  3
TIMES.TTF
  4

1001
ACAD
1000
Times New Roman
1071
      290
  0
STYLE
  5
1A5
330
3
100
AcDbSymbolTableRecord
100
AcDbTextStyleTableRecord
  2
_TCW_TXTSTY_10
 70
     0
 40
0.0
 41
1.0
 50
0.0
 71
     0
 42
5.012131690979004
  3
TIMES.TTF
  4

1001
ACAD
1000
Times New Roman
1071
      290
  0
STYLE
  5
1A8
330
3
100
AcDbSymbolTableRecord
100
AcDbTextStyleTableRecord
  2
_TCW_TXTSTY_11
 70
     0
 40
0.0
 41
1.0
 50
0.0
 71
     0
 42
5.012131690979004
  3
TIMES.TTF
  4

1001
ACAD
1000
Times New Roman
1071
      290
  0
STYLE
  5
1BB
330
3
100
AcDbSymbolTableRecord
100
AcDbTextStyleTableRecord
  2
_TCW_TXTSTY_12
 70
     0
 40
0.0
 41
1.0
 50
0.0
 71
     0
 42
3.522528171539307
  3
TIMES.TTF
  4

1001
ACAD
1000
Times New Roman
1071
      290
  0
STYLE
  5
1D7
330
3
100
AcDbSymbolTableRecord
100
AcDbTextStyleTableRecord
  2
_TCW_TXTSTY_13
 70
     0
 40
0.0
 41
1.0
 50
0.0
 71
     0
 42
0.6000000238418579
  3
TIMES.TTF
  4

1001
ACAD
1000
Times New Roman
1071
      290
  0
STYLE
  5
1E8
330
3
100
AcDbSymbolTableRecord
100
AcDbTextStyleTableRecord
  2
_TCW_TXTSTY_14
 70
     0
 40
0.0
 41
1.0
 50
0.0
 71
     0
 42
0.6000000238418579
  3
TIMES.TTF
  4

1001
ACAD
1000
Times New Roman
1071
      290
  0
STYLE
  5
1F9
330
3
100
AcDbSymbolTableRecord
100
AcDbTextStyleTableRecord
  2
_TCW_TXTSTY_15
 70
     0
 40
0.0
 41
1.0
 50
0.0
 71
     0
 42
0.6000000238418579
  3
TIMES.TTF
  4

1001
ACAD
1000
Times New Roman
1071
      290
  0
STYLE
  5
207
330
3
100
AcDbSymbolTableRecord
100
AcDbTextStyleTableRecord
  2
_TCW_TXTSTY_16
 70
     0
 40
0.0
 41
1.0
 50
0.0
 71
     0
 42
0.6000000238418579
  3
TIMES.TTF
  4

1001
ACAD
1000
Times New Roman
1071
      290
  0
STYLE
  5
215
330
3
100
AcDbSymbolTableRecord
100
AcDbTextStyleTableRecord
  2
_TCW_TXTSTY_17
 70
     0
 40
0.0
 41
1.0
 50
0.0
 71
     0
 42
5.012131690979004
  3
TIMES.TTF
  4

1001
ACAD
1000
Times New Roman
1071
      290
  0
STYLE
  5
218
330
3
100
AcDbSymbolTableRecord
100
AcDbTextStyleTableRecord
  2
_TCW_TXTSTY_18
 70
     0
 40
0.0
 41
1.0
 50
0.0
 71
     0
 42
4.771098613739014
  3
TIMES.TTF
  4

1001
ACAD
1000
Times New Roman
1071
      290
  0
STYLE
  5
21B
330
3
100
AcDbSymbolTableRecord
100
AcDbTextStyleTableRecord
  2
_TCW_TXTSTY_19
 70
     0
 40
0.0
 41
1.0
 50
0.0
 71
     0
 42
0.6000000238418579
  3
TIMES.TTF
  4

1001
ACAD
1000
Times New Roman
1071
      290
  0
ENDTAB
  0
TABLE
  2
VIEW
  5
6
330
0
100
AcDbSymbolTable
 70
     1
  0
VIEW
  5
37
330
6
100
AcDbSymbolTableRecord
100
AcDbViewTableRecord
  2
View_0
 70
     0
 40
210.0
 10
148.5
 20
105.0
 41
297.0
 11
0.0
 21
0.0
 31
1.0
 12
0.0
 22
0.0
 32
0.0
 42
50.0
 43
0.0
 44
0.0
 50
0.0
 71
     0
281
     0
 72
     0
  0
ENDTAB
  0
TABLE
  2
UCS
  5
7
330
0
100
AcDbSymbolTable
 70
     0
  0
ENDTAB
  0
TABLE
  2
APPID
  5
9
330
0
100
AcDbSymbolTable
 70
     2
  0
APPID
  5
12
330
9
100
AcDbSymbolTableRecord
100
AcDbRegAppTableRecord
  2
ACAD
 70
     0
  0
APPID
  5
2A
330
9
100
AcDbSymbolTableRecord
100
AcDbRegAppTableRecord
  2
TCAD
 70
     0
  0
ENDTAB
  0
TABLE
  2
DIMSTYLE
  5
A
330
0
100
AcDbSymbolTable
 70
     1
100
AcDbDimStyleTable
  0
DIMSTYLE
105
27
102
{ACAD_REACTORS
330
A0
330
AF
330
C0
330
D1
330
E0
330
122
330
133
330
141
330
151
330
162
330
173
330
181
330
191
330
1C9
330
1D8
330
1E9
330
1FA
330
208
330
21C
102
}
330
A
100
AcDbSymbolTableRecord
100
AcDbDimStyleTableRecord
  2
Standard
 70
     0
  3
mm
 41
5.0
 43
0.375
 44
0.125
 45
0.01
 77
     1
 78
     3
140
3.0
143
1.0
147
0.0625
148
0.01
172
     1
176
     7
177
     7
178
     7
179
     2
271
     2
285
     3
340
38
  0
ENDTAB
  0
TABLE
  2
BLOCK_RECORD
  5
1
330
0
100
AcDbSymbolTable
 70
    26
  0
BLOCK_RECORD
  5
1F
330
1
100
AcDbSymbolTableRecord
100
AcDbBlockTableRecord
  2
*Model_Space
340
22
  0
BLOCK_RECORD
  5
1B
330
1
100
AcDbSymbolTableRecord
100
AcDbBlockTableRecord
  2
*Paper_Space
340
1E
  0
BLOCK_RECORD
  5
8F
330
1
100
AcDbSymbolTableRecord
100
AcDbBlockTableRecord
  2
*E1
340
0
102
{BLKREFS
331
93
102
}
  0
BLOCK_RECORD
  5
94
330
1
100
AcDbSymbolTableRecord
100
AcDbBlockTableRecord
  2
*E2
340
0
102
{BLKREFS
331
98
102
}
  0
BLOCK_RECORD
  5
A2
330
1
100
AcDbSymbolTableRecord
100
AcDbBlockTableRecord
  2
*D3
340
0
  0
BLOCK_RECORD
  5
B0
330
1
100
AcDbSymbolTableRecord
100
AcDbBlockTableRecord
  2
*D4
340
0
  0
BLOCK_RECORD
  5
C1
330
1
100
AcDbSymbolTableRecord
100
AcDbBlockTableRecord
  2
*D5
340
0
  0
BLOCK_RECORD
  5
D2
330
1
100
AcDbSymbolTableRecord
100
AcDbBlockTableRecord
  2
*D6
340
0
  0
BLOCK_RECORD
  5
E1
330
1
100
AcDbSymbolTableRecord
100
AcDbBlockTableRecord
  2
*D7
340
0
  0
BLOCK_RECORD
  5
FA
330
1
100
AcDbSymbolTableRecord
100
AcDbBlockTableRecord
  2
*E8
340
0
102
{BLKREFS
331
FE
102
}
  0
BLOCK_RECORD
  5
FF
330
1
100
AcDbSymbolTableRecord
100
AcDbBlockTableRecord
  2
*E9
340
0
102
{BLKREFS
331
103
102
}
  0
BLOCK_RECORD
  5
10F
330
1
100
AcDbSymbolTableRecord
100
AcDbBlockTableRecord
  2
*E10
340
0
102
{BLKREFS
331
113
102
}
  0
BLOCK_RECORD
  5
114
330
1
100
AcDbSymbolTableRecord
100
AcDbBlockTableRecord
  2
*E11
340
0
102
{BLKREFS
331
118
102
}
  0
BLOCK_RECORD
  5
123
330
1
100
AcDbSymbolTableRecord
100
AcDbBlockTableRecord
  2
*D12
340
0
  0
BLOCK_RECORD
  5
134
330
1
100
AcDbSymbolTableRecord
100
AcDbBlockTableRecord
  2
*D13
340
0
  0
BLOCK_RECORD
  5
142
330
1
100
AcDbSymbolTableRecord
100
AcDbBlockTableRecord
  2
*D14
340
0
  0
BLOCK_RECORD
  5
152
330
1
100
AcDbSymbolTableRecord
100
AcDbBlockTableRecord
  2
*D15
340
0
  0
BLOCK_RECORD
  5
163
330
1
100
AcDbSymbolTableRecord
100
AcDbBlockTableRecord
  2
*D16
340
0
  0
BLOCK_RECORD
  5
174
330
1
100
AcDbSymbolTableRecord
100
AcDbBlockTableRecord
  2
*D17
340
0
  0
BLOCK_RECORD
  5
182
330
1
100
AcDbSymbolTableRecord
100
AcDbBlockTableRecord
  2
*D18
340
0
  0
BLOCK_RECORD
  5
192
330
1
100
AcDbSymbolTableRecord
100
AcDbBlockTableRecord
  2
*D19
340
0
  0
BLOCK_RECORD
  5
1CA
330
1
100
AcDbSymbolTableRecord
100
AcDbBlockTableRecord
  2
*D20
340
0
  0
BLOCK_RECORD
  5
1D9
330
1
100
AcDbSymbolTableRecord
100
AcDbBlockTableRecord
  2
*D21
340
0
  0
BLOCK_RECORD
  5
1EA
330
1
100
AcDbSymbolTableRecord
100
AcDbBlockTableRecord
  2
*D22
340
0
  0
BLOCK_RECORD
  5
1FB
330
1
100
AcDbSymbolTableRecord
100
AcDbBlockTableRecord
  2
*D23
340
0
  0
BLOCK_RECORD
  5
209
330
1
100
AcDbSymbolTableRecord
100
AcDbBlockTableRecord
  2
*D24
340
0
  0
BLOCK_RECORD
  5
21D
330
1
100
AcDbSymbolTableRecord
100
AcDbBlockTableRecord
  2
*D25
340
0
  0
ENDTAB
  0
ENDSEC
  0
SECTION
  2
BLOCKS
  0
BLOCK
  5
20
330
1F
100
AcDbEntity
  8
0
100
AcDbBlockBegin
  2
*Model_Space
 70
     0
 71
     0
 10
0.0
 20
0.0
 30
0.0
  3
*Model_Space
  1

  0
ENDBLK
  5
21
330
1F
100
AcDbEntity
  8
0
100
AcDbBlockEnd
  0
BLOCK
  5
1C
330
1B
100
AcDbEntity
 67
     1
  8
0
100
AcDbBlockBegin
  2
*Paper_Space
 70
     0
 71
     0
 10
0.0
 20
0.0
 30
0.0
  3
*Paper_Space
  1

  0
ENDBLK
  5
1D
330
1B
100
AcDbEntity
 67
     1
  8
0
100
AcDbBlockEnd
  0
BLOCK
  5
91
330
8F
100
AcDbEntity
  8
0
100
AcDbBlockBegin
  2
*E1
 70
     1
 71
     0
 10
0.0
 20
0.0
 30
0.0
  3
*E1
  1

  0
LWPOLYLINE
  5
90
330
8F
100
AcDbEntity
  8
0
  6
Continuous
 62
     7
370
     0
100
AcDbPolyline
 90
       41
 70
   128
 43
0.0
 10
-491.0076764066806
 20
54.89628666439145
 10
-490.9571678405933
 20
54.80510996086581
 10
-490.9090006470702
 20
54.71233553847181
 10
-490.8632017307382
 20
54.61806463156903
 10
-490.8197979962246
 20
54.52239847451712
 10
-490.7788163481562
 20
54.42543830167567
 10
-490.7402836911604
 20
54.3272853474043
 10
-490.7042269298642
 20
54.22804084606263
 10
-490.6706729688947
 20
54.12780603201026
 10
-490.639648712879
 20
54.0266821396068
 10
-490.611181066444
 20
53.92477040321186
 10
-490.5852969342173
 20
53.82217205718509
 10
-490.5620232208256
 20
53.71898833588605
 10
-490.5413868308962
 20
53.61532047367438
 10
-490.523414669056
 20
53.51126970490969
 10
-490.5081336399323
 20
53.4069372639516
 10
-490.4955706481521
 20
53.3024243851597
 10
-490.4857525983426
 20
53.19783230289362
 10
-490.4787063951308
 20
53.09326225151297
 10
-490.4744589431438
 20
52.98881546537735
 10
-490.4730371470088
 20
52.88459317884639
 10
-490.4744596771282
 20
52.78080816872823
 10
-490.4787091765456
 20
52.67679784977822
 10
-490.4857585088491
 20
52.5726638685553
 10
-490.4955805376271
 20
52.46850787161849
 10
-490.5081481264679
 20
52.36443150552675
 10
-490.5234341389598
 20
52.26053641683907
 10
-490.5414114386913
 20
52.15692425211444
 10
-490.5620528892507
 20
52.05369665791185
 10
-490.585331354226
 20
51.95095528079025
 10
-490.6112196972057
 20
51.84880176730864
 10
-490.6396907817784
 20
51.74733776402603
 10
-490.6707174715321
 20
51.64666491750137
 10
-490.7042726300552
 20
51.54688487429365
 10
-490.7403291209361
 20
51.44809928096186
 10
-490.7788598077631
 20
51.35040978406498
 10
-490.8198375541245
 20
51.25391803016199
 10
-490.8632352236086
 20
51.15872566581188
 10
-490.9090256798038
 20
51.06493433757363
 10
-490.9571817862983
 20
50.97264569200621
 10
-491.0076764066806
 20
50.88196137566862
  0
ENDBLK
  5
92
330
8F
100
AcDbEntity
  8
0
100
AcDbBlockEnd
  0
BLOCK
  5
96
330
94
100
AcDbEntity
  8
0
100
AcDbBlockBegin
  2
*E2
 70
     1
 71
     0
 10
0.0
 20
0.0
 30
0.0
  3
*E2
  1

  0
LWPOLYLINE
  5
95
330
94
100
AcDbEntity
  8
0
  6
Continuous
 62
     7
370
     0
100
AcDbPolyline
 90
       41
 70
   128
 43
0.0
 10
-483.0062108768776
 20
50.88196137566862
 10
-483.0583070147345
 20
50.97202102038931
 10
-483.108007949258
 20
51.0637905507698
 10
-483.1552837931679
 20
51.15716168666396
 10
-483.200104659184
 20
51.25202614792565
 10
-483.2424406600262
 20
51.34827565440871
 10
-483.2822619084143
 20
51.44580192596703
 10
-483.3195385170683
 20
51.54449668245445
 10
-483.3542405987079
 20
51.64425164372485
 10
-483.3863382660529
 20
51.74495852963206
 10
-483.4158016318231
 20
51.84650906002997
 10
-483.4426008087387
 20
51.94879495477243
 10
-483.4667059095192
 20
52.05170793371331
 10
-483.4880870468845
 20
52.15513971670645
 10
-483.5067143335545
 20
52.25898202360572
 10
-483.522557882249
 20
52.363126574265
 10
-483.535587805688
 20
52.46746508853812
 10
-483.5457742165911
 20
52.57188928627895
 10
-483.5530872276782
 20
52.67629088734137
 10
-483.5574969516693
 20
52.78056161157922
 10
-483.5589735012842
 20
52.88459317884636
 10
-483.5574969516693
 20
52.9886247461135
 10
-483.5530872276782
 20
53.09289547035135
 10
-483.545774216591
 20
53.19729707141376
 10
-483.535587805688
 20
53.30172126915461
 10
-483.522557882249
 20
53.40605978342773
 10
-483.5067143335544
 20
53.510204334087
 10
-483.4880870468845
 20
53.61404664098627
 10
-483.4667059095192
 20
53.71747842397943
 10
-483.4426008087387
 20
53.82039140292029
 10
-483.4158016318231
 20
53.92267729766275
 10
-483.3863382660529
 20
54.02422782806067
 10
-483.3542405987079
 20
54.1249347139679
 10
-483.3195385170683
 20
54.22468967523829
 10
-483.2822619084144
 20
54.32338443172571
 10
-483.2424406600263
 20
54.42091070328403
 10
-483.200104659184
 20
54.5171602097671
 10
-483.1552837931679
 20
54.61202467102878
 10
-483.108007949258
 20
54.70539580692294
 10
-483.0583070147345
 20
54.79716533730343
 10
-483.0062108768776
 20
54.88722498202412
  0
ENDBLK
  5
97
330
94
100
AcDbEntity
  8
0
100
AcDbBlockEnd
  0
BLOCK
  5
AC
330
A2
100
AcDbEntity
  8
0
100
AcDbBlockBegin
  2
*D3
 70
     1
 71
     0
 10
0.0
 20
0.0
 30
0.0
  3
*D3
  1

  0
LINE
  5
A3
330
A2
100
AcDbEntity
  8
0
  6
Continuous
 62
     7
370
    -2
100
AcDbLine
 10
-498.0200684928463
 20
79.47351715123366
 30
0.0
 11
-498.0200684928463
 21
84.505156573687
 31
0.0
  0
LINE
  5
A4
330
A2
100
AcDbEntity
  8
0
  6
Continuous
 62
     7
370
    -2
100
AcDbLine
 10
-476.0093398452281
 20
79.35006027117264
 30
0.0
 11
-476.0093398452281
 21
84.505156573687
 31
0.0
  0
LINE
  5
A5
330
A2
100
AcDbEntity
  8
0
  6
Continuous
 62
     7
370
    -2
100
AcDbLine
 10
-493.0200684928463
 20
84.380156573687
 30
0.0
 11
-481.0093398452281
 21
84.380156573687
 31
0.0
  0
SOLID
  5
A6
330
A2
100
AcDbEntity
  8
0
 62
     7
100
AcDbTrace
 10
-493.0200684928463
 20
85.21348990702033
 30
0.0
 11
-493.0200684928463
 21
83.54682324035367
 31
0.0
 12
-498.0200684928463
 22
84.380156573687
 32
0.0
 13
-498.0200684928463
 23
84.380156573687
 33
0.0
  0
SOLID
  5
A7
330
A2
100
AcDbEntity
  8
0
 62
     7
100
AcDbTrace
 10
-481.0093398452281
 20
83.54682324035367
 30
0.0
 11
-481.0093398452281
 21
85.21348990702033
 31
0.0
 12
-476.0093398452281
 22
84.380156573687
 32
0.0
 13
-476.0093398452281
 23
84.380156573687
 33
0.0
  0
MTEXT
  5
A8
330
A2
100
AcDbEntity
  8
0
 62
     7
100
AcDbMText
 10
-487.0147041690371
 20
85.942656573687
 30
0.0
 40
3.0
 41
0.0
 71
     5
 72
     1
  1
\A1;22
  7
_TCW_TXTSTY_1
 73
     1
 44
1.0
  0
POINT
  5
A9
330
A2
100
AcDbEntity
  8
Defpoints
 62
     0
100
AcDbPoint
 10
-498.0200684928463
 20
79.41101715123366
 30
0.0
  0
POINT
  5
AA
330
A2
100
AcDbEntity
  8
Defpoints
 62
     0
100
AcDbPoint
 10
-476.0093398452281
 20
79.28756027117264
 30
0.0
  0
POINT
  5
AB
330
A2
100
AcDbEntity
  8
Defpoints
 62
     0
100
AcDbPoint
 10
-476.0093398452281
 20
84.380156573687
 30
0.0
  0
ENDBLK
  5
AD
330
A2
100
AcDbEntity
  8
0
100
AcDbBlockEnd
  0
BLOCK
  5
BD
330
B0
100
AcDbEntity
  8
0
100
AcDbBlockBegin
  2
*D4
 70
     1
 71
     0
 10
0.0
 20
0.0
 30
0.0
  3
*D4
  1

  0
LINE
  5
B1
330
B0
100
AcDbEntity
  8
0
  6
Continuous
 62
     7
370
    -2
100
AcDbLine
 10
-474.7609140741704
 20
73.33567956543921
 30
0.0
 11
-469.8502694305289
 21
73.33567956543921
 31
0.0
  0
LINE
  5
B2
330
B0
100
AcDbEntity
  8
0
  6
Continuous
 62
     7
370
    -2
100
AcDbLine
 10
-475.2730420294847
 20
77.34103324791388
 30
0.0
 11
-469.8502694305289
 21
77.34103324791388
 31
0.0
  0
LINE
  5
B3
330
B0
100
AcDbEntity
  8
0
  6
Continuous
 62
     7
370
    -2
100
AcDbLine
 10
-469.9752694305289
 20
73.33567956543921
 30
0.0
 11
-469.9752694305289
 21
73.77585640667655
 31
0.0
  0
LINE
  5
B4
330
B0
100
AcDbEntity
  8
0
  6
Continuous
 62
     7
370
    -2
100
AcDbLine
 10
-469.9752694305289
 20
77.34103324791388
 30
0.0
 11
-469.9752694305289
 21
76.90085640667655
 31
0.0
  0
LINE
  5
B5
330
B0
100
AcDbEntity
  8
0
  6
Continuous
 62
     7
370
    -2
100
AcDbLine
 10
-469.9752694305289
 20
68.33567956543921
 30
0.0
 11
-469.9752694305289
 21
63.33567956543921
 31
0.0
  0
LINE
  5
B6
330
B0
100
AcDbEntity
  8
0
  6
Continuous
 62
     7
370
    -2
100
AcDbLine
 10
-469.9752694305289
 20
82.34103324791388
 30
0.0
 11
-469.9752694305289
 21
87.34103324791388
 31
0.0
  0
SOLID
  5
B7
330
B0
100
AcDbEntity
  8
0
 62
     7
100
AcDbTrace
 10
-469.1419360971956
 20
68.33567956543921
 30
0.0
 11
-470.8086027638622
 21
68.33567956543921
 31
0.0
 12
-469.9752694305289
 22
73.33567956543921
 32
0.0
 13
-469.9752694305289
 23
73.33567956543921
 33
0.0
  0
SOLID
  5
B8
330
B0
100
AcDbEntity
  8
0
 62
     7
100
AcDbTrace
 10
-470.8086027638622
 20
82.34103324791388
 30
0.0
 11
-469.1419360971956
 21
82.34103324791388
 31
0.0
 12
-469.9752694305289
 22
77.34103324791388
 32
0.0
 13
-469.9752694305289
 23
77.34103324791388
 33
0.0
  0
MTEXT
  5
B9
330
B0
100
AcDbEntity
  8
0
 62
     7
100
AcDbMText
 10
-469.9752694305289
 20
75.33835640667655
 30
0.0
 40
3.0
 41
0.0
 71
     5
 72
     1
  1
\A1;4
  7
_TCW_TXTSTY_2
 73
     1
 44
1.0
  0
POINT
  5
BA
330
B0
100
AcDbEntity
  8
Defpoints
 62
     0
100
AcDbPoint
 10
-474.8234140741704
 20
73.33567956543921
 30
0.0
  0
POINT
  5
BB
330
B0
100
AcDbEntity
  8
Defpoints
 62
     0
100
AcDbPoint
 10
-475.3355420294847
 20
77.34103324791388
 30
0.0
  0
POINT
  5
BC
330
B0
100
AcDbEntity
  8
Defpoints
 62
     0
100
AcDbPoint
 10
-469.9752694305289
 20
77.34103324791388
 30
0.0
  0
ENDBLK
  5
BE
330
B0
100
AcDbEntity
  8
0
100
AcDbBlockEnd
  0
BLOCK
  5
CE
330
C1
100
AcDbEntity
  8
0
100
AcDbBlockBegin
  2
*D5
 70
     1
 71
     0
 10
0.0
 20
0.0
 30
0.0
  3
*D5
  1

  0
LINE
  5
C2
330
C1
100
AcDbEntity
  8
0
  6
Continuous
 62
     7
370
    -2
100
AcDbLine
 10
-481.6366880670614
 20
60.87041997565325
 30
0.0
 11
-472.0750677398069
 21
60.87041997565325
 31
0.0
  0
LINE
  5
C3
330
C1
100
AcDbEntity
  8
0
  6
Continuous
 62
     7
370
    -2
100
AcDbLine
 10
-474.9873038379832
 20
52.85971261070384
 30
0.0
 11
-472.0750677398069
 21
52.85971261070384
 31
0.0
  0
LINE
  5
C4
330
C1
100
AcDbEntity
  8
0
  6
Continuous
 62
     7
370
    -2
100
AcDbLine
 10
-472.2000677398069
 20
60.87041997565325
 30
0.0
 11
-472.2000677398069
 21
58.45309181870407
 31
0.0
  0
LINE
  5
C5
330
C1
100
AcDbEntity
  8
0
  6
Continuous
 62
     7
370
    -2
100
AcDbLine
 10
-472.2000677398069
 20
52.85971261070384
 30
0.0
 11
-472.2000677398069
 21
55.27704076765302
 31
0.0
  0
LINE
  5
C6
330
C1
100
AcDbEntity
  8
0
  6
Continuous
 62
     7
370
    -2
100
AcDbLine
 10
-472.2000677398069
 20
65.87041997565325
 30
0.0
 11
-472.2000677398069
 21
70.87041997565325
 31
0.0
  0
LINE
  5
C7
330
C1
100
AcDbEntity
  8
0
  6
Continuous
 62
     7
370
    -2
100
AcDbLine
 10
-472.2000677398069
 20
47.85971261070384
 30
0.0
 11
-472.2000677398069
 21
42.85971261070384
 31
0.0
  0
SOLID
  5
C8
330
C1
100
AcDbEntity
  8
0
 62
     7
100
AcDbTrace
 10
-473.0334010731402
 20
65.87041997565325
 30
0.0
 11
-471.3667344064736
 21
65.87041997565325
 31
0.0
 12
-472.2000677398069
 22
60.87041997565325
 32
0.0
 13
-472.2000677398069
 23
60.87041997565325
 33
0.0
  0
SOLID
  5
C9
330
C1
100
AcDbEntity
  8
0
 62
     7
100
AcDbTrace
 10
-471.3667344064736
 20
47.85971261070384
 30
0.0
 11
-473.0334010731402
 21
47.85971261070384
 31
0.0
 12
-472.2000677398069
 22
52.85971261070384
 32
0.0
 13
-472.2000677398069
 23
52.85971261070384
 33
0.0
  0
MTEXT
  5
CA
330
C1
100
AcDbEntity
  8
0
 62
     7
100
AcDbMText
 10
-472.2000677398069
 20
56.86506629317854
 30
0.0
 40
3.0
 41
0.0
 71
     5
 72
     1
  1
\A1;8
  7
_TCW_TXTSTY_3
 73
     1
 44
1.0
  0
POINT
  5
CB
330
C1
100
AcDbEntity
  8
Defpoints
 62
     0
100
AcDbPoint
 10
-481.6991880670614
 20
60.87041997565325
 30
0.0
  0
POINT
  5
CC
330
C1
100
AcDbEntity
  8
Defpoints
 62
     0
100
AcDbPoint
 10
-475.0498038379832
 20
52.85971261070384
 30
0.0
  0
POINT
  5
CD
330
C1
100
AcDbEntity
  8
Defpoints
 62
     0
100
AcDbPoint
 10
-472.2000677398069
 20
52.85971261070384
 30
0.0
  0
ENDBLK
  5
CF
330
C1
100
AcDbEntity
  8
0
100
AcDbBlockEnd
  0
BLOCK
  5
DD
330
D2
100
AcDbEntity
  8
0
100
AcDbBlockBegin
  2
*D6
 70
     1
 71
     0
 10
0.0
 20
0.0
 30
0.0
  3
*D6
  1

  0
LINE
  5
D3
330
D2
100
AcDbEntity
  8
0
  6
Continuous
 62
     7
370
    -2
100
AcDbLine
 10
-494.9347982362731
 20
60.87041997638694
 30
0.0
 11
-502.7987711470674
 21
60.87041997638694
 31
0.0
  0
LINE
  5
D4
330
D2
100
AcDbEntity
  8
0
  6
Continuous
 62
     7
370
    -2
100
AcDbLine
 10
-494.8539539573998
 20
42.86504501124355
 30
0.0
 11
-502.7987711470674
 21
42.86504501124355
 31
0.0
  0
LINE
  5
D5
330
D2
100
AcDbEntity
  8
0
  6
Continuous
 62
     7
370
    -2
100
AcDbLine
 10
-502.6737711470674
 20
55.87041997638694
 30
0.0
 11
-502.6737711470674
 21
53.45575801934077
 31
0.0
  0
LINE
  5
D6
330
D2
100
AcDbEntity
  8
0
  6
Continuous
 62
     7
370
    -2
100
AcDbLine
 10
-502.6737711470674
 20
47.86504501124355
 30
0.0
 11
-502.6737711470674
 21
50.27970696828972
 31
0.0
  0
SOLID
  5
D7
330
D2
100
AcDbEntity
  8
0
 62
     7
100
AcDbTrace
 10
-501.8404378137341
 20
55.87041997638694
 30
0.0
 11
-503.5071044804007
 21
55.87041997638694
 31
0.0
 12
-502.6737711470674
 22
60.87041997638694
 32
0.0
 13
-502.6737711470674
 23
60.87041997638694
 33
0.0
  0
SOLID
  5
D8
330
D2
100
AcDbEntity
  8
0
 62
     7
100
AcDbTrace
 10
-503.5071044804007
 20
47.86504501124355
 30
0.0
 11
-501.8404378137341
 21
47.86504501124355
 31
0.0
 12
-502.6737711470674
 22
42.86504501124355
 32
0.0
 13
-502.6737711470674
 23
42.86504501124355
 33
0.0
  0
MTEXT
  5
D9
330
D2
100
AcDbEntity
  8
0
 62
     7
100
AcDbMText
 10
-502.6737711470674
 20
51.86773249381525
 30
0.0
 40
3.0
 41
0.0
 71
     5
 72
     1
  1
\A1;18
  7
_TCW_TXTSTY_4
 73
     1
 44
1.0
  0
POINT
  5
DA
330
D2
100
AcDbEntity
  8
Defpoints
 62
     0
100
AcDbPoint
 10
-494.8722982362731
 20
60.87041997638694
 30
0.0
  0
POINT
  5
DB
330
D2
100
AcDbEntity
  8
Defpoints
 62
     0
100
AcDbPoint
 10
-494.7914539573998
 20
42.86504501124355
 30
0.0
  0
POINT
  5
DC
330
D2
100
AcDbEntity
  8
Defpoints
 62
     0
100
AcDbPoint
 10
-502.6737711470674
 20
42.86504501124355
 30
0.0
  0
ENDBLK
  5
DE
330
D2
100
AcDbEntity
  8
0
100
AcDbBlockEnd
  0
BLOCK
  5
EB
330
E1
100
AcDbEntity
  8
0
100
AcDbBlockBegin
  2
*D7
 70
     1
 71
     0
 10
0.0
 20
0.0
 30
0.0
  3
*D7
  1

  0
LINE
  5
E2
330
E1
100
AcDbEntity
  8
0
  6
Continuous
 62
     7
370
    -2
100
AcDbLine
 10
-497.0311483232208
 20
64.04869318174948
 30
0.0
 11
-495.2719516265241
 21
64.04869318174948
 31
0.0
  0
LINE
  5
E3
330
E1
100
AcDbEntity
  8
0
  6
Continuous
 62
     7
370
    -2
100
AcDbLine
 10
-495.2719516265241
 20
64.04869318174948
 30
0.0
 11
-492.3214148432309
 21
68.08531710409271
 31
0.0
  0
LINE
  5
E4
330
E1
100
AcDbEntity
  8
0
  6
Continuous
 62
     7
370
    -2
100
AcDbLine
 10
-481.6994824233753
 20
82.61716322452838
 30
0.0
 11
-478.7489456400821
 21
86.65378714687162
 31
0.0
  0
MTEXT
  5
E5
330
E1
100
AcDbEntity
  8
0
 62
     7
100
AcDbMText
 10
-496.1827999748725
 20
65.63671870727501
 30
0.0
 40
3.0
 41
0.0
 71
     5
 72
     1
  1
\A1;8
  7
_TCW_TXTSTY_5
 73
     1
 44
1.0
  0
SOLID
  5
E6
330
E1
100
AcDbEntity
  8
0
 62
     7
100
AcDbTrace
 10
-491.648644189507
 20
67.59356097354384
 30
0.0
 11
-492.9941854969548
 21
68.57707323464157
 31
0.0
 12
-489.3708780599377
 22
72.12194102643595
 32
0.0
 13
-489.3708780599377
 23
72.12194102643595
 33
0.0
  0
SOLID
  5
E7
330
E1
100
AcDbEntity
  8
0
 62
     7
100
AcDbTrace
 10
-482.3722530770992
 20
83.10891935507725
 30
0.0
 11
-481.0267117696514
 21
82.12540709397952
 31
0.0
 12
-484.6500192066685
 22
78.58053930218516
 32
0.0
 13
-484.6500192066685
 23
78.58053930218516
 33
0.0
  0
LINE
  5
E8
330
E1
100
AcDbEntity
  8
0
  6
Continuous
 62
     7
370
    -2
100
AcDbLine
 10
-484.6500192066685
 20
78.58053930218516
 30
0.0
 11
-489.3708780599377
 21
72.12194102643595
 31
0.0
  0
POINT
  5
E9
330
E1
100
AcDbEntity
  8
Defpoints
 62
     0
100
AcDbPoint
 10
-489.3708780599377
 20
72.12194102643595
 30
0.0
  0
POINT
  5
EA
330
E1
100
AcDbEntity
  8
Defpoints
 62
     0
100
AcDbPoint
 10
-484.6500192066685
 20
78.58053930218516
 30
0.0
  0
ENDBLK
  5
EC
330
E1
100
AcDbEntity
  8
0
100
AcDbBlockEnd
  0
BLOCK
  5
FC
330
FA
100
AcDbEntity
  8
0
100
AcDbBlockBegin
  2
*E8
 70
     1
 71
     0
 10
0.0
 20
0.0
 30
0.0
  3
*E8
  1

  0
LWPOLYLINE
  5
FB
330
FA
100
AcDbEntity
  8
0
  6
Continuous
 62
     7
370
     0
100
AcDbPolyline
 90
       41
 70
   128
 43
0.0
 10
-437.1552822889796
 20
54.99393755116621
 10
-437.1047737228923
 20
54.90276084764056
 10
-437.0566065293692
 20
54.80998642524656
 10
-437.0108076130372
 20
54.71571551834379
 10
-436.9674038785236
 20
54.62004936129188
 10
-436.9264222304552
 20
54.52308918845043
 10
-436.8878895734594
 20
54.42493623417906
 10
-436.8518328121632
 20
54.32569173283738
 10
-436.8182788511937
 20
54.22545691878502
 10
-436.787254595178
 20
54.12433302638156
 10
-436.758786948743
 20
54.02242128998662
 10
-436.7329028165163
 20
53.91982294395984
 10
-436.7096291031246
 20
53.81663922266081
 10
-436.6889927131951
 20
53.71297136044914
 10
-436.671020551355
 20
53.60892059168445
 10
-436.6557395222313
 20
53.50458815072636
 10
-436.6431765304511
 20
53.40007527193445
 10
-436.6333584806416
 20
53.29548318966837
 10
-436.6263122774297
 20
53.19091313828773
 10
-436.6220648254427
 20
53.08646635215211
 10
-436.6206430293078
 20
52.98224406562115
 10
-436.6220655594272
 20
52.87845905550299
 10
-436.6263150588446
 20
52.77444873655298
 10
-436.6333643911481
 20
52.67031475533006
 10
-436.6431864199261
 20
52.56615875839325
 10
-436.6557540087669
 20
52.46208239230151
 10
-436.6710400212588
 20
52.35818730361383
 10
-436.6890173209903
 20
52.2545751388892
 10
-436.7096587715496
 20
52.15134754468661
 10
-436.7329372365249
 20
52.048606167565
 10
-436.7588255795047
 20
51.9464526540834
 10
-436.7872966640774
 20
51.84498865080079
 10
-436.8183233538311
 20
51.74431580427613
 10
-436.8518785123542
 20
51.6445357610684
 10
-436.8879350032351
 20
51.54575016773661
 10
-436.9264656900621
 20
51.44806067083974
 10
-436.9674434364235
 20
51.35156891693675
 10
-437.0108411059076
 20
51.25637655258664
 10
-437.0566315621028
 20
51.16258522434838
 10
-437.1047876685973
 20
51.07029657878097
 10
-437.1552822889796
 20
50.97961226244338
  0
ENDBLK
  5
FD
330
FA
100
AcDbEntity
  8
0
100
AcDbBlockEnd
  0
BLOCK
  5
101
330
FF
100
AcDbEntity
  8
0
100
AcDbBlockBegin
  2
*E9
 70
     1
 71
     0
 10
0.0
 20
0.0
 30
0.0
  3
*E9
  1

  0
LWPOLYLINE
  5
100
330
FF
100
AcDbEntity
  8
0
  6
Continuous
 62
     7
370
     0
100
AcDbPolyline
 90
       41
 70
   128
 43
0.0
 10
-429.1538167591766
 20
50.97961226244338
 10
-429.2059128970335
 20
51.06967190716406
 10
-429.255613831557
 20
51.16144143754456
 10
-429.3028896754669
 20
51.25481257343872
 10
-429.347710541483
 20
51.34967703470041
 10
-429.3900465423252
 20
51.44592654118347
 10
-429.4298677907133
 20
51.54345281274178
 10
-429.4671443993673
 20
51.64214756922921
 10
-429.5018464810069
 20
51.74190253049961
 10
-429.5339441483518
 20
51.84260941640682
 10
-429.5634075141221
 20
51.94415994680472
 10
-429.5902066910377
 20
52.04644584154719
 10
-429.6143117918182
 20
52.14935882048807
 10
-429.6356929291834
 20
52.25279060348121
 10
-429.6543202158535
 20
52.35663291038048
 10
-429.670163764548
 20
52.46077746103975
 10
-429.6831936879869
 20
52.56511597531288
 10
-429.6933800988901
 20
52.66954017305371
 10
-429.7006931099772
 20
52.77394177411612
 10
-429.7051028339683
 20
52.87821249835397
 10
-429.7065793835832
 20
52.98224406562112
 10
-429.7051028339683
 20
53.08627563288826
 10
-429.7006931099772
 20
53.19054635712611
 10
-429.69338009889
 20
53.29494795818852
 10
-429.6831936879869
 20
53.39937215592937
 10
-429.670163764548
 20
53.50371067020249
 10
-429.6543202158534
 20
53.60785522086176
 10
-429.6356929291834
 20
53.71169752776103
 10
-429.6143117918182
 20
53.81512931075419
 10
-429.5902066910377
 20
53.91804228969505
 10
-429.5634075141221
 20
54.02032818443751
 10
-429.5339441483518
 20
54.12187871483543
 10
-429.5018464810069
 20
54.22258560074265
 10
-429.4671443993673
 20
54.32234056201305
 10
-429.4298677907134
 20
54.42103531850047
 10
-429.3900465423253
 20
54.51856159005879
 10
-429.347710541483
 20
54.61481109654186
 10
-429.3028896754669
 20
54.70967555780354
 10
-429.255613831557
 20
54.8030466936977
 10
-429.2059128970335
 20
54.89481622407819
 10
-429.1538167591766
 20
54.98487586879888
  0
ENDBLK
  5
102
330
FF
100
AcDbEntity
  8
0
100
AcDbBlockEnd
  0
BLOCK
  5
111
330
10F
100
AcDbEntity
  8
0
100
AcDbBlockBegin
  2
*E10
 70
     1
 71
     0
 10
0.0
 20
0.0
 30
0.0
  3
*E10
  1

  0
LWPOLYLINE
  5
110
330
10F
100
AcDbEntity
  8
0
  6
Continuous
 62
     7
370
     0
100
AcDbPolyline
 90
       41
 70
   128
 43
0.0
 10
-415.1529621479704
 20
54.98183618722157
 10
-415.1024535818831
 20
54.89065948369593
 10
-415.05428638836
 20
54.79788506130193
 10
-415.008487472028
 20
54.70361415439915
 10
-414.9650837375143
 20
54.60794799734724
 10
-414.924102089446
 20
54.51098782450579
 10
-414.8855694324502
 20
54.41283487023442
 10
-414.8495126711539
 20
54.31359036889275
 10
-414.8159587101845
 20
54.21335555484038
 10
-414.7849344541687
 20
54.11223166243692
 10
-414.7564668077338
 20
54.01031992604198
 10
-414.730582675507
 20
53.90772158001521
 10
-414.7073089621153
 20
53.80453785871617
 10
-414.6866725721859
 20
53.7008699965045
 10
-414.6687004103457
 20
53.59681922773981
 10
-414.653419381222
 20
53.49248678678172
 10
-414.6408563894419
 20
53.38797390798982
 10
-414.6310383396323
 20
53.28338182572374
 10
-414.6239921364205
 20
53.17881177434309
 10
-414.6197446844335
 20
53.07436498820747
 10
-414.6183228882985
 20
52.97014270167651
 10
-414.6197454184179
 20
52.86635769155835
 10
-414.6239949178353
 20
52.76234737260834
 10
-414.6310442501388
 20
52.65821339138542
 10
-414.6408662789169
 20
52.55405739444861
 10
-414.6534338677577
 20
52.44998102835687
 10
-414.6687198802496
 20
52.34608593966919
 10
-414.6866971799811
 20
52.24247377494456
 10
-414.7073386305404
 20
52.13924618074197
 10
-414.7306170955157
 20
52.03650480362037
 10
-414.7565054384954
 20
51.93435129013876
 10
-414.7849765230681
 20
51.83288728685615
 10
-414.8160032128218
 20
51.73221444033149
 10
-414.849558371345
 20
51.63243439712377
 10
-414.8856148622259
 20
51.53364880379198
 10
-414.9241455490529
 20
51.4359593068951
 10
-414.9651232954142
 20
51.33946755299211
 10
-415.0085209648984
 20
51.244275188642
 10
-415.0543114210935
 20
51.15048386040375
 10
-415.1024675275881
 20
51.05819521483633
 10
-415.1529621479704
 20
50.96751089849874
  0
ENDBLK
  5
112
330
10F
100
AcDbEntity
  8
0
100
AcDbBlockEnd
  0
BLOCK
  5
116
330
114
100
AcDbEntity
  8
0
100
AcDbBlockBegin
  2
*E11
 70
     1
 71
     0
 10
0.0
 20
0.0
 30
0.0
  3
*E11
  1

  0
LWPOLYLINE
  5
115
330
114
100
AcDbEntity
  8
0
  6
Continuous
 62
     7
370
     0
100
AcDbPolyline
 90
       41
 70
   128
 43
0.0
 10
-407.1601482116823
 20
50.97635911403252
 10
-407.2122443495392
 20
51.0664187587532
 10
-407.2619452840627
 20
51.1581882891337
 10
-407.3092211279726
 20
51.25155942502786
 10
-407.3540419939887
 20
51.34642388628954
 10
-407.3963779948309
 20
51.4426733927726
 10
-407.4361992432191
 20
51.54019966433092
 10
-407.473475851873
 20
51.63889442081835
 10
-407.5081779335126
 20
51.73864938208875
 10
-407.5402756008576
 20
51.83935626799596
 10
-407.5697389666278
 20
51.94090679839386
 10
-407.5965381435434
 20
52.04319269313633
 10
-407.6206432443239
 20
52.1461056720772
 10
-407.6420243816892
 20
52.24953745507035
 10
-407.6606516683592
 20
52.35337976196962
 10
-407.6764952170537
 20
52.45752431262889
 10
-407.6895251404927
 20
52.56186282690201
 10
-407.6997115513958
 20
52.66628702464285
 10
-407.707024562483
 20
52.77068862570526
 10
-407.7114342864741
 20
52.87495934994311
 10
-407.7129108360889
 20
52.97899091721025
 10
-407.711434286474
 20
53.0830224844774
 10
-407.707024562483
 20
53.18729320871525
 10
-407.6997115513958
 20
53.29169480977766
 10
-407.6895251404927
 20
53.39611900751851
 10
-407.6764952170537
 20
53.50045752179162
 10
-407.6606516683592
 20
53.60460207245089
 10
-407.6420243816892
 20
53.70844437935017
 10
-407.6206432443239
 20
53.81187616234332
 10
-407.5965381435434
 20
53.91478914128419
 10
-407.5697389666278
 20
54.01707503602665
 10
-407.5402756008576
 20
54.11862556642457
 10
-407.5081779335126
 20
54.21933245233179
 10
-407.473475851873
 20
54.31908741360218
 10
-407.4361992432191
 20
54.41778217008961
 10
-407.396377994831
 20
54.51530844164792
 10
-407.3540419939887
 20
54.61155794813099
 10
-407.3092211279726
 20
54.70642240939268
 10
-407.2619452840627
 20
54.79979354528684
 10
-407.2122443495392
 20
54.89156307566733
 10
-407.1601482116823
 20
54.98162272038802
  0
ENDBLK
  5
117
330
114
100
AcDbEntity
  8
0
100
AcDbBlockEnd
  0
BLOCK
  5
12E
330
123
100
AcDbEntity
  8
0
100
AcDbBlockBegin
  2
*D12
 70
     1
 71
     0
 10
0.0
 20
0.0
 30
0.0
  3
*D12
  1

  0
LINE
  5
124
330
123
100
AcDbEntity
  8
0
  6
Continuous
 62
     7
370
    -2
100
AcDbLine
 10
-492.1746884306697
 20
60.88348353396628
 30
0.0
 11
-508.0239200708297
 21
60.88348353396628
 31
0.0
  0
LINE
  5
125
330
123
100
AcDbEntity
  8
0
  6
Continuous
 62
     7
370
    -2
100
AcDbLine
 10
-492.1679442698328
 20
22.88272223132468
 30
0.0
 11
-508.0239200708297
 21
22.88272223132468
 31
0.0
  0
LINE
  5
126
330
123
100
AcDbEntity
  8
0
  6
Continuous
 62
     7
370
    -2
100
AcDbLine
 10
-507.8989200708297
 20
55.88348353396628
 30
0.0
 11
-507.8989200708297
 21
43.471128408171
 31
0.0
  0
LINE
  5
127
330
123
100
AcDbEntity
  8
0
  6
Continuous
 62
     7
370
    -2
100
AcDbLine
 10
-507.8989200708297
 20
27.88272223132468
 30
0.0
 11
-507.8989200708297
 21
40.29507735711996
 31
0.0
  0
SOLID
  5
128
330
123
100
AcDbEntity
  8
0
 62
     7
100
AcDbTrace
 10
-507.0655867374963
 20
55.88348353396628
 30
0.0
 11
-508.732253404163
 21
55.88348353396628
 31
0.0
 12
-507.8989200708297
 22
60.88348353396628
 32
0.0
 13
-507.8989200708297
 23
60.88348353396628
 33
0.0
  0
SOLID
  5
129
330
123
100
AcDbEntity
  8
0
 62
     7
100
AcDbTrace
 10
-508.732253404163
 20
27.88272223132468
 30
0.0
 11
-507.0655867374963
 21
27.88272223132468
 31
0.0
 12
-507.8989200708297
 22
22.88272223132468
 32
0.0
 13
-507.8989200708297
 23
22.88272223132468
 33
0.0
  0
MTEXT
  5
12A
330
123
100
AcDbEntity
  8
0
 62
     7
100
AcDbMText
 10
-507.8989200708297
 20
41.88310288264548
 30
0.0
 40
3.0
 41
0.0
 71
     5
 72
     1
  1
\A1;38
  7
_TCW_TXTSTY_6
 73
     1
 44
1.0
  0
POINT
  5
12B
330
123
100
AcDbEntity
  8
Defpoints
 62
     0
100
AcDbPoint
 10
-492.1121884306697
 20
60.88348353396628
 30
0.0
  0
POINT
  5
12C
330
123
100
AcDbEntity
  8
Defpoints
 62
     0
100
AcDbPoint
 10
-492.1054442698328
 20
22.88272223132468
 30
0.0
  0
POINT
  5
12D
330
123
100
AcDbEntity
  8
Defpoints
 62
     0
100
AcDbPoint
 10
-507.8989200708297
 20
22.88272223132468
 30
0.0
  0
ENDBLK
  5
12F
330
123
100
AcDbEntity
  8
0
100
AcDbBlockEnd
  0
BLOCK
  5
13E
330
134
100
AcDbEntity
  8
0
100
AcDbBlockBegin
  2
*D13
 70
     1
 71
     0
 10
0.0
 20
0.0
 30
0.0
  3
*D13
  1

  0
LINE
  5
135
330
134
100
AcDbEntity
  8
0
  6
Continuous
 62
     7
370
    -2
100
AcDbLine
 10
-445.1582516732922
 20
79.90819679915705
 30
0.0
 11
-445.1582516732922
 21
88.78737313086492
 31
0.0
  0
LINE
  5
136
330
134
100
AcDbEntity
  8
0
  6
Continuous
 62
     7
370
    -2
100
AcDbLine
 10
-399.1579232349571
 20
79.90548230523893
 30
0.0
 11
-399.1579232349571
 21
88.78737313086492
 31
0.0
  0
LINE
  5
137
330
134
100
AcDbEntity
  8
0
  6
Continuous
 62
     7
370
    -2
100
AcDbLine
 10
-440.1582516732922
 20
88.66237313086492
 30
0.0
 11
-404.1579232349571
 21
88.66237313086492
 31
0.0
  0
SOLID
  5
138
330
134
100
AcDbEntity
  8
0
 62
     7
100
AcDbTrace
 10
-440.1582516732922
 20
89.49570646419825
 30
0.0
 11
-440.1582516732922
 21
87.82903979753159
 31
0.0
 12
-445.1582516732922
 22
88.66237313086492
 32
0.0
 13
-445.1582516732922
 23
88.66237313086492
 33
0.0
  0
SOLID
  5
139
330
134
100
AcDbEntity
  8
0
 62
     7
100
AcDbTrace
 10
-404.1579232349571
 20
87.82903979753159
 30
0.0
 11
-404.1579232349571
 21
89.49570646419825
 31
0.0
 12
-399.1579232349571
 22
88.66237313086492
 32
0.0
 13
-399.1579232349571
 23
88.66237313086492
 33
0.0
  0
MTEXT
  5
13A
330
134
100
AcDbEntity
  8
0
 62
     7
100
AcDbMText
 10
-422.1580874541247
 20
90.25039865639044
 30
0.0
 40
3.0
 41
0.0
 71
     5
 72
     1
  1
\A1;46
  7
_TCW_TXTSTY_7
 73
     1
 44
1.0
  0
POINT
  5
13B
330
134
100
AcDbEntity
  8
Defpoints
 62
     0
100
AcDbPoint
 10
-445.1582516732922
 20
79.84569679915705
 30
0.0
  0
POINT
  5
13C
330
134
100
AcDbEntity
  8
Defpoints
 62
     0
100
AcDbPoint
 10
-399.1579232349571
 20
79.84298230523893
 30
0.0
  0
POINT
  5
13D
330
134
100
AcDbEntity
  8
Defpoints
 62
     0
100
AcDbPoint
 10
-399.1579232349571
 20
88.66237313086492
 30
0.0
  0
ENDBLK
  5
13F
330
134
100
AcDbEntity
  8
0
100
AcDbBlockEnd
  0
BLOCK
  5
14E
330
142
100
AcDbEntity
  8
0
100
AcDbBlockBegin
  2
*D14
 70
     1
 71
     0
 10
0.0
 20
0.0
 30
0.0
  3
*D14
  1

  0
LINE
  5
143
330
142
100
AcDbEntity
  8
0
  6
Continuous
 62
     7
370
    -2
100
AcDbLine
 10
-445.1578132368314
 20
78.42417311451513
 30
0.0
 11
-445.1578132368314
 21
84.69727077231909
 31
0.0
  0
LINE
  5
144
330
142
100
AcDbEntity
  8
0
  6
Continuous
 62
     7
370
    -2
100
AcDbLine
 10
-437.1580537334515
 20
78.42474161365604
 30
0.0
 11
-437.1580537334515
 21
84.69727077231909
 31
0.0
  0
LINE
  5
145
330
142
100
AcDbEntity
  8
0
  6
Continuous
 62
     7
370
    -2
100
AcDbLine
 10
-445.1578132368314
 20
84.57227077231909
 30
0.0
 11
-437.1580537334515
 21
84.57227077231909
 31
0.0
  0
LINE
  5
146
330
142
100
AcDbEntity
  8
0
  6
Continuous
 62
     7
370
    -2
100
AcDbLine
 10
-450.1578132368314
 20
84.57227077231909
 30
0.0
 11
-455.1578132368314
 21
84.57227077231909
 31
0.0
  0
LINE
  5
147
330
142
100
AcDbEntity
  8
0
  6
Continuous
 62
     7
370
    -2
100
AcDbLine
 10
-432.1580537334515
 20
84.57227077231909
 30
0.0
 11
-427.1580537334515
 21
84.57227077231909
 31
0.0
  0
SOLID
  5
148
330
142
100
AcDbEntity
  8
0
 62
     7
100
AcDbTrace
 10
-450.1578132368314
 20
83.73893743898576
 30
0.0
 11
-450.1578132368314
 21
85.40560410565242
 31
0.0
 12
-445.1578132368314
 22
84.57227077231909
 32
0.0
 13
-445.1578132368314
 23
84.57227077231909
 33
0.0
  0
SOLID
  5
149
330
142
100
AcDbEntity
  8
0
 62
     7
100
AcDbTrace
 10
-432.1580537334515
 20
85.40560410565242
 30
0.0
 11
-432.1580537334515
 21
83.73893743898576
 31
0.0
 12
-437.1580537334515
 22
84.57227077231909
 32
0.0
 13
-437.1580537334515
 23
84.57227077231909
 33
0.0
  0
MTEXT
  5
14A
330
142
100
AcDbEntity
  8
0
 62
     7
100
AcDbMText
 10
-441.1579334851414
 20
86.16029629784461
 30
0.0
 40
3.0
 41
0.0
 71
     5
 72
     1
  1
\A1;8
  7
_TCW_TXTSTY_8
 73
     1
 44
1.0
  0
POINT
  5
14B
330
142
100
AcDbEntity
  8
Defpoints
 62
     0
100
AcDbPoint
 10
-445.1578132368314
 20
78.36167311451513
 30
0.0
  0
POINT
  5
14C
330
142
100
AcDbEntity
  8
Defpoints
 62
     0
100
AcDbPoint
 10
-437.1580537334515
 20
78.36224161365604
 30
0.0
  0
POINT
  5
14D
330
142
100
AcDbEntity
  8
Defpoints
 62
     0
100
AcDbPoint
 10
-437.1580537334515
 20
84.57227077231909
 30
0.0
  0
ENDBLK
  5
14F
330
142
100
AcDbEntity
  8
0
100
AcDbBlockEnd
  0
BLOCK
  5
15F
330
152
100
AcDbEntity
  8
0
100
AcDbBlockBegin
  2
*D15
 70
     1
 71
     0
 10
0.0
 20
0.0
 30
0.0
  3
*D15
  1

  0
LINE
  5
153
330
152
100
AcDbEntity
  8
0
  6
Continuous
 62
     7
370
    -2
100
AcDbLine
 10
-399.0999370517621
 20
73.44894051411245
 30
0.0
 11
-389.6607836255731
 21
73.44894051411245
 31
0.0
  0
LINE
  5
154
330
152
100
AcDbEntity
  8
0
  6
Continuous
 62
     7
370
    -2
100
AcDbLine
 10
-399.114264219059
 20
77.44908562296206
 30
0.0
 11
-389.6607836255731
 21
77.44908562296206
 31
0.0
  0
LINE
  5
155
330
152
100
AcDbEntity
  8
0
  6
Continuous
 62
     7
370
    -2
100
AcDbLine
 10
-389.7857836255731
 20
73.44894051411245
 30
0.0
 11
-389.7857836255731
 21
73.88651306853725
 31
0.0
  0
LINE
  5
156
330
152
100
AcDbEntity
  8
0
  6
Continuous
 62
     7
370
    -2
100
AcDbLine
 10
-389.7857836255731
 20
77.44908562296206
 30
0.0
 11
-389.7857836255731
 21
77.01151306853725
 31
0.0
  0
LINE
  5
157
330
152
100
AcDbEntity
  8
0
  6
Continuous
 62
     7
370
    -2
100
AcDbLine
 10
-389.7857836255731
 20
68.44894051411245
 30
0.0
 11
-389.7857836255731
 21
63.44894051411245
 31
0.0
  0
LINE
  5
158
330
152
100
AcDbEntity
  8
0
  6
Continuous
 62
     7
370
    -2
100
AcDbLine
 10
-389.7857836255731
 20
82.44908562296206
 30
0.0
 11
-389.7857836255731
 21
87.44908562296206
 31
0.0
  0
SOLID
  5
159
330
152
100
AcDbEntity
  8
0
 62
     7
100
AcDbTrace
 10
-388.9524502922397
 20
68.44894051411245
 30
0.0
 11
-390.6191169589064
 21
68.44894051411245
 31
0.0
 12
-389.7857836255731
 22
73.44894051411245
 32
0.0
 13
-389.7857836255731
 23
73.44894051411245
 33
0.0
  0
SOLID
  5
15A
330
152
100
AcDbEntity
  8
0
 62
     7
100
AcDbTrace
 10
-390.6191169589064
 20
82.44908562296206
 30
0.0
 11
-388.9524502922397
 21
82.44908562296206
 31
0.0
 12
-389.7857836255731
 22
77.44908562296206
 32
0.0
 13
-389.7857836255731
 23
77.44908562296206
 33
0.0
  0
MTEXT
  5
15B
330
152
100
AcDbEntity
  8
0
 62
     7
100
AcDbMText
 10
-389.7857836255731
 20
75.44901306853725
 30
0.0
 40
3.0
 41
0.0
 71
     5
 72
     1
  1
\A1;4
  7
_TCW_TXTSTY_9
 73
     1
 44
1.0
  0
POINT
  5
15C
330
152
100
AcDbEntity
  8
Defpoints
 62
     0
100
AcDbPoint
 10
-399.1624370517621
 20
73.44894051411245
 30
0.0
  0
POINT
  5
15D
330
152
100
AcDbEntity
  8
Defpoints
 62
     0
100
AcDbPoint
 10
-399.176764219059
 20
77.44908562296206
 30
0.0
  0
POINT
  5
15E
330
152
100
AcDbEntity
  8
Defpoints
 62
     0
100
AcDbPoint
 10
-389.7857836255731
 20
77.44908562296206
 30
0.0
  0
ENDBLK
  5
160
330
152
100
AcDbEntity
  8
0
100
AcDbBlockEnd
  0
BLOCK
  5
170
330
163
100
AcDbEntity
  8
0
100
AcDbBlockBegin
  2
*D16
 70
     1
 71
     0
 10
0.0
 20
0.0
 30
0.0
  3
*D16
  1

  0
LINE
  5
164
330
163
100
AcDbEntity
  8
0
  6
Continuous
 62
     7
370
    -2
100
AcDbLine
 10
-405.9768914573932
 20
60.98105135027005
 30
0.0
 11
-394.5335140432318
 21
60.98105135027005
 31
0.0
  0
LINE
  5
165
330
163
100
AcDbEntity
  8
0
  6
Continuous
 62
     7
370
    -2
100
AcDbLine
 10
-400.5927725271653
 20
52.97811011818725
 30
0.0
 11
-394.5335140432318
 21
52.97811011818725
 31
0.0
  0
LINE
  5
166
330
163
100
AcDbEntity
  8
0
  6
Continuous
 62
     7
370
    -2
100
AcDbLine
 10
-394.6585140432318
 20
60.98105135027005
 30
0.0
 11
-394.6585140432318
 21
58.56760625975417
 31
0.0
  0
LINE
  5
167
330
163
100
AcDbEntity
  8
0
  6
Continuous
 62
     7
370
    -2
100
AcDbLine
 10
-394.6585140432318
 20
52.97811011818725
 30
0.0
 11
-394.6585140432318
 21
55.39155520870312
 31
0.0
  0
LINE
  5
168
330
163
100
AcDbEntity
  8
0
  6
Continuous
 62
     7
370
    -2
100
AcDbLine
 10
-394.6585140432318
 20
65.98105135027005
 30
0.0
 11
-394.6585140432318
 21
70.98105135027005
 31
0.0
  0
LINE
  5
169
330
163
100
AcDbEntity
  8
0
  6
Continuous
 62
     7
370
    -2
100
AcDbLine
 10
-394.6585140432318
 20
47.97811011818725
 30
0.0
 11
-394.6585140432318
 21
42.97811011818725
 31
0.0
  0
SOLID
  5
16A
330
163
100
AcDbEntity
  8
0
 62
     7
100
AcDbTrace
 10
-395.4918473765651
 20
65.98105135027005
 30
0.0
 11
-393.8251807098985
 21
65.98105135027005
 31
0.0
 12
-394.6585140432318
 22
60.98105135027005
 32
0.0
 13
-394.6585140432318
 23
60.98105135027005
 33
0.0
  0
SOLID
  5
16B
330
163
100
AcDbEntity
  8
0
 62
     7
100
AcDbTrace
 10
-393.8251807098985
 20
47.97811011818725
 30
0.0
 11
-395.4918473765651
 21
47.97811011818725
 31
0.0
 12
-394.6585140432318
 22
52.97811011818725
 32
0.0
 13
-394.6585140432318
 23
52.97811011818725
 33
0.0
  0
MTEXT
  5
16C
330
163
100
AcDbEntity
  8
0
 62
     7
100
AcDbMText
 10
-394.6585140432318
 20
56.97958073422865
 30
0.0
 40
3.0
 41
0.0
 71
     5
 72
     1
  1
\A1;8
  7
_TCW_TXTSTY_A
 73
     1
 44
1.0
  0
POINT
  5
16D
330
163
100
AcDbEntity
  8
Defpoints
 62
     0
100
AcDbPoint
 10
-406.0393914573932
 20
60.98105135027005
 30
0.0
  0
POINT
  5
16E
330
163
100
AcDbEntity
  8
Defpoints
 62
     0
100
AcDbPoint
 10
-400.6552725271653
 20
52.97811011818725
 30
0.0
  0
POINT
  5
16F
330
163
100
AcDbEntity
  8
Defpoints
 62
     0
100
AcDbPoint
 10
-394.6585140432318
 20
52.97811011818725
 30
0.0
  0
ENDBLK
  5
171
330
163
100
AcDbEntity
  8
0
100
AcDbBlockEnd
  0
BLOCK
  5
17E
330
174
100
AcDbEntity
  8
0
100
AcDbBlockBegin
  2
*D17
 70
     1
 71
     0
 10
0.0
 20
0.0
 30
0.0
  3
*D17
  1

  0
LINE
  5
175
330
174
100
AcDbEntity
  8
0
  6
Continuous
 62
     7
370
    -2
100
AcDbLine
 10
-444.6201259443868
 20
65.35660578295057
 30
0.0
 11
-442.8609292476901
 21
65.35660578295057
 31
0.0
  0
LINE
  5
176
330
174
100
AcDbEntity
  8
0
  6
Continuous
 62
     7
370
    -2
100
AcDbLine
 10
-442.8609292476901
 20
65.35660578295057
 30
0.0
 11
-439.3956168433729
 21
68.96099337871297
 31
0.0
  0
LINE
  5
177
330
174
100
AcDbEntity
  8
0
  6
Continuous
 62
     7
370
    -2
100
AcDbLine
 10
-426.9204921878313
 20
81.93678872345768
 30
0.0
 11
-423.4551797835142
 21
85.54117631922009
 31
0.0
  0
MTEXT
  5
178
330
174
100
AcDbEntity
  8
0
 62
     7
100
AcDbMText
 10
-443.7717775960384
 20
66.94463130847609
 30
0.0
 40
3.0
 41
0.0
 71
     5
 72
     1
  1
\A1;8
  7
_TCW_TXTSTY_B
 73
     1
 44
1.0
  0
SOLID
  5
179
330
174
100
AcDbEntity
  8
0
 62
     7
100
AcDbTrace
 10
-438.7948855774126
 20
68.38344131132679
 30
0.0
 11
-439.9963481093334
 21
69.53854544609918
 31
0.0
 12
-435.9303044390558
 22
72.56538097447537
 32
0.0
 13
-435.9303044390558
 23
72.56538097447537
 33
0.0
  0
SOLID
  5
17A
330
174
100
AcDbEntity
  8
0
 62
     7
100
AcDbTrace
 10
-427.5212234537917
 20
82.51434079084387
 30
0.0
 11
-426.3197609218709
 21
81.35923665607149
 31
0.0
 12
-430.3858045921484
 22
78.33240112769528
 32
0.0
 13
-430.3858045921484
 23
78.33240112769528
 33
0.0
  0
LINE
  5
17B
330
174
100
AcDbEntity
  8
0
  6
Continuous
 62
     7
370
    -2
100
AcDbLine
 10
-430.3858045921484
 20
78.33240112769528
 30
0.0
 11
-435.9303044390558
 21
72.56538097447537
 31
0.0
  0
POINT
  5
17C
330
174
100
AcDbEntity
  8
Defpoints
 62
     0
100
AcDbPoint
 10
-435.9303044390558
 20
72.56538097447537
 30
0.0
  0
POINT
  5
17D
330
174
100
AcDbEntity
  8
Defpoints
 62
     0
100
AcDbPoint
 10
-430.3858045921484
 20
78.33240112769528
 30
0.0
  0
ENDBLK
  5
17F
330
174
100
AcDbEntity
  8
0
100
AcDbBlockEnd
  0
BLOCK
  5
18C
330
182
100
AcDbEntity
  8
0
100
AcDbBlockBegin
  2
*D18
 70
     1
 71
     0
 10
0.0
 20
0.0
 30
0.0
  3
*D18
  1

  0
LINE
  5
183
330
182
100
AcDbEntity
  8
0
  6
Continuous
 62
     7
370
    -2
100
AcDbLine
 10
-422.6164728925079
 20
65.35307372548675
 30
0.0
 11
-420.8572761958113
 21
65.35307372548675
 31
0.0
  0
LINE
  5
184
330
182
100
AcDbEntity
  8
0
  6
Continuous
 62
     7
370
    -2
100
AcDbLine
 10
-420.8572761958113
 20
65.35307372548675
 30
0.0
 11
-417.3932827304163
 21
68.95872890474364
 31
0.0
  0
LINE
  5
185
330
182
100
AcDbEntity
  8
0
  6
Continuous
 62
     7
370
    -2
100
AcDbLine
 10
-404.9229062549946
 20
81.93908755006815
 30
0.0
 11
-401.4589127895998
 21
85.54474272932495
 31
0.0
  0
MTEXT
  5
186
330
182
100
AcDbEntity
  8
0
 62
     7
100
AcDbMText
 10
-421.7681245441596
 20
66.94109925101228
 30
0.0
 40
3.0
 41
0.0
 71
     5
 72
     1
  1
\A1;8
  7
_TCW_TXTSTY_C
 73
     1
 44
1.0
  0
SOLID
  5
187
330
182
100
AcDbEntity
  8
0
 62
     7
100
AcDbTrace
 10
-416.7923402005402
 20
68.38139666051116
 30
0.0
 11
-417.9942252602925
 21
69.53606114897612
 31
0.0
 12
-413.9292892650214
 22
72.56438408400044
 32
0.0
 13
-413.9292892650214
 23
72.56438408400044
 33
0.0
  0
SOLID
  5
188
330
182
100
AcDbEntity
  8
0
 62
     7
100
AcDbTrace
 10
-405.5238487848708
 20
82.51641979430063
 30
0.0
 11
-404.3219637251185
 21
81.36175530583567
 31
0.0
 12
-408.3868997203895
 22
78.33343237081135
 32
0.0
 13
-408.3868997203895
 23
78.33343237081135
 33
0.0
  0
LINE
  5
189
330
182
100
AcDbEntity
  8
0
  6
Continuous
 62
     7
370
    -2
100
AcDbLine
 10
-408.3868997203895
 20
78.33343237081135
 30
0.0
 11
-413.9292892650214
 21
72.56438408400044
 31
0.0
  0
POINT
  5
18A
330
182
100
AcDbEntity
  8
Defpoints
 62
     0
100
AcDbPoint
 10
-413.9292892650214
 20
72.56438408400044
 30
0.0
  0
POINT
  5
18B
330
182
100
AcDbEntity
  8
Defpoints
 62
     0
100
AcDbPoint
 10
-408.3868997203895
 20
78.33343237081135
 30
0.0
  0
ENDBLK
  5
18D
330
182
100
AcDbEntity
  8
0
100
AcDbBlockEnd
  0
BLOCK
  5
19D
330
192
100
AcDbEntity
  8
0
100
AcDbBlockBegin
  2
*D19
 70
     1
 71
     0
 10
0.0
 20
0.0
 30
0.0
  3
*D19
  1

  0
LINE
  5
193
330
192
100
AcDbEntity
  8
0
  6
Continuous
 62
     7
370
    -2
100
AcDbLine
 10
-438.4778284618871
 20
60.98097824821099
 30
0.0
 11
-455.550153991815
 21
60.98097824821099
 31
0.0
  0
LINE
  5
194
330
192
100
AcDbEntity
  8
0
  6
Continuous
 62
     7
370
    -2
100
AcDbLine
 10
-438.4778916979856
 20
25.98098439271339
 30
0.0
 11
-455.550153991815
 21
25.98098439271339
 31
0.0
  0
LINE
  5
195
330
192
100
AcDbEntity
  8
0
  6
Continuous
 62
     7
370
    -2
100
AcDbLine
 10
-455.425153991815
 20
55.98097824821099
 30
0.0
 11
-455.425153991815
 21
45.06900684598772
 31
0.0
  0
LINE
  5
196
330
192
100
AcDbEntity
  8
0
  6
Continuous
 62
     7
370
    -2
100
AcDbLine
 10
-455.425153991815
 20
30.98098439271339
 30
0.0
 11
-455.425153991815
 21
41.89295579493667
 31
0.0
  0
SOLID
  5
197
330
192
100
AcDbEntity
  8
0
 62
     7
100
AcDbTrace
 10
-454.5918206584817
 20
55.98097824821099
 30
0.0
 11
-456.2584873251483
 21
55.98097824821099
 31
0.0
 12
-455.425153991815
 22
60.98097824821099
 32
0.0
 13
-455.425153991815
 23
60.98097824821099
 33
0.0
  0
SOLID
  5
198
330
192
100
AcDbEntity
  8
0
 62
     7
100
AcDbTrace
 10
-456.2584873251483
 20
30.98098439271339
 30
0.0
 11
-454.5918206584817
 21
30.98098439271339
 31
0.0
 12
-455.425153991815
 22
25.98098439271339
 32
0.0
 13
-455.425153991815
 23
25.98098439271339
 33
0.0
  0
MTEXT
  5
199
330
192
100
AcDbEntity
  8
0
 62
     7
100
AcDbMText
 10
-455.425153991815
 20
43.48098132046219
 30
0.0
 40
3.0
 41
0.0
 71
     5
 72
     1
  1
\A1;35
  7
_TCW_TXTSTY_D
 73
     1
 44
1.0
  0
POINT
  5
19A
330
192
100
AcDbEntity
  8
Defpoints
 62
     0
100
AcDbPoint
 10
-438.4153284618871
 20
60.98097824821099
 30
0.0
  0
POINT
  5
19B
330
192
100
AcDbEntity
  8
Defpoints
 62
     0
100
AcDbPoint
 10
-438.4153916979856
 20
25.98098439271339
 30
0.0
  0
POINT
  5
19C
330
192
100
AcDbEntity
  8
Defpoints
 62
     0
100
AcDbPoint
 10
-455.425153991815
 20
25.98098439271339
 30
0.0
  0
ENDBLK
  5
19E
330
192
100
AcDbEntity
  8
0
100
AcDbBlockEnd
  0
BLOCK
  5
1D5
330
1CA
100
AcDbEntity
  8
0
100
AcDbBlockBegin
  2
*D20
 70
     1
 71
     0
 10
0.0
 20
0.0
 30
0.0
  3
*D20
  1

  0
LINE
  5
1CB
330
1CA
100
AcDbEntity
  8
0
  6
Continuous
 62
     7
370
    -2
100
AcDbLine
 10
-345.4294334169473
 20
73.27217358937241
 30
0.0
 11
-337.0523243484504
 21
73.27217358937241
 31
0.0
  0
LINE
  5
1CC
330
1CA
100
AcDbEntity
  8
0
  6
Continuous
 62
     7
370
    -2
100
AcDbLine
 10
-345.6293038272477
 20
91.24354021104247
 30
0.0
 11
-337.0523243484504
 21
91.24354021104247
 31
0.0
  0
LINE
  5
1CD
330
1CA
100
AcDbEntity
  8
0
  6
Continuous
 62
     7
370
    -2
100
AcDbLine
 10
-337.1773243484504
 20
78.27217358937241
 30
0.0
 11
-337.1773243484504
 21
80.66532687017741
 31
0.0
  0
LINE
  5
1CE
330
1CA
100
AcDbEntity
  8
0
  6
Continuous
 62
     7
370
    -2
100
AcDbLine
 10
-337.1773243484504
 20
86.24354021104247
 30
0.0
 11
-337.1773243484504
 21
83.85038693023748
 31
0.0
  0
SOLID
  5
1CF
330
1CA
100
AcDbEntity
  8
0
 62
     7
100
AcDbTrace
 10
-338.0106576817837
 20
78.27217358937241
 30
0.0
 11
-336.3439910151171
 21
78.27217358937241
 31
0.0
 12
-337.1773243484504
 22
73.27217358937241
 32
0.0
 13
-337.1773243484504
 23
73.27217358937241
 33
0.0
  0
SOLID
  5
1D0
330
1CA
100
AcDbEntity
  8
0
 62
     7
100
AcDbTrace
 10
-336.3439910151171
 20
86.24354021104247
 30
0.0
 11
-338.0106576817837
 21
86.24354021104247
 31
0.0
 12
-337.1773243484504
 22
91.24354021104247
 32
0.0
 13
-337.1773243484504
 23
91.24354021104247
 33
0.0
  0
MTEXT
  5
1D1
330
1CA
100
AcDbEntity
  8
0
 62
     7
100
AcDbMText
 10
-337.1773243484504
 20
82.25785690020744
 30
0.0
 40
3.0
 41
0.0
 71
     5
 72
     1
  1
\A1;9
  7
_TCW_TXTSTY_12
 73
     1
 44
1.0
  0
POINT
  5
1D2
330
1CA
100
AcDbEntity
  8
Defpoints
 62
     0
100
AcDbPoint
 10
-345.4919334169473
 20
73.27217358937241
 30
0.0
  0
POINT
  5
1D3
330
1CA
100
AcDbEntity
  8
Defpoints
 62
     0
100
AcDbPoint
 10
-345.6918038272477
 20
91.24354021104247
 30
0.0
  0
POINT
  5
1D4
330
1CA
100
AcDbEntity
  8
Defpoints
 62
     0
100
AcDbPoint
 10
-337.1773243484504
 20
91.24354021104247
 30
0.0
  0
ENDBLK
  5
1D6
330
1CA
100
AcDbEntity
  8
0
100
AcDbBlockEnd
  0
BLOCK
  5
1E6
330
1D9
100
AcDbEntity
  8
0
100
AcDbBlockBegin
  2
*D21
 70
     1
 71
     0
 10
0.0
 20
0.0
 30
0.0
  3
*D21
  1

  0
LINE
  5
1DA
330
1D9
100
AcDbEntity
  8
0
  6
Continuous
 62
     7
370
    -2
100
AcDbLine
 10
-345.3575681826242
 20
87.26186018109166
 30
0.0
 11
-341.8171326391071
 21
87.26186018109166
 31
0.0
  0
LINE
  5
1DB
330
1D9
100
AcDbEntity
  8
0
  6
Continuous
 62
     7
370
    -2
100
AcDbLine
 10
-345.2785241929988
 20
91.24354021104247
 30
0.0
 11
-341.8171326391071
 21
91.24354021104247
 31
0.0
  0
LINE
  5
1DC
330
1D9
100
AcDbEntity
  8
0
  6
Continuous
 62
     7
370
    -2
100
AcDbLine
 10
-341.9421326391071
 20
87.26186018109166
 30
0.0
 11
-341.9421326391071
 21
87.69020019606707
 31
0.0
  0
LINE
  5
1DD
330
1D9
100
AcDbEntity
  8
0
  6
Continuous
 62
     7
370
    -2
100
AcDbLine
 10
-341.9421326391071
 20
91.24354021104247
 30
0.0
 11
-341.9421326391071
 21
90.81520019606707
 31
0.0
  0
LINE
  5
1DE
330
1D9
100
AcDbEntity
  8
0
  6
Continuous
 62
     7
370
    -2
100
AcDbLine
 10
-341.9421326391071
 20
82.26186018109166
 30
0.0
 11
-341.9421326391071
 21
77.26186018109166
 31
0.0
  0
LINE
  5
1DF
330
1D9
100
AcDbEntity
  8
0
  6
Continuous
 62
     7
370
    -2
100
AcDbLine
 10
-341.9421326391071
 20
96.24354021104247
 30
0.0
 11
-341.9421326391071
 21
101.2435402110425
 31
0.0
  0
SOLID
  5
1E0
330
1D9
100
AcDbEntity
  8
0
 62
     7
100
AcDbTrace
 10
-341.1087993057737
 20
82.26186018109166
 30
0.0
 11
-342.7754659724404
 21
82.26186018109166
 31
0.0
 12
-341.9421326391071
 22
87.26186018109166
 32
0.0
 13
-341.9421326391071
 23
87.26186018109166
 33
0.0
  0
SOLID
  5
1E1
330
1D9
100
AcDbEntity
  8
0
 62
     7
100
AcDbTrace
 10
-342.7754659724404
 20
96.24354021104247
 30
0.0
 11
-341.1087993057737
 21
96.24354021104247
 31
0.0
 12
-341.9421326391071
 22
91.24354021104247
 32
0.0
 13
-341.9421326391071
 23
91.24354021104247
 33
0.0
  0
MTEXT
  5
1E2
330
1D9
100
AcDbEntity
  8
0
 62
     7
100
AcDbMText
 10
-341.9421326391071
 20
89.25270019606707
 30
0.0
 40
3.0
 41
0.0
 71
     5
 72
     1
  1
\A1;2
  7
_TCW_TXTSTY_13
 73
     1
 44
1.0
  0
POINT
  5
1E3
330
1D9
100
AcDbEntity
  8
Defpoints
 62
     0
100
AcDbPoint
 10
-345.4200681826242
 20
87.26186018109166
 30
0.0
  0
POINT
  5
1E4
330
1D9
100
AcDbEntity
  8
Defpoints
 62
     0
100
AcDbPoint
 10
-345.3410241929988
 20
91.24354021104247
 30
0.0
  0
POINT
  5
1E5
330
1D9
100
AcDbEntity
  8
Defpoints
 62
     0
100
AcDbPoint
 10
-341.9421326391071
 20
91.24354021104247
 30
0.0
  0
ENDBLK
  5
1E7
330
1D9
100
AcDbEntity
  8
0
100
AcDbBlockEnd
  0
BLOCK
  5
1F7
330
1EA
100
AcDbEntity
  8
0
100
AcDbBlockBegin
  2
*D22
 70
     1
 71
     0
 10
0.0
 20
0.0
 30
0.0
  3
*D22
  1

  0
LINE
  5
1EB
330
1EA
100
AcDbEntity
  8
0
  6
Continuous
 62
     7
370
    -2
100
AcDbLine
 10
-360.9457193675493
 20
77.24561792565004
 30
0.0
 11
-365.6231529384933
 21
77.24561792565004
 31
0.0
  0
LINE
  5
1EC
330
1EA
100
AcDbEntity
  8
0
  6
Continuous
 62
     7
370
    -2
100
AcDbLine
 10
-361.2930799589107
 20
73.28095831462541
 30
0.0
 11
-365.6231529384933
 21
73.28095831462541
 31
0.0
  0
LINE
  5
1ED
330
1EA
100
AcDbEntity
  8
0
  6
Continuous
 62
     7
370
    -2
100
AcDbLine
 10
-365.4981529384933
 20
77.24561792565004
 30
0.0
 11
-365.4981529384933
 21
76.82578812013773
 31
0.0
  0
LINE
  5
1EE
330
1EA
100
AcDbEntity
  8
0
  6
Continuous
 62
     7
370
    -2
100
AcDbLine
 10
-365.4981529384933
 20
73.28095831462541
 30
0.0
 11
-365.4981529384933
 21
73.70078812013773
 31
0.0
  0
LINE
  5
1EF
330
1EA
100
AcDbEntity
  8
0
  6
Continuous
 62
     7
370
    -2
100
AcDbLine
 10
-365.4981529384933
 20
82.24561792565004
 30
0.0
 11
-365.4981529384933
 21
87.24561792565004
 31
0.0
  0
LINE
  5
1F0
330
1EA
100
AcDbEntity
  8
0
  6
Continuous
 62
     7
370
    -2
100
AcDbLine
 10
-365.4981529384933
 20
68.28095831462541
 30
0.0
 11
-365.4981529384933
 21
63.28095831462541
 31
0.0
  0
SOLID
  5
1F1
330
1EA
100
AcDbEntity
  8
0
 62
     7
100
AcDbTrace
 10
-366.3314862718266
 20
82.24561792565004
 30
0.0
 11
-364.6648196051599
 21
82.24561792565004
 31
0.0
 12
-365.4981529384933
 22
77.24561792565004
 32
0.0
 13
-365.4981529384933
 23
77.24561792565004
 33
0.0
  0
SOLID
  5
1F2
330
1EA
100
AcDbEntity
  8
0
 62
     7
100
AcDbTrace
 10
-364.6648196051599
 20
68.28095831462541
 30
0.0
 11
-366.3314862718266
 21
68.28095831462541
 31
0.0
 12
-365.4981529384933
 22
73.28095831462541
 32
0.0
 13
-365.4981529384933
 23
73.28095831462541
 33
0.0
  0
MTEXT
  5
1F3
330
1EA
100
AcDbEntity
  8
0
 62
     7
100
AcDbMText
 10
-365.4981529384933
 20
75.26328812013773
 30
0.0
 40
3.0
 41
0.0
 71
     5
 72
     1
  1
\A1;2
  7
_TCW_TXTSTY_14
 73
     1
 44
1.0
  0
POINT
  5
1F4
330
1EA
100
AcDbEntity
  8
Defpoints
 62
     0
100
AcDbPoint
 10
-360.8832193675493
 20
77.24561792565004
 30
0.0
  0
POINT
  5
1F5
330
1EA
100
AcDbEntity
  8
Defpoints
 62
     0
100
AcDbPoint
 10
-361.2305799589107
 20
73.28095831462541
 30
0.0
  0
POINT
  5
1F6
330
1EA
100
AcDbEntity
  8
Defpoints
 62
     0
100
AcDbPoint
 10
-365.4981529384933
 20
73.28095831462541
 30
0.0
  0
ENDBLK
  5
1F8
330
1EA
100
AcDbEntity
  8
0
100
AcDbBlockEnd
  0
BLOCK
  5
205
330
1FB
100
AcDbEntity
  8
0
100
AcDbBlockBegin
  2
*D23
 70
     1
 71
     0
 10
0.0
 20
0.0
 30
0.0
  3
*D23
  1

  0
LINE
  5
1FC
330
1FB
100
AcDbEntity
  8
0
  6
Continuous
 62
     7
370
    -2
100
AcDbLine
 10
-346.1229252366091
 20
92.0064573434898
 30
0.0
 11
-346.1229252366091
 21
99.29084128659484
 31
0.0
  0
LINE
  5
1FD
330
1FB
100
AcDbEntity
  8
0
  6
Continuous
 62
     7
370
    -2
100
AcDbLine
 10
-360.1186513333586
 20
92.10274912939785
 30
0.0
 11
-360.1186513333586
 21
99.29084128659484
 31
0.0
  0
LINE
  5
1FE
330
1FB
100
AcDbEntity
  8
0
  6
Continuous
 62
     7
370
    -2
100
AcDbLine
 10
-351.1229252366091
 20
99.16584128659484
 30
0.0
 11
-355.1186513333586
 21
99.16584128659484
 31
0.0
  0
SOLID
  5
1FF
330
1FB
100
AcDbEntity
  8
0
 62
     7
100
AcDbTrace
 10
-351.1229252366091
 20
98.33250795326151
 30
0.0
 11
-351.1229252366091
 21
99.99917461992817
 31
0.0
 12
-346.1229252366091
 22
99.16584128659484
 32
0.0
 13
-346.1229252366091
 23
99.16584128659484
 33
0.0
  0
SOLID
  5
200
330
1FB
100
AcDbEntity
  8
0
 62
     7
100
AcDbTrace
 10
-355.1186513333586
 20
99.99917461992817
 30
0.0
 11
-355.1186513333586
 21
98.33250795326151
 31
0.0
 12
-360.1186513333586
 22
99.16584128659484
 32
0.0
 13
-360.1186513333586
 23
99.16584128659484
 33
0.0
  0
MTEXT
  5
201
330
1FB
100
AcDbEntity
  8
0
 62
     7
100
AcDbMText
 10
-353.1207882849839
 20
100.7583713166249
 30
0.0
 40
3.0
 41
0.0
 71
     5
 72
     1
  1
\A1;7
  7
_TCW_TXTSTY_15
 73
     1
 44
1.0
  0
POINT
  5
202
330
1FB
100
AcDbEntity
  8
Defpoints
 62
     0
100
AcDbPoint
 10
-346.1229252366091
 20
91.9439573434898
 30
0.0
  0
POINT
  5
203
330
1FB
100
AcDbEntity
  8
Defpoints
 62
     0
100
AcDbPoint
 10
-360.1186513333586
 20
92.04024912939785
 30
0.0
  0
POINT
  5
204
330
1FB
100
AcDbEntity
  8
Defpoints
 62
     0
100
AcDbPoint
 10
-360.1186513333586
 20
99.16584128659484
 30
0.0
  0
ENDBLK
  5
206
330
1FB
100
AcDbEntity
  8
0
100
AcDbBlockEnd
  0
BLOCK
  5
213
330
209
100
AcDbEntity
  8
0
100
AcDbBlockBegin
  2
*D24
 70
     1
 71
     0
 10
0.0
 20
0.0
 30
0.0
  3
*D24
  1

  0
LINE
  5
20A
330
209
100
AcDbEntity
  8
0
  6
Continuous
 62
     7
370
    -2
100
AcDbLine
 10
-373.3735137371166
 20
89.97568342781959
 30
0.0
 11
-368.2539566800596
 21
89.97568342781959
 31
0.0
  0
LINE
  5
20B
330
209
100
AcDbEntity
  8
0
  6
Continuous
 62
     7
370
    -2
100
AcDbLine
 10
-368.2539566800596
 20
89.97568342781959
 30
0.0
 11
-363.7988914453002
 21
87.70579493847977
 31
0.0
  0
LINE
  5
20C
330
209
100
AcDbEntity
  8
0
  6
Continuous
 62
     7
370
    -2
100
AcDbLine
 10
-342.4145783184546
 20
76.81033018964864
 30
0.0
 11
-337.9595130836951
 21
74.54044170030882
 31
0.0
  0
MTEXT
  5
20D
330
209
100
AcDbEntity
  8
0
 62
     7
100
AcDbMText
 10
-370.8449852085881
 20
91.60424949388566
 30
0.0
 40
3.0
 41
0.0
 71
     5
 72
     1
  1
\A1;%%c7
  7
_TCW_TXTSTY_16
 73
     1
 44
1.0
  0
SOLID
  5
20E
330
209
100
AcDbEntity
  8
0
 62
     7
100
AcDbTrace
 10
-364.1772061935235
 20
86.96328406601987
 30
0.0
 11
-363.4205766970769
 21
88.4483058109397
 31
0.0
 12
-359.3438262105407
 22
85.43590644913995
 32
0.0
 13
-359.3438262105407
 23
85.43590644913995
 33
0.0
  0
SOLID
  5
20F
330
209
100
AcDbEntity
  8
0
 62
     7
100
AcDbTrace
 10
-342.0362635702313
 20
77.55284106210856
 30
0.0
 11
-342.7928930666779
 21
76.06781931718872
 31
0.0
 12
-346.8696435532141
 22
79.08021867898846
 32
0.0
 13
-346.8696435532141
 23
79.08021867898846
 33
0.0
  0
LINE
  5
210
330
209
100
AcDbEntity
  8
0
  6
Continuous
 62
     7
370
    -2
100
AcDbLine
 10
-346.8696435532141
 20
79.08021867898846
 30
0.0
 11
-359.3438262105407
 21
85.43590644913995
 31
0.0
  0
POINT
  5
211
330
209
100
AcDbEntity
  8
Defpoints
 62
     0
100
AcDbPoint
 10
-359.3438262105407
 20
85.43590644913995
 30
0.0
  0
POINT
  5
212
330
209
100
AcDbEntity
  8
Defpoints
 62
     0
100
AcDbPoint
 10
-346.8696435532141
 20
79.08021867898846
 30
0.0
  0
ENDBLK
  5
214
330
209
100
AcDbEntity
  8
0
100
AcDbBlockEnd
  0
BLOCK
  5
228
330
21D
100
AcDbEntity
  8
0
100
AcDbBlockBegin
  2
*D25
 70
     1
 71
     0
 10
0.0
 20
0.0
 30
0.0
  3
*D25
  1

  0
LINE
  5
21E
330
21D
100
AcDbEntity
  8
0
  6
Continuous
 62
     7
370
    -2
100
AcDbLine
 10
-439.0562192994331
 20
60.98097928604096
 30
0.0
 11
-450.0013683834405
 21
60.98097928604096
 31
0.0
  0
LINE
  5
21F
330
21D
100
AcDbEntity
  8
0
  6
Continuous
 62
     7
370
    -2
100
AcDbLine
 10
-439.0562192994331
 20
31.98097928604096
 30
0.0
 11
-450.0013683834405
 21
31.98097928604096
 31
0.0
  0
LINE
  5
220
330
21D
100
AcDbEntity
  8
0
  6
Continuous
 62
     7
370
    -2
100
AcDbLine
 10
-449.8763683834405
 20
55.98097928604096
 30
0.0
 11
-449.8763683834405
 21
48.073509316071
 31
0.0
  0
LINE
  5
221
330
21D
100
AcDbEntity
  8
0
  6
Continuous
 62
     7
370
    -2
100
AcDbLine
 10
-449.8763683834405
 20
36.98097928604096
 30
0.0
 11
-449.8763683834405
 21
44.88844925601093
 31
0.0
  0
SOLID
  5
222
330
21D
100
AcDbEntity
  8
0
 62
     7
100
AcDbTrace
 10
-449.0430350501072
 20
55.98097928604096
 30
0.0
 11
-450.7097017167738
 21
55.98097928604096
 31
0.0
 12
-449.8763683834405
 22
60.98097928604096
 32
0.0
 13
-449.8763683834405
 23
60.98097928604096
 33
0.0
  0
SOLID
  5
223
330
21D
100
AcDbEntity
  8
0
 62
     7
100
AcDbTrace
 10
-450.7097017167738
 20
36.98097928604096
 30
0.0
 11
-449.0430350501072
 21
36.98097928604096
 31
0.0
 12
-449.8763683834405
 22
31.98097928604096
 32
0.0
 13
-449.8763683834405
 23
31.98097928604096
 33
0.0
  0
MTEXT
  5
224
330
21D
100
AcDbEntity
  8
0
 62
     7
100
AcDbMText
 10
-449.8763683834405
 20
46.48097928604096
 30
0.0
 40
3.0
 41
0.0
 71
     5
 72
     1
  1
\A1;29
  7
_TCW_TXTSTY_19
 73
     1
 44
1.0
  0
POINT
  5
225
330
21D
100
AcDbEntity
  8
Defpoints
 62
     0
100
AcDbPoint
 10
-438.9937192994331
 20
60.98097928604096
 30
0.0
  0
POINT
  5
226
330
21D
100
AcDbEntity
  8
Defpoints
 62
     0
100
AcDbPoint
 10
-438.9937192994331
 20
31.98097928604096
 30
0.0
  0
POINT
  5
227
330
21D
100
AcDbEntity
  8
Defpoints
 62
     0
100
AcDbPoint
 10
-449.8763683834405
 20
31.98097928604096
 30
0.0
  0
ENDBLK
  5
229
330
21D
100
AcDbEntity
  8
0
100
AcDbBlockEnd
  0
ENDSEC
  0
SECTION
  2
ENTITIES
  0
LWPOLYLINE
  5
39
330
1F
100
AcDbEntity
  8
0
  6
Continuous
 62
     7
370
     0
100
AcDbPolyline
 90
        4
 70
   129
 43
0.0
 10
-514.0169924838194
 20
209.2368916438844
 10
-234.0169924838195
 20
209.2368916438844
 10
-234.0169924838195
 20
16.23689164388433
 10
-514.0169924838194
 20
16.23689164388433
1001
TCAD
1000
TCW_CUSTOM_DATA
1002
{
1000
#$AUX@_ToolInfo Properties
1070
     8
1000
CMD_RECTANGLE@
1002
}
  0
LINE
  5
3A
330
1F
100
AcDbEntity
  8
0
  6
Continuous
 62
     7
370
     0
100
AcDbLine
 10
-507.5997394260903
 20
107.4999100779308
 30
0.0
 11
-463.7661183450172
 21
107.4999100779308
 31
0.0
1001
TCAD
1000
TCW_CUSTOM_DATA
1002
{
1000
#$AUX@_ToolInfo Properties
1070
     8
1000
CMD_LINE@
1002
}
  0
LINE
  5
3B
330
1F
100
AcDbEntity
  8
0
  6
Continuous
 62
     7
370
     0
100
AcDbLine
 10
-463.7298615414847
 20
204.4999055706553
 30
0.0
 11
-507.3830451763781
 21
204.4999055706553
 31
0.0
1001
TCAD
1000
TCW_CUSTOM_DATA
1002
{
1000
#$AUX@_ToolInfo Properties
1070
     8
1000
CMD_LINE@
1002
}
  0
LINE
  5
3C
330
1F
100
AcDbEntity
  8
0
  6
Continuous
 62
     7
370
     0
100
AcDbLine
 10
-499.5967994542004
 20
194.4998906148483
 30
0.0
 11
-471.6968140737367
 21
194.4998906148483
 31
0.0
1001
TCAD
1000
TCW_CUSTOM_DATA
1002
{
1000
#$AUX@_ToolInfo Properties
1070
     8
1000
CMD_LINE@
1002
}
  0
LINE
  5
3D
330
1F
100
AcDbEntity
  8
0
  6
Continuous
 62
     7
370
     0
100
AcDbLine
 10
-499.596799152327
 20
194.4998796297558
 30
0.0
 11
-499.596799152327
 21
157.4998932680999
 31
0.0
1001
TCAD
1000
TCW_CUSTOM_DATA
1002
{
1000
#$AUX@_ToolInfo Properties
1070
     8
1000
CMD_LINE@
1002
}
  0
LINE
  5
3E
330
1F
100
AcDbEntity
  8
0
  6
Continuous
 62
     7
370
     0
100
AcDbLine
 10
-499.5967930789663
 20
157.4998806532971
 30
0.0
 11
-471.6990974500329
 21
157.4998806532971
 31
0.0
1001
TCAD
1000
TCW_CUSTOM_DATA
1002
{
1000
#$AUX@_ToolInfo Properties
1070
     8
1000
CMD_LINE@
1002
}
  0
LINE
  5
3F
330
1F
100
AcDbEntity
  8
0
  6
Continuous
 62
     7
370
     0
100
AcDbLine
 10
-471.6968251329546
 20
194.4998929349284
 30
0.0
 11
-471.6968251329546
 21
157.5008070596136
 31
0.0
1001
TCAD
1000
TCW_CUSTOM_DATA
1002
{
1000
#$AUX@_ToolInfo Properties
1070
     8
1000
CMD_LINE@
1002
}
  0
LINE
  5
40
330
1F
100
AcDbEntity
  8
0
  6
Continuous
 62
     7
370
     0
100
AcDbLine
 10
-502.59679358241
 20
197.4998859355464
 30
0.0
 11
-499.5967953501144
 21
194.4998779815251
 31
0.0
1001
TCAD
1000
TCW_CUSTOM_DATA
1002
{
1000
#$AUX@_ToolInfo Properties
1070
     8
1000
CMD_LINE@
1002
}
  0
LINE
  5
41
330
1F
100
AcDbEntity
  8
0
  6
Continuous
 62
     7
370
     0
100
AcDbLine
 10
-468.6968117477242
 20
197.4998775998172
 30
0.0
 11
-471.6968109723327
 21
194.4998783752085
 31
0.0
1001
TCAD
1000
TCW_CUSTOM_DATA
1002
{
1000
#$AUX@_ToolInfo Properties
1070
     8
1000
CMD_LINE@
1002
}
  0
LINE
  5
42
330
1F
100
AcDbEntity
  8
0
  6
Continuous
 62
     7
370
     0
100
AcDbLine
 10
-502.596791855148
 20
197.499881981129
 30
0.0
 11
-468.7117664406784
 21
197.499881981129
 31
0.0
1001
TCAD
1000
TCW_CUSTOM_DATA
1002
{
1000
#$AUX@_ToolInfo Properties
1070
     8
1000
CMD_LINE@
1002
}
  0
LINE
  5
43
330
1F
100
AcDbEntity
  8
0
  6
Continuous
 62
     7
370
     0
100
AcDbLine
 10
-468.6968218841595
 20
197.4998819811295
 30
0.0
 11
-468.6968218841595
 21
154.5089718340666
 31
0.0
1001
TCAD
1000
TCW_CUSTOM_DATA
1002
{
1000
#$AUX@_ToolInfo Properties
1070
     8
1000
CMD_LINE@
1002
}
  0
LINE
  5
44
330
1F
100
AcDbEntity
  8
0
  6
Continuous
 62
     7
370
     0
100
AcDbLine
 10
-502.5967934110942
 20
154.5044749575289
 30
0.0
 11
-502.5967934110942
 21
197.4998786362304
 31
0.0
1001
TCAD
1000
TCW_CUSTOM_DATA
1002
{
1000
#$AUX@_ToolInfo Properties
1070
     8
1000
CMD_LINE@
1002
}
  0
LINE
  5
45
330
1F
100
AcDbEntity
  8
0
  6
Continuous
 62
     7
370
     0
100
AcDbLine
 10
-499.5968162246801
 20
194.4998704299525
 30
0.0
 11
-471.6968282038212
 21
194.4998704299525
 31
0.0
1001
TCAD
1000
TCW_CUSTOM_DATA
1002
{
1000
#$AUX@_ToolInfo Properties
1070
     8
1000
CMD_LINE@
1002
}
  0
LINE
  5
46
330
1F
100
AcDbEntity
  8
0
  6
Continuous
 62
     7
370
     0
100
AcDbLine
 10
-471.6968282038212
 20
194.4998704299525
 30
0.0
 11
-471.6968282038221
 21
157.5038975711543
 31
0.0
1001
TCAD
1000
TCW_CUSTOM_DATA
1002
{
1000
#$AUX@_ToolInfo Properties
1070
     8
1000
CMD_LINE@
1002
}
  0
LINE
  5
47
330
1F
100
AcDbEntity
  8
0
  6
Continuous
 62
     7
370
     0
100
AcDbLine
 10
-499.5968006208256
 20
157.4998877249323
 30
0.0
 11
-471.6968067086588
 21
157.4998877249323
 31
0.0
1001
TCAD
1000
TCW_CUSTOM_DATA
1002
{
1000
#$AUX@_ToolInfo Properties
1070
     8
1000
CMD_LINE@
1002
}
  0
LINE
  5
48
330
1F
100
AcDbEntity
  8
0
  6
Continuous
 62
     7
370
     0
100
AcDbLine
 10
-468.6954670538102
 20
154.4998746731825
 30
0.0
 11
-502.5931397852052
 21
154.4998746731827
 31
0.0
1001
TCAD
1000
TCW_CUSTOM_DATA
1002
{
1000
#$AUX@_ToolInfo Properties
1070
     8
1000
CMD_LINE@
1002
}
  0
LINE
  5
49
330
1F
100
AcDbEntity
  8
0
  6
Continuous
 62
     7
370
     0
100
AcDbLine
 10
-507.5968073321871
 20
107.4999145947742
 30
0.0
 11
-507.5968073321871
 21
204.5000899220692
 31
0.0
1001
TCAD
1000
TCW_CUSTOM_DATA
1002
{
1000
#$AUX@_ToolInfo Properties
1070
     8
1000
CMD_LINE@
1002
}
  0
LINE
  5
4A
330
1F
100
AcDbEntity
  8
0
  6
Continuous
 62
     7
370
     0
100
AcDbLine
 10
-463.6968215217359
 20
204.4998951448785
 30
0.0
 11
-463.6968215217359
 21
107.6066860729519
 31
0.0
1001
TCAD
1000
TCW_CUSTOM_DATA
1002
{
1000
#$AUX@_ToolInfo Properties
1070
     8
1000
CMD_LINE@
1002
}
  0
LINE
  5
4B
330
1F
100
AcDbEntity
  8
0
  6
Continuous
 62
     7
370
     0
100
AcDbLine
 10
-499.5964152946673
 20
157.5011994488336
 30
0.0
 11
-502.5931397856518
 21
154.4971300448811
 31
0.0
1001
TCAD
1000
TCW_CUSTOM_DATA
1002
{
1000
#$AUX@_ToolInfo Properties
1070
     8
1000
CMD_LINE@
1002
}
  0
LINE
  5
4C
330
1F
100
AcDbEntity
  8
0
  6
Continuous
 62
     7
370
     0
100
AcDbLine
 10
-471.6984871847819
 20
157.4958031772702
 30
0.0
 11
-468.6954670538102
 21
154.5008774401826
 31
0.0
1001
TCAD
1000
TCW_CUSTOM_DATA
1002
{
1000
#$AUX@_ToolInfo Properties
1070
     8
1000
CMD_LINE@
1002
}
  0
LINE
  5
4D
330
1F
100
AcDbEntity
  8
0
  6
Continuous
 62
     7
370
     0
100
AcDbLine
 10
-457.2061865552237
 20
107.4999100779308
 30
0.0
 11
-413.3725654741506
 21
107.4999100779308
 31
0.0
1001
TCAD
1000
TCW_CUSTOM_DATA
1002
{
1000
#$AUX@_ToolInfo Properties
1070
     8
1000
CMD_LINE@
1002
}
  0
LINE
  5
4E
330
1F
100
AcDbEntity
  8
0
  6
Continuous
 62
     7
370
     0
100
AcDbLine
 10
-413.3363086706181
 20
204.4999055706554
 30
0.0
 11
-456.9894923055115
 21
204.4999055706554
 31
0.0
1001
TCAD
1000
TCW_CUSTOM_DATA
1002
{
1000
#$AUX@_ToolInfo Properties
1070
     8
1000
CMD_LINE@
1002
}
  0
LINE
  5
4F
330
1F
100
AcDbEntity
  8
0
  6
Continuous
 62
     7
370
     0
100
AcDbLine
 10
-449.2032465833338
 20
194.4998906148483
 30
0.0
 11
-421.3032612028701
 21
194.4998906148483
 31
0.0
1001
TCAD
1000
TCW_CUSTOM_DATA
1002
{
1000
#$AUX@_ToolInfo Properties
1070
     8
1000
CMD_LINE@
1002
}
  0
LINE
  5
50
330
1F
100
AcDbEntity
  8
0
  6
Continuous
 62
     7
370
     0
100
AcDbLine
 10
-449.2032462814605
 20
194.4998796297559
 30
0.0
 11
-449.2032462814605
 21
157.4998932680999
 31
0.0
1001
TCAD
1000
TCW_CUSTOM_DATA
1002
{
1000
#$AUX@_ToolInfo Properties
1070
     8
1000
CMD_LINE@
1002
}
  0
LINE
  5
51
330
1F
100
AcDbEntity
  8
0
  6
Continuous
 62
     7
370
     0
100
AcDbLine
 10
-449.2032402080997
 20
157.4998806532971
 30
0.0
 11
-421.3055445791663
 21
157.4998806532971
 31
0.0
1001
TCAD
1000
TCW_CUSTOM_DATA
1002
{
1000
#$AUX@_ToolInfo Properties
1070
     8
1000
CMD_LINE@
1002
}
  0
LINE
  5
52
330
1F
100
AcDbEntity
  8
0
  6
Continuous
 62
     7
370
     0
100
AcDbLine
 10
-421.3032722620881
 20
194.4998929349284
 30
0.0
 11
-421.3032722620881
 21
157.5008070596137
 31
0.0
1001
TCAD
1000
TCW_CUSTOM_DATA
1002
{
1000
#$AUX@_ToolInfo Properties
1070
     8
1000
CMD_LINE@
1002
}
  0
LINE
  5
53
330
1F
100
AcDbEntity
  8
0
  6
Continuous
 62
     7
370
     0
100
AcDbLine
 10
-452.2032407115435
 20
197.4998859355465
 30
0.0
 11
-449.2032424792478
 21
194.4998779815251
 31
0.0
1001
TCAD
1000
TCW_CUSTOM_DATA
1002
{
1000
#$AUX@_ToolInfo Properties
1070
     8
1000
CMD_LINE@
1002
}
  0
LINE
  5
54
330
1F
100
AcDbEntity
  8
0
  6
Continuous
 62
     7
370
     0
100
AcDbLine
 10
-418.3032588768576
 20
197.4998775998172
 30
0.0
 11
-421.3032581014661
 21
194.4998783752085
 31
0.0
1001
TCAD
1000
TCW_CUSTOM_DATA
1002
{
1000
#$AUX@_ToolInfo Properties
1070
     8
1000
CMD_LINE@
1002
}
  0
LINE
  5
55
330
1F
100
AcDbEntity
  8
0
  6
Continuous
 62
     7
370
     0
100
AcDbLine
 10
-452.2032389842814
 20
197.499881981129
 30
0.0
 11
-418.3182135698119
 21
197.499881981129
 31
0.0
1001
TCAD
1000
TCW_CUSTOM_DATA
1002
{
1000
#$AUX@_ToolInfo Properties
1070
     8
1000
CMD_LINE@
1002
}
  0
LINE
  5
56
330
1F
100
AcDbEntity
  8
0
  6
Continuous
 62
     7
370
     0
100
AcDbLine
 10
-418.3032690132929
 20
197.4998819811296
 30
0.0
 11
-418.3032690132929
 21
154.5089718340667
 31
0.0
1001
TCAD
1000
TCW_CUSTOM_DATA
1002
{
1000
#$AUX@_ToolInfo Properties
1070
     8
1000
CMD_LINE@
1002
}
  0
LINE
  5
57
330
1F
100
AcDbEntity
  8
0
  6
Continuous
 62
     7
370
     0
100
AcDbLine
 10
-452.2032405402276
 20
154.504474957529
 30
0.0
 11
-452.2032405402276
 21
197.4998786362304
 31
0.0
1001
TCAD
1000
TCW_CUSTOM_DATA
1002
{
1000
#$AUX@_ToolInfo Properties
1070
     8
1000
CMD_LINE@
1002
}
  0
LINE
  5
58
330
1F
100
AcDbEntity
  8
0
  6
Continuous
 62
     7
370
     0
100
AcDbLine
 10
-449.2032633538136
 20
194.4998704299524
 30
0.0
 11
-421.3032753329546
 21
194.4998704299524
 31
0.0
1001
TCAD
1000
TCW_CUSTOM_DATA
1002
{
1000
#$AUX@_ToolInfo Properties
1070
     8
1000
CMD_LINE@
1002
}
  0
LINE
  5
59
330
1F
100
AcDbEntity
  8
0
  6
Continuous
 62
     7
370
     0
100
AcDbLine
 10
-421.3032753329546
 20
194.4998704299524
 30
0.0
 11
-421.3032753329555
 21
157.5038975711544
 31
0.0
1001
TCAD
1000
TCW_CUSTOM_DATA
1002
{
1000
#$AUX@_ToolInfo Properties
1070
     8
1000
CMD_LINE@
1002
}
  0
LINE
  5
5A
330
1F
100
AcDbEntity
  8
0
  6
Continuous
 62
     7
370
     0
100
AcDbLine
 10
-449.203247749959
 20
157.4998877249323
 30
0.0
 11
-421.3032538377922
 21
157.4998877249323
 31
0.0
1001
TCAD
1000
TCW_CUSTOM_DATA
1002
{
1000
#$AUX@_ToolInfo Properties
1070
     8
1000
CMD_LINE@
1002
}
  0
LINE
  5
5B
330
1F
100
AcDbEntity
  8
0
  6
Continuous
 62
     7
370
     0
100
AcDbLine
 10
-418.3019141829436
 20
154.4998746731825
 30
0.0
 11
-452.1995869143386
 21
154.4998746731827
 31
0.0
1001
TCAD
1000
TCW_CUSTOM_DATA
1002
{
1000
#$AUX@_ToolInfo Properties
1070
     8
1000
CMD_LINE@
1002
}
  0
LINE
  5
5C
330
1F
100
AcDbEntity
  8
0
  6
Continuous
 62
     7
370
     0
100
AcDbLine
 10
-457.2032544613205
 20
107.4999145947741
 30
0.0
 11
-457.2032544613205
 21
204.5000899220692
 31
0.0
1001
TCAD
1000
TCW_CUSTOM_DATA
1002
{
1000
#$AUX@_ToolInfo Properties
1070
     8
1000
CMD_LINE@
1002
}
  0
LINE
  5
5D
330
1F
100
AcDbEntity
  8
0
  6
Continuous
 62
     7
370
     0
100
AcDbLine
 10
-413.3032686508693
 20
204.4998951448785
 30
0.0
 11
-413.3032686508693
 21
107.6066860729518
 31
0.0
1001
TCAD
1000
TCW_CUSTOM_DATA
1002
{
1000
#$AUX@_ToolInfo Properties
1070
     8
1000
CMD_LINE@
1002
}
  0
LINE
  5
5E
330
1F
100
AcDbEntity
  8
0
  6
Continuous
 62
     7
370
     0
100
AcDbLine
 10
-449.2028624238008
 20
157.5011994488337
 30
0.0
 11
-452.1995869147852
 21
154.4971300448812
 31
0.0
1001
TCAD
1000
TCW_CUSTOM_DATA
1002
{
1000
#$AUX@_ToolInfo Properties
1070
     8
1000
CMD_LINE@
1002
}
  0
LINE
  5
5F
330
1F
100
AcDbEntity
  8
0
  6
Continuous
 62
     7
370
     0
100
AcDbLine
 10
-421.3049343139153
 20
157.4958031772703
 30
0.0
 11
-418.3019141829436
 21
154.5008774401827
 31
0.0
1001
TCAD
1000
TCW_CUSTOM_DATA
1002
{
1000
#$AUX@_ToolInfo Properties
1070
     8
1000
CMD_LINE@
1002
}
  0
LINE
  5
60
330
1F
100
AcDbEntity
  8
0
  6
Continuous
 62
     7
370
     0
100
AcDbLine
 10
-404.8989544614128
 20
107.4999100779308
 30
0.0
 11
-361.0653333803398
 21
107.4999100779308
 31
0.0
1001
TCAD
1000
TCW_CUSTOM_DATA
1002
{
1000
#$AUX@_ToolInfo Properties
1070
     8
1000
CMD_LINE@
1002
}
  0
LINE
  5
61
330
1F
100
AcDbEntity
  8
0
  6
Continuous
 62
     7
370
     0
100
AcDbLine
 10
-361.0290765768073
 20
204.4999055706554
 30
0.0
 11
-404.6822602117006
 21
204.4999055706554
 31
0.0
1001
TCAD
1000
TCW_CUSTOM_DATA
1002
{
1000
#$AUX@_ToolInfo Properties
1070
     8
1000
CMD_LINE@
1002
}
  0
LINE
  5
62
330
1F
100
AcDbEntity
  8
0
  6
Continuous
 62
     7
370
     0
100
AcDbLine
 10
-396.8960144895229
 20
194.4998906148483
 30
0.0
 11
-368.9960291090592
 21
194.4998906148483
 31
0.0
1001
TCAD
1000
TCW_CUSTOM_DATA
1002
{
1000
#$AUX@_ToolInfo Properties
1070
     8
1000
CMD_LINE@
1002
}
  0
LINE
  5
63
330
1F
100
AcDbEntity
  8
0
  6
Continuous
 62
     7
370
     0
100
AcDbLine
 10
-396.8960141876496
 20
194.4998796297559
 30
0.0
 11
-396.8960141876496
 21
157.4998932680999
 31
0.0
1001
TCAD
1000
TCW_CUSTOM_DATA
1002
{
1000
#$AUX@_ToolInfo Properties
1070
     8
1000
CMD_LINE@
1002
}
  0
LINE
  5
64
330
1F
100
AcDbEntity
  8
0
  6
Continuous
 62
     7
370
     0
100
AcDbLine
 10
-396.8960081142889
 20
157.4998806532971
 30
0.0
 11
-368.9983124853554
 21
157.4998806532971
 31
0.0
1001
TCAD
1000
TCW_CUSTOM_DATA
1002
{
1000
#$AUX@_ToolInfo Properties
1070
     8
1000
CMD_LINE@
1002
}
  0
LINE
  5
65
330
1F
100
AcDbEntity
  8
0
  6
Continuous
 62
     7
370
     0
100
AcDbLine
 10
-368.9960401682772
 20
194.4998929349284
 30
0.0
 11
-368.9960401682772
 21
157.5008070596137
 31
0.0
1001
TCAD
1000
TCW_CUSTOM_DATA
1002
{
1000
#$AUX@_ToolInfo Properties
1070
     8
1000
CMD_LINE@
1002
}
  0
LINE
  5
66
330
1F
100
AcDbEntity
  8
0
  6
Continuous
 62
     7
370
     0
100
AcDbLine
 10
-399.8960086177326
 20
197.4998859355465
 30
0.0
 11
-396.896010385437
 21
194.4998779815251
 31
0.0
1001
TCAD
1000
TCW_CUSTOM_DATA
1002
{
1000
#$AUX@_ToolInfo Properties
1070
     8
1000
CMD_LINE@
1002
}
  0
LINE
  5
67
330
1F
100
AcDbEntity
  8
0
  6
Continuous
 62
     7
370
     0
100
AcDbLine
 10
-365.9960267830468
 20
197.4998775998172
 30
0.0
 11
-368.9960260076552
 21
194.4998783752085
 31
0.0
1001
TCAD
1000
TCW_CUSTOM_DATA
1002
{
1000
#$AUX@_ToolInfo Properties
1070
     8
1000
CMD_LINE@
1002
}
  0
LINE
  5
68
330
1F
100
AcDbEntity
  8
0
  6
Continuous
 62
     7
370
     0
100
AcDbLine
 10
-399.8960068904705
 20
197.499881981129
 30
0.0
 11
-366.010981476001
 21
197.499881981129
 31
0.0
1001
TCAD
1000
TCW_CUSTOM_DATA
1002
{
1000
#$AUX@_ToolInfo Properties
1070
     8
1000
CMD_LINE@
1002
}
  0
LINE
  5
69
330
1F
100
AcDbEntity
  8
0
  6
Continuous
 62
     7
370
     0
100
AcDbLine
 10
-365.9960369194821
 20
197.4998819811296
 30
0.0
 11
-365.9960369194821
 21
154.5089718340667
 31
0.0
1001
TCAD
1000
TCW_CUSTOM_DATA
1002
{
1000
#$AUX@_ToolInfo Properties
1070
     8
1000
CMD_LINE@
1002
}
  0
LINE
  5
6A
330
1F
100
AcDbEntity
  8
0
  6
Continuous
 62
     7
370
     0
100
AcDbLine
 10
-399.8960084464168
 20
154.504474957529
 30
0.0
 11
-399.8960084464168
 21
197.4998786362304
 31
0.0
1001
TCAD
1000
TCW_CUSTOM_DATA
1002
{
1000
#$AUX@_ToolInfo Properties
1070
     8
1000
CMD_LINE@
1002
}
  0
LINE
  5
6B
330
1F
100
AcDbEntity
  8
0
  6
Continuous
 62
     7
370
     0
100
AcDbLine
 10
-396.8960312600027
 20
194.4998704299524
 30
0.0
 11
-368.9960432391438
 21
194.4998704299524
 31
0.0
1001
TCAD
1000
TCW_CUSTOM_DATA
1002
{
1000
#$AUX@_ToolInfo Properties
1070
     8
1000
CMD_LINE@
1002
}
  0
LINE
  5
6C
330
1F
100
AcDbEntity
  8
0
  6
Continuous
 62
     7
370
     0
100
AcDbLine
 10
-368.9960432391438
 20
194.4998704299524
 30
0.0
 11
-368.9960432391447
 21
157.5038975711544
 31
0.0
1001
TCAD
1000
TCW_CUSTOM_DATA
1002
{
1000
#$AUX@_ToolInfo Properties
1070
     8
1000
CMD_LINE@
1002
}
  0
LINE
  5
6D
330
1F
100
AcDbEntity
  8
0
  6
Continuous
 62
     7
370
     0
100
AcDbLine
 10
-396.8960156561482
 20
157.4998877249323
 30
0.0
 11
-368.9960217439814
 21
157.4998877249323
 31
0.0
1001
TCAD
1000
TCW_CUSTOM_DATA
1002
{
1000
#$AUX@_ToolInfo Properties
1070
     8
1000
CMD_LINE@
1002
}
  0
LINE
  5
6E
330
1F
100
AcDbEntity
  8
0
  6
Continuous
 62
     7
370
     0
100
AcDbLine
 10
-365.9946820891328
 20
154.4998746731825
 30
0.0
 11
-399.8923548205278
 21
154.4998746731827
 31
0.0
1001
TCAD
1000
TCW_CUSTOM_DATA
1002
{
1000
#$AUX@_ToolInfo Properties
1070
     8
1000
CMD_LINE@
1002
}
  0
LINE
  5
6F
330
1F
100
AcDbEntity
  8
0
  6
Continuous
 62
     7
370
     0
100
AcDbLine
 10
-404.8960223675097
 20
107.4999145947741
 30
0.0
 11
-404.8960223675097
 21
204.5000899220692
 31
0.0
1001
TCAD
1000
TCW_CUSTOM_DATA
1002
{
1000
#$AUX@_ToolInfo Properties
1070
     8
1000
CMD_LINE@
1002
}
  0
LINE
  5
70
330
1F
100
AcDbEntity
  8
0
  6
Continuous
 62
     7
370
     0
100
AcDbLine
 10
-360.9960365570585
 20
204.4998951448785
 30
0.0
 11
-360.9960365570585
 21
107.6066860729518
 31
0.0
1001
TCAD
1000
TCW_CUSTOM_DATA
1002
{
1000
#$AUX@_ToolInfo Properties
1070
     8
1000
CMD_LINE@
1002
}
  0
LINE
  5
71
330
1F
100
AcDbEntity
  8
0
  6
Continuous
 62
     7
370
     0
100
AcDbLine
 10
-396.8956303299899
 20
157.5011994488337
 30
0.0
 11
-399.8923548209743
 21
154.4971300448812
 31
0.0
1001
TCAD
1000
TCW_CUSTOM_DATA
1002
{
1000
#$AUX@_ToolInfo Properties
1070
     8
1000
CMD_LINE@
1002
}
  0
LINE
  5
72
330
1F
100
AcDbEntity
  8
0
  6
Continuous
 62
     7
370
     0
100
AcDbLine
 10
-368.9977022201044
 20
157.4958031772703
 30
0.0
 11
-365.9946820891328
 21
154.5008774401827
 31
0.0
1001
TCAD
1000
TCW_CUSTOM_DATA
1002
{
1000
#$AUX@_ToolInfo Properties
1070
     8
1000
CMD_LINE@
1002
}
  0
LINE
  5
73
330
1F
100
AcDbEntity
  8
0
  6
Continuous
 62
     5
420
      255
370
     0
100
AcDbLine
 10
-244.9676789308264
 20
146.4670442031461
 30
0.0
 11
-324.8983777115516
 21
146.4670442031463
 31
0.0
1001
TCAD
1000
TCW_CUSTOM_DATA
1002
{
1000
#$AUX@_ToolInfo Properties
1070
     8
1000
CMD_LINE@
1002
}
  0
LINE
  5
74
330
1F
100
AcDbEntity
  8
0
  6
Continuous
 62
     7
370
     0
100
AcDbLine
 10
-324.8983777224043
 20
93.467044816358
 30
0.0
 11
-244.9676789393611
 21
93.467044816358
 31
0.0
1001
TCAD
1000
TCW_CUSTOM_DATA
1002
{
1000
#$AUX@_ToolInfo Properties
1070
     8
1000
CMD_LINE@
1002
}
  0
LINE
  5
75
330
1F
100
AcDbEntity
  8
0
  6
Continuous
 62
     7
370
     0
100
AcDbLine
 10
-324.8983777224043
 20
199.4670461097984
 30
0.0
 11
-244.9676789393611
 21
199.4670461097984
 31
0.0
1001
TCAD
1000
TCW_CUSTOM_DATA
1002
{
1000
#$AUX@_ToolInfo Properties
1070
     8
1000
CMD_LINE@
1002
}
  0
LINE
  5
76
330
1F
100
AcDbEntity
  8
0
  6
Continuous
 62
     7
370
     0
100
AcDbLine
 10
-324.9912805878294
 20
88.45946784171656
 30
0.0
 11
-324.9912805878294
 21
204.6309812984119
 31
0.0
1001
TCAD
1000
TCW_CUSTOM_DATA
1002
{
1000
#$AUX@_ToolInfo Properties
1070
     8
1000
CMD_LINE@
1002
}
  0
LINE
  5
77
330
1F
100
AcDbEntity
  8
0
  6
Continuous
 62
     7
370
     0
100
AcDbLine
 10
-244.9878515838761
 20
93.42548085337381
 30
0.0
 11
-244.9878515838761
 21
199.6169599709364
 31
0.0
1001
TCAD
1000
TCW_CUSTOM_DATA
1002
{
1000
#$AUX@_ToolInfo Properties
1070
     8
1000
CMD_LINE@
1002
}
  0
LINE
  5
78
330
1F
100
AcDbEntity
  8
0
  6
Continuous
 62
     7
370
     0
100
AcDbLine
 10
-239.9878826692143
 20
88.46929056002358
 30
0.0
 11
-239.9878826692143
 21
204.4671604464532
 31
0.0
1001
TCAD
1000
TCW_CUSTOM_DATA
1002
{
1000
#$AUX@_ToolInfo Properties
1070
     8
1000
CMD_LINE@
1002
}
  0
LINE
  5
79
330
1F
100
AcDbEntity
  8
0
  6
Continuous
 62
     7
370
     0
100
AcDbLine
 10
-324.9912871122831
 20
204.4670843145539
 30
0.0
 11
-239.9878939487032
 21
204.4670843145539
 31
0.0
1001
TCAD
1000
TCW_CUSTOM_DATA
1002
{
1000
#$AUX@_ToolInfo Properties
1070
     8
1000
CMD_LINE@
1002
}
  0
LINE
  5
7A
330
1F
100
AcDbEntity
  8
0
  6
Continuous
 62
     7
370
     0
100
AcDbLine
 10
-324.991277310432
 20
88.46706086713971
 30
0.0
 11
-239.9673854970367
 21
88.46706086713971
 31
0.0
1001
TCAD
1000
TCW_CUSTOM_DATA
1002
{
1000
#$AUX@_ToolInfo Properties
1070
     8
1000
CMD_LINE@
1002
}
  0
MTEXT
  5
7B
330
1F
100
AcDbEntity
  8
0
  6
Continuous
 62
     7
100
AcDbMText
 10
-297.5910302695661
 20
53.60571676942898
 30
0.0
 40
3.522528076171875
 41
60.20518770813942
 71
     1
 72
     1
  1
{SPRINGER    OSZTБLYЪ \PTOLУHAJУ R/C Modellje\PM1:1\PSRY MODELL 2008\Pfile: walrus08.tcw\PA/4 -ben nyomtathatу}
  7
_TCW_TXTSTY_1
 73
     1
 44
1.0
1001
TCAD
1000
TCW40_TEXT
1002
{
1000
Times New Roman
1070
     0
1070
   257
1002
}
1000
TCW_CUSTOM_DATA
1002
{
1000
#$AUX@_ToolInfo Properties
1070
     8
1000
CMD_TEXT@
1002
}
  0
LWPOLYLINE
  5
7C
330
1F
100
AcDbEntity
  8
0
  6
Continuous
 62
     7
370
     0
100
AcDbPolyline
 90
        4
 70
   129
 43
0.0
 10
-299.3883110388344
 20
55.79558541471431
 10
-236.8651732774799
 20
55.79558541471431
 10
-236.8651732774799
 20
19.13543234982376
 10
-299.3883110388344
 20
19.13543234982376
1001
TCAD
1000
TCW_CUSTOM_DATA
1002
{
1000
#$AUX@_ToolInfo Properties
1070
     8
1000
CMD_RECTANGLE@
1002
}
  0
LINE
  5
7D
330
1F
100
AcDbEntity
  8
0
  6
Continuous
 62
     7
370
     0
100
AcDbLine
 10
-297.3795355284294
 20
49.14151653649787
 30
0.0
 11
-238.873948787885
 21
49.14151653649787
 31
0.0
1001
TCAD
1000
TCW_CUSTOM_DATA
1002
{
1000
#$AUX@_ToolInfo Properties
1070
     8
1000
CMD_LINE@
1002
}
  0
LINE
  5
7E
330
1F
100
AcDbEntity
  8
0
  6
Continuous
 62
     5
420
      255
370
     0
100
AcDbLine
 10
-487.0104594351411
 20
60.84760253916525
 30
0.0
 11
-487.0104594351411
 21
22.7274313409274
 31
0.0
1001
TCAD
1000
TCW_CUSTOM_DATA
1002
{
1000
#$AUX@_ToolInfo Properties
1070
     8
1000
CMD_LINE@
1002
}
  0
LINE
  5
7F
330
1F
100
AcDbEntity
  8
0
  6
Continuous
 62
     7
370
     0
100
AcDbLine
 10
-491.0098955930397
 20
60.88332867723415
 30
0.0
 11
-483.0104709176795
 21
60.88332867723415
 31
0.0
1001
TCAD
1000
TCW_CUSTOM_DATA
1002
{
1000
#$AUX@_ToolInfo Properties
1070
     8
1000
CMD_LINE@
1002
}
  0
LINE
  5
80
330
1F
100
AcDbEntity
  8
0
  6
Continuous
 62
     5
420
      255
370
     0
100
AcDbLine
 10
-498.0852682761719
 20
52.88331056242185
 30
0.0
 11
-475.9643813531346
 21
52.88331056242185
 31
0.0
1001
TCAD
1000
TCW_CUSTOM_DATA
1002
{
1000
#$AUX@_ToolInfo Properties
1070
     8
1000
CMD_LINE@
1002
}
  0
LINE
  5
81
330
1F
100
AcDbEntity
  8
0
  6
Continuous
 62
     7
370
     0
100
AcDbLine
 10
-498.010444712802
 20
54.88329206537756
 30
0.0
 11
-498.010444712802
 21
50.88329206537756
 31
0.0
1001
TCAD
1000
TCW_CUSTOM_DATA
1002
{
1000
#$AUX@_ToolInfo Properties
1070
     8
1000
CMD_LINE@
1002
}
  0
LINE
  5
82
330
1F
100
AcDbEntity
  8
0
  6
Continuous
 62
     7
370
     0
100
AcDbLine
 10
-498.010444712802
 20
54.88329206537756
 30
0.0
 11
-491.0620464998022
 21
54.88329206537756
 31
0.0
1001
TCAD
1000
TCW_CUSTOM_DATA
1002
{
1000
#$AUX@_ToolInfo Properties
1070
     8
1000
CMD_LINE@
1002
}
  0
LINE
  5
83
330
1F
100
AcDbEntity
  8
0
  6
Continuous
 62
     7
370
     0
100
AcDbLine
 10
-483.0515192870913
 20
54.88329206537756
 30
0.0
 11
-476.010444712802
 21
54.88329206537756
 31
0.0
1001
TCAD
1000
TCW_CUSTOM_DATA
1002
{
1000
#$AUX@_ToolInfo Properties
1070
     8
1000
CMD_LINE@
1002
}
  0
LINE
  5
84
330
1F
100
AcDbEntity
  8
0
  6
Continuous
 62
     7
370
     0
100
AcDbLine
 10
-498.0104583783124
 20
50.88330374699402
 30
0.0
 11
-491.0620464998022
 21
50.88330374699402
 31
0.0
1001
TCAD
1000
TCW_CUSTOM_DATA
1002
{
1000
#$AUX@_ToolInfo Properties
1070
     8
1000
CMD_LINE@
1002
}
  0
LINE
  5
85
330
1F
100
AcDbEntity
  8
0
  6
Continuous
 62
     7
370
     0
100
AcDbLine
 10
-483.0515192870913
 20
50.88330374699402
 30
0.0
 11
-476.0104583783124
 21
50.88330374699402
 31
0.0
1001
TCAD
1000
TCW_CUSTOM_DATA
1002
{
1000
#$AUX@_ToolInfo Properties
1070
     8
1000
CMD_LINE@
1002
}
  0
LINE
  5
86
330
1F
100
AcDbEntity
  8
0
  6
Continuous
 62
     7
370
     0
100
AcDbLine
 10
-476.0104703603905
 20
54.88328320891912
 30
0.0
 11
-476.0104703603905
 21
50.88328320891912
 31
0.0
1001
TCAD
1000
TCW_CUSTOM_DATA
1002
{
1000
#$AUX@_ToolInfo Properties
1070
     8
1000
CMD_LINE@
1002
}
  0
LINE
  5
87
330
1F
100
AcDbEntity
  8
0
  6
Continuous
 62
     5
420
      255
370
     0
100
AcDbLine
 10
-497.9980251847852
 20
75.35124016431163
 30
0.0
 11
-476.0308226432779
 21
75.35124016431163
 31
0.0
1001
TCAD
1000
TCW_CUSTOM_DATA
1002
{
1000
#$AUX@_ToolInfo Properties
1070
     8
1000
CMD_LINE@
1002
}
  0
CIRCLE
  5
88
330
1F
100
AcDbEntity
  8
0
  6
Continuous
 62
     7
370
     0
100
AcDbCircle
 10
-487.0104486333031
 20
75.35124016431055
 30
0.0
 40
4.0
1001
TCAD
1000
TCW_CUSTOM_DATA
1002
{
1000
#$AUX@_ToolInfo Properties
1070
     8
1000
CMD_CENTERPTCIRCLE@
1002
}
  0
LINE
  5
89
330
1F
100
AcDbEntity
  8
0
  6
Continuous
 62
     7
370
     0
100
AcDbLine
 10
-498.0104462177143
 20
73.35110367506798
 30
0.0
 11
-498.0104462177143
 21
77.35124649545469
 31
0.0
1001
TCAD
1000
TCW_CUSTOM_DATA
1002
{
1000
#$AUX@_ToolInfo Properties
1070
     8
1000
CMD_LINE@
1002
}
  0
LINE
  5
8A
330
1F
100
AcDbEntity
  8
0
  6
Continuous
 62
     7
370
     0
100
AcDbLine
 10
-498.0104401724492
 20
77.3512464954546
 30
0.0
 11
-490.4468028099153
 21
77.3512464954546
 31
0.0
1001
TCAD
1000
TCW_CUSTOM_DATA
1002
{
1000
#$AUX@_ToolInfo Properties
1070
     8
1000
CMD_LINE@
1002
}
  0
LINE
  5
8B
330
1F
100
AcDbEntity
  8
0
  6
Continuous
 62
     7
370
     0
100
AcDbLine
 10
-483.5615094506176
 20
77.3512464954546
 30
0.0
 11
-476.0104401724492
 21
77.3512464954546
 31
0.0
1001
TCAD
1000
TCW_CUSTOM_DATA
1002
{
1000
#$AUX@_ToolInfo Properties
1070
     8
1000
CMD_LINE@
1002
}
  0
LINE
  5
8C
330
1F
100
AcDbEntity
  8
0
  6
Continuous
 62
     7
370
     0
100
AcDbLine
 10
-498.0104590095492
 20
73.35124002629135
 30
0.0
 11
-490.4742951079155
 21
73.35124002629135
 31
0.0
1001
TCAD
1000
TCW_CUSTOM_DATA
1002
{
1000
#$AUX@_ToolInfo Properties
1070
     8
1000
CMD_LINE@
1002
}
  0
LINE
  5
8D
330
1F
100
AcDbEntity
  8
0
  6
Continuous
 62
     7
370
     0
100
AcDbLine
 10
-483.5433215102049
 20
73.35124002629135
 30
0.0
 11
-476.0104590095492
 21
73.35124002629135
 31
0.0
1001
TCAD
1000
TCW_CUSTOM_DATA
1002
{
1000
#$AUX@_ToolInfo Properties
1070
     8
1000
CMD_LINE@
1002
}
  0
LINE
  5
8E
330
1F
100
AcDbEntity
  8
0
  6
Continuous
 62
     7
370
     0
100
AcDbLine
 10
-476.0104749993826
 20
73.28928654950283
 30
0.0
 11
-476.0104749993826
 21
77.3306543893629
 31
0.0
1001
TCAD
1000
TCW_CUSTOM_DATA
1002
{
1000
#$AUX@_ToolInfo Properties
1070
     8
1000
CMD_LINE@
1002
}
  0
INSERT
  5
93
330
1F
100
AcDbEntity
  8
0
  6
Continuous
 62
     7
100
AcDbBlockReference
  2
*E1
 10
0.0
 20
0.0
 30
0.0
1001
TCAD
1000
TC25ExternalObject
1002
{
1000
TCW30CURVE
1000

1070
     0
1071
        0
1040
1.0
1040
0.0
1000
Continuous
1000
0
1071
        7
1071
      162
1010
-491.0076764066806
1020
54.89628666439145
1030
0.0
1071
     6274
1010
-490.6632078456124
1020
54.29399266902533
1030
0.0
1071
     6274
1010
-490.4730371470088
1020
53.57843512512704
1030
0.0
1071
      130
1010
-490.4730371470088
1020
52.88459317884639
1030
0.0
1071
     6274
1010
-490.4730371470088
1020
52.1936700220738
1030
0.0
1071
     6274
1010
-490.6633108609768
1020
51.48094983924426
1030
0.0
1071
      162
1010
-491.0076764066806
1020
50.88196137566862
1030
0.0
1070
     3
1071
-2147483635
1000
$SPLINESEGS
1070
    18
1070
    20
1000
$SPLFRAME
1070
    18
1070
     0
1000
$SPLINETYPE
1070
    18
1070
     1
1000
$SHOWCONTRPTS
1070
    18
1070
     1
1000
$CURVESMOOTH
1070
    18
1070
     1
1000
DEGREE
1070
    19
1071
        3
1000
RATIONAL
1070
    17
1070
 16640
1000
SPLINECLOSED
1070
    17
1070
 20480
1000
NPOINTS
1070
     3
1071
        0
1000
NKNOTS
1070
     3
1071
        0
1000
WEIGHTS
1070
  8204
1070
    12
1070
     8
1004
0000000000000000
1070
    16
1000
KNOTS
1070
  8204
1070
    12
1070
     8
1004
0000000000000000
1070
    16
1000
REALDEGREE
1070
    19
1071
        3
1002
}
1000
TCW_CUSTOM_DATA
1002
{
1000
#$AUX@_ToolInfo Properties
1070
     8
1000
CMD_BEZIER@
1002
}
  0
INSERT
  5
98
330
1F
100
AcDbEntity
  8
0
  6
Continuous
 62
     7
100
AcDbBlockReference
  2
*E2
 10
0.0
 20
0.0
 30
0.0
1001
TCAD
1000
TC25ExternalObject
1002
{
1000
TCW30CURVE
1000

1070
     0
1071
        0
1040
1.0
1040
0.0
1000
Continuous
1000
0
1071
        7
1071
      162
1010
-483.0062108768776
1020
50.88196137566862
1030
0.0
1071
     6274
1010
-483.3614360575237
1020
51.47641876572689
1030
0.0
1071
     6274
1010
-483.5589735012842
1020
52.19208720951471
1030
0.0
1071
      130
1010
-483.5589735012842
1020
52.88459317884636
1030
0.0
1071
     6274
1010
-483.5589735012842
1020
53.57709914817801
1030
0.0
1071
     6274
1010
-483.3614360575237
1020
54.29276759196586
1030
0.0
1071
      162
1010
-483.0062108768776
1020
54.88722498202412
1030
0.0
1070
     3
1071
-2147483635
1000
$SPLINESEGS
1070
    18
1070
    20
1000
$SPLFRAME
1070
    18
1070
     0
1000
$SPLINETYPE
1070
    18
1070
     1
1000
$SHOWCONTRPTS
1070
    18
1070
     1
1000
$CURVESMOOTH
1070
    18
1070
     1
1000
DEGREE
1070
    19
1071
        3
1000
RATIONAL
1070
    17
1070
 16640
1000
SPLINECLOSED
1070
    17
1070
 20480
1000
NPOINTS
1070
     3
1071
        0
1000
NKNOTS
1070
     3
1071
        0
1000
WEIGHTS
1070
  8204
1070
    12
1070
     8
1004
0000000000000000
1070
    16
1000
KNOTS
1070
  8204
1070
    12
1070
     8
1004
0000000000000000
1070
    16
1000
REALDEGREE
1070
    19
1071
        3
1002
}
1000
TCW_CUSTOM_DATA
1002
{
1000
#$AUX@_ToolInfo Properties
1070
     8
1000
CMD_BEZIER@
1002
}
  0
LINE
  5
99
330
1F
100
AcDbEntity
  8
0
  6
Continuous
 62
     7
370
     0
100
AcDbLine
 10
-491.0104503899939
 20
60.88333095608741
 30
0.0
 11
-491.0104503899939
 21
54.96788470264391
 31
0.0
1001
TCAD
1000
TCW_CUSTOM_DATA
1002
{
1000
#$AUX@_ToolInfo Properties
1070
     8
1000
CMD_LINE@
1002
}
  0
LINE
  5
9A
330
1F
100
AcDbEntity
  8
0
  6
Continuous
 62
     7
370
     0
100
AcDbLine
 10
-491.0104503899939
 20
50.93313005590699
 30
0.0
 11
-491.0104503899939
 21
22.88309340222308
 31
0.0
1001
TCAD
1000
TCW_CUSTOM_DATA
1002
{
1000
#$AUX@_ToolInfo Properties
1070
     8
1000
CMD_LINE@
1002
}
  0
LINE
  5
9B
330
1F
100
AcDbEntity
  8
0
  6
Continuous
 62
     7
370
     0
100
AcDbLine
 10
-483.0104709176811
 20
60.88333283944078
 30
0.0
 11
-483.0104709176811
 21
54.89831996735535
 31
0.0
1001
TCAD
1000
TCW_CUSTOM_DATA
1002
{
1000
#$AUX@_ToolInfo Properties
1070
     8
1000
CMD_LINE@
1002
}
  0
LINE
  5
9C
330
1F
100
AcDbEntity
  8
0
  6
Continuous
 62
     7
370
     0
100
AcDbLine
 10
-483.0104709176811
 20
50.86356532061842
 30
0.0
 11
-483.0104709176811
 21
22.88418839393634
 31
0.0
1001
TCAD
1000
TCW_CUSTOM_DATA
1002
{
1000
#$AUX@_ToolInfo Properties
1070
     8
1000
CMD_LINE@
1002
}
  0
LINE
  5
9D
330
1F
100
AcDbEntity
  8
0
  6
Continuous
 62
     5
420
      255
370
     0
100
AcDbLine
 10
-483.0104649614678
 20
42.88332825234264
 30
0.0
 11
-491.0104649614678
 21
42.88332825234264
 31
0.0
1001
TCAD
1000
TCW_CUSTOM_DATA
1002
{
1000
#$AUX@_ToolInfo Properties
1070
     8
1000
CMD_LINE@
1002
}
  0
LINE
  5
9E
330
1F
100
AcDbEntity
  8
0
  6
Continuous
 62
     7
370
     0
100
AcDbLine
 10
-491.010205939719
 20
22.88309340222308
 30
0.0
 11
-483.010205939719
 21
22.88309340222308
 31
0.0
1001
TCAD
1000
TCW_CUSTOM_DATA
1002
{
1000
#$AUX@_ToolInfo Properties
1070
     8
1000
CMD_LINE@
1002
}
  0
LINE
  5
9F
330
1F
100
AcDbEntity
  8
0
  6
Continuous
 62
     5
420
      255
370
     0
100
AcDbLine
 10
-487.0104743567027
 20
79.30550881076337
 30
0.0
 11
-487.0104743567027
 21
71.34452649436443
 31
0.0
1001
TCAD
1000
TCW_CUSTOM_DATA
1002
{
1000
#$AUX@_ToolInfo Properties
1070
     8
1000
CMD_LINE@
1002
}
  0
DIMENSION
  5
A0
330
1F
100
AcDbEntity
  8
0
  6
Continuous
 62
     7
100
AcDbDimension
  2
*D3
 10
-476.0093398452281
 20
84.380156573687
 30
0.0
 11
-487.0147041690371
 21
85.942656573687
 31
0.0
 70
    32
  1
22
 71
     5
 42
22.01072864761824
  3
Standard
100
AcDbAlignedDimension
 13
-498.0200684928463
 23
79.41101715123366
 33
0.0
 14
-476.0093398452281
 24
79.28756027117264
 34
0.0
100
AcDbRotatedDimension
1001
TCAD
1000
TCW_CUSTOM_DATA
1002
{
1000
#$AUX@_ToolInfo Properties
1070
     8
1000
CMD_ORTHOGONALDIM@
1002
}
1001
ACAD
1000
DSTYLE
1002
{
1070
   148
1040
0.01
1002
}
  0
DIMENSION
  5
AF
330
1F
100
AcDbEntity
  8
0
  6
Continuous
 62
     7
100
AcDbDimension
  2
*D4
 10
-469.9752694305289
 20
77.34103324791388
 30
0.0
 11
-469.9752694305289
 21
75.33835640667655
 31
0.0
 70
    32
  1
4
 71
     5
 42
4.005353682474677
  3
Standard
100
AcDbAlignedDimension
 13
-474.8234140741704
 23
73.33567956543921
 33
0.0
 14
-475.3355420294847
 24
77.34103324791388
 34
0.0
 50
90.0
100
AcDbRotatedDimension
1001
TCAD
1000
TCW_CUSTOM_DATA
1002
{
1000
#$AUX@_ToolInfo Properties
1070
     8
1000
CMD_ORTHOGONALDIM@
1002
}
1001
ACAD
1000
DSTYLE
1002
{
1070
   148
1040
0.01
1070
   340
1005
AE
1002
}
  0
DIMENSION
  5
C0
330
1F
100
AcDbEntity
  8
0
  6
Continuous
 62
     7
100
AcDbDimension
  2
*D5
 10
-472.2000677398069
 20
52.85971261070384
 30
0.0
 11
-472.2000677398069
 21
56.86506629317854
 31
0.0
 70
    32
  1
8
 71
     5
 42
8.010707364949411
  3
Standard
100
AcDbAlignedDimension
 13
-481.6991880670614
 23
60.87041997565325
 33
0.0
 14
-475.0498038379832
 24
52.85971261070384
 34
0.0
 50
90.0
100
AcDbRotatedDimension
1001
TCAD
1000
TCW_CUSTOM_DATA
1002
{
1000
#$AUX@_ToolInfo Properties
1070
     8
1000
CMD_ORTHOGONALDIM@
1002
}
1001
ACAD
1000
DSTYLE
1002
{
1070
   148
1040
0.01
1070
   340
1005
BF
1002
}
  0
DIMENSION
  5
D1
330
1F
100
AcDbEntity
  8
0
  6
Continuous
 62
     7
100
AcDbDimension
  2
*D6
 10
-502.6737711470674
 20
42.86504501124355
 30
0.0
 11
-502.6737711470674
 21
51.86773249381525
 31
0.0
 70
    32
  1
18
 71
     5
 42
18.00537496514339
  3
Standard
100
AcDbAlignedDimension
 13
-494.8722982362731
 23
60.87041997638694
 33
0.0
 14
-494.7914539573998
 24
42.86504501124355
 34
0.0
 50
90.0
100
AcDbRotatedDimension
1001
TCAD
1000
TCW_CUSTOM_DATA
1002
{
1000
#$AUX@_ToolInfo Properties
1070
     8
1000
CMD_ORTHOGONALDIM@
1002
}
1001
ACAD
1000
DSTYLE
1002
{
1070
   148
1040
0.01
1070
   340
1005
D0
1002
}
  0
DIMENSION
  5
E0
330
1F
100
AcDbEntity
  8
0
  6
Continuous
 62
     7
100
AcDbDimension
  2
*D7
 10
-484.6500192066685
 20
78.58053930218516
 30
0.0
 11
-496.1827999748725
 21
65.63671870727501
 31
0.0
 70
    35
  1
8
 71
     5
 42
8.000000000000048
  3
Standard
100
AcDbDiametricDimension
 15
-489.3708780599377
 25
72.12194102643595
 35
0.0
 40
10.0
1001
TCAD
1000
TCW_CUSTOM_DATA
1002
{
1000
#$AUX@_ToolInfo Properties
1070
     8
1000
CMD_DIAMETERDIM@
1002
}
1001
ACAD
1000
DSTYLE
1002
{
1070
   148
1040
0.01
1070
   340
1005
DF
1002
}
  0
LINE
  5
ED
330
1F
100
AcDbEntity
  8
0
  6
Continuous
 62
     5
420
      255
370
     0
100
AcDbLine
 10
-433.1580653174401
 20
60.97284407224238
 30
0.0
 11
-433.1580653174401
 21
26.02498266259592
 31
0.0
1001
TCAD
1000
TCW_CUSTOM_DATA
1002
{
1000
#$AUX@_ToolInfo Properties
1070
     8
1000
CMD_LINE@
1002
}
  0
LINE
  5
EE
330
1F
100
AcDbEntity
  8
0
  6
Continuous
 62
     7
370
     0
100
AcDbLine
 10
-437.1580510221697
 20
60.9809795640089
 30
0.0
 11
-429.1580767999785
 21
60.9809795640089
 31
0.0
1001
TCAD
1000
TCW_CUSTOM_DATA
1002
{
1000
#$AUX@_ToolInfo Properties
1070
     8
1000
CMD_LINE@
1002
}
  0
LINE
  5
EF
330
1F
100
AcDbEntity
  8
0
  6
Continuous
 62
     5
420
      255
370
     0
100
AcDbLine
 10
-444.9226674347524
 20
52.98096144919663
 30
0.0
 11
-399.1513546856831
 21
52.98096144919663
 31
0.0
1001
TCAD
1000
TCW_CUSTOM_DATA
1002
{
1000
#$AUX@_ToolInfo Properties
1070
     8
1000
CMD_LINE@
1002
}
  0
LINE
  5
F0
330
1F
100
AcDbEntity
  8
0
  6
Continuous
 62
     7
370
     0
100
AcDbLine
 10
-445.1580758001251
 20
54.98094295215232
 30
0.0
 11
-437.2096523821012
 21
54.98094295215232
 31
0.0
1001
TCAD
1000
TCW_CUSTOM_DATA
1002
{
1000
#$AUX@_ToolInfo Properties
1070
     8
1000
CMD_LINE@
1002
}
  0
LINE
  5
F1
330
1F
100
AcDbEntity
  8
0
  6
Continuous
 62
     7
370
     0
100
AcDbLine
 10
-407.1531878877138
 20
54.98094295215233
 30
0.0
 11
-399.1596186259787
 21
54.98094295215233
 31
0.0
1001
TCAD
1000
TCW_CUSTOM_DATA
1002
{
1000
#$AUX@_ToolInfo Properties
1070
     8
1000
CMD_LINE@
1002
}
  0
LINE
  5
F2
330
1F
100
AcDbEntity
  8
0
  6
Continuous
 62
     7
370
     0
100
AcDbLine
 10
-445.1579384760516
 20
50.98095463376877
 30
0.0
 11
-437.2096523821012
 21
50.98095463376877
 31
0.0
1001
TCAD
1000
TCW_CUSTOM_DATA
1002
{
1000
#$AUX@_ToolInfo Properties
1070
     8
1000
CMD_LINE@
1002
}
  0
LINE
  5
F3
330
1F
100
AcDbEntity
  8
0
  6
Continuous
 62
     7
370
     0
100
AcDbLine
 10
-407.0872581750068
 20
50.98095463376879
 30
0.0
 11
-399.1513546856831
 21
50.98095463376879
 31
0.0
1001
TCAD
1000
TCW_CUSTOM_DATA
1002
{
1000
#$AUX@_ToolInfo Properties
1070
     8
1000
CMD_LINE@
1002
}
  0
LINE
  5
F4
330
1F
100
AcDbEntity
  8
0
  6
Continuous
 62
     5
420
      255
370
     0
100
AcDbLine
 10
-445.1417142455663
 20
75.4488910510864
 30
0.0
 11
-399.1571352579057
 21
75.4488910510864
 31
0.0
1001
TCAD
1000
TCW_CUSTOM_DATA
1002
{
1000
#$AUX@_ToolInfo Properties
1070
     8
1000
CMD_LINE@
1002
}
  0
CIRCLE
  5
F5
330
1F
100
AcDbEntity
  8
0
  6
Continuous
 62
     7
370
     0
100
AcDbCircle
 10
-433.1580545156021
 20
75.44889105108533
 30
0.0
 40
4.0
1001
TCAD
1000
TCW_CUSTOM_DATA
1002
{
1000
#$AUX@_ToolInfo Properties
1070
     8
1000
CMD_CENTERPTCIRCLE@
1002
}
  0
LINE
  5
F6
330
1F
100
AcDbEntity
  8
0
  6
Continuous
 62
     7
370
     0
100
AcDbLine
 10
-445.160283869729
 20
77.44889738222938
 30
0.0
 11
-436.5944086922144
 21
77.44889738222938
 31
0.0
1001
TCAD
1000
TCW_CUSTOM_DATA
1002
{
1000
#$AUX@_ToolInfo Properties
1070
     8
1000
CMD_LINE@
1002
}
  0
LINE
  5
F7
330
1F
100
AcDbEntity
  8
0
  6
Continuous
 62
     7
370
     0
100
AcDbLine
 10
-429.7091153329172
 20
77.44889738222938
 30
0.0
 11
-414.6115351839317
 21
77.44889738222938
 31
0.0
1001
TCAD
1000
TCW_CUSTOM_DATA
1002
{
1000
#$AUX@_ToolInfo Properties
1070
     8
1000
CMD_LINE@
1002
}
  0
LINE
  5
F8
330
1F
100
AcDbEntity
  8
0
  6
Continuous
 62
     7
370
     0
100
AcDbLine
 10
-445.1540939950498
 20
73.44889091306612
 30
0.0
 11
-436.6219009902145
 21
73.44889091306612
 31
0.0
1001
TCAD
1000
TCW_CUSTOM_DATA
1002
{
1000
#$AUX@_ToolInfo Properties
1070
     8
1000
CMD_LINE@
1002
}
  0
LINE
  5
F9
330
1F
100
AcDbEntity
  8
0
  6
Continuous
 62
     7
370
     0
100
AcDbLine
 10
-429.6909273925046
 20
73.44889091306612
 30
0.0
 11
-414.6209563044679
 21
73.44889091306612
 31
0.0
1001
TCAD
1000
TCW_CUSTOM_DATA
1002
{
1000
#$AUX@_ToolInfo Properties
1070
     8
1000
CMD_LINE@
1002
}
  0
INSERT
  5
FE
330
1F
100
AcDbEntity
  8
0
  6
Continuous
 62
     7
100
AcDbBlockReference
  2
*E8
 10
0.0
 20
0.0
 30
0.0
1001
TCAD
1000
TC25ExternalObject
1002
{
1000
TCW30CURVE
1000

1070
     0
1071
        0
1040
1.0
1040
0.0
1000
Continuous
1000
0
1071
        7
1071
      162
1010
-437.1552822889796
1020
54.99393755116621
1030
0.0
1071
     6274
1010
-436.8108137279114
1020
54.39164355580009
1030
0.0
1071
     6274
1010
-436.6206430293078
1020
53.6760860119018
1030
0.0
1071
      130
1010
-436.6206430293078
1020
52.98224406562115
1030
0.0
1071
     6274
1010
-436.6206430293078
1020
52.29132090884856
1030
0.0
1071
     6274
1010
-436.8109167432758
1020
51.57860072601902
1030
0.0
1071
      162
1010
-437.1552822889796
1020
50.97961226244338
1030
0.0
1070
     3
1071
-2147483635
1000
$SPLINESEGS
1070
    18
1070
    20
1000
$SPLFRAME
1070
    18
1070
     0
1000
$SPLINETYPE
1070
    18
1070
     1
1000
$SHOWCONTRPTS
1070
    18
1070
     1
1000
$CURVESMOOTH
1070
    18
1070
     1
1000
DEGREE
1070
    19
1071
        3
1000
RATIONAL
1070
    17
1070
 16640
1000
SPLINECLOSED
1070
    17
1070
 20480
1000
NPOINTS
1070
     3
1071
        0
1000
NKNOTS
1070
     3
1071
        0
1000
WEIGHTS
1070
  8204
1070
    12
1070
     8
1004
0000000000000000
1070
    16
1000
KNOTS
1070
  8204
1070
    12
1070
     8
1004
0000000000000000
1070
    16
1000
REALDEGREE
1070
    19
1071
        3
1002
}
1000
TCW_CUSTOM_DATA
1002
{
1000
#$AUX@_ToolInfo Properties
1070
     8
1000
CMD_BEZIER@
1002
}
  0
INSERT
  5
103
330
1F
100
AcDbEntity
  8
0
  6
Continuous
 62
     7
100
AcDbBlockReference
  2
*E9
 10
0.0
 20
0.0
 30
0.0
1001
TCAD
1000
TC25ExternalObject
1002
{
1000
TCW30CURVE
1000

1070
     0
1071
        0
1040
1.0
1040
0.0
1000
Continuous
1000
0
1071
        7
1071
      162
1010
-429.1538167591766
1020
50.97961226244338
1030
0.0
1071
     6274
1010
-429.5090419398227
1020
51.57406965250165
1030
0.0
1071
     6274
1010
-429.7065793835832
1020
52.28973809628947
1030
0.0
1071
      130
1010
-429.7065793835832
1020
52.98224406562112
1030
0.0
1071
     6274
1010
-429.7065793835832
1020
53.67475003495277
1030
0.0
1071
     6274
1010
-429.5090419398227
1020
54.39041847874061
1030
0.0
1071
      162
1010
-429.1538167591766
1020
54.98487586879888
1030
0.0
1070
     3
1071
-2147483635
1000
$SPLINESEGS
1070
    18
1070
    20
1000
$SPLFRAME
1070
    18
1070
     0
1000
$SPLINETYPE
1070
    18
1070
     1
1000
$SHOWCONTRPTS
1070
    18
1070
     1
1000
$CURVESMOOTH
1070
    18
1070
     1
1000
DEGREE
1070
    19
1071
        3
1000
RATIONAL
1070
    17
1070
 16640
1000
SPLINECLOSED
1070
    17
1070
 20480
1000
NPOINTS
1070
     3
1071
        0
1000
NKNOTS
1070
     3
1071
        0
1000
WEIGHTS
1070
  8204
1070
    12
1070
     8
1004
0000000000000000
1070
    16
1000
KNOTS
1070
  8204
1070
    12
1070
     8
1004
0000000000000000
1070
    16
1000
REALDEGREE
1070
    19
1071
        3
1002
}
1000
TCW_CUSTOM_DATA
1002
{
1000
#$AUX@_ToolInfo Properties
1070
     8
1000
CMD_BEZIER@
1002
}
  0
LINE
  5
104
330
1F
100
AcDbEntity
  8
0
  6
Continuous
 62
     7
370
     0
100
AcDbLine
 10
-437.1580562722929
 20
60.98098184286216
 30
0.0
 11
-437.1580562722929
 21
55.06553558941867
 31
0.0
1001
TCAD
1000
TCW_CUSTOM_DATA
1002
{
1000
#$AUX@_ToolInfo Properties
1070
     8
1000
CMD_LINE@
1002
}
  0
LINE
  5
105
330
1F
100
AcDbEntity
  8
0
  6
Continuous
 62
     7
370
     0
100
AcDbLine
 10
-437.1580562722929
 20
51.03078094268174
 30
0.0
 11
-437.1580562722929
 21
25.98188960177563
 31
0.0
1001
TCAD
1000
TCW_CUSTOM_DATA
1002
{
1000
#$AUX@_ToolInfo Properties
1070
     8
1000
CMD_LINE@
1002
}
  0
LINE
  5
106
330
1F
100
AcDbEntity
  8
0
  6
Continuous
 62
     7
370
     0
100
AcDbLine
 10
-429.1580767999801
 20
60.98098372621554
 30
0.0
 11
-429.1580767999801
 21
54.99597085413011
 31
0.0
1001
TCAD
1000
TCW_CUSTOM_DATA
1002
{
1000
#$AUX@_ToolInfo Properties
1070
     8
1000
CMD_LINE@
1002
}
  0
LINE
  5
107
330
1F
100
AcDbEntity
  8
0
  6
Continuous
 62
     7
370
     0
100
AcDbLine
 10
-429.1580767999801
 20
50.96121620739317
 30
0.0
 11
-429.1580767999801
 21
25.98097495090354
 31
0.0
1001
TCAD
1000
TCW_CUSTOM_DATA
1002
{
1000
#$AUX@_ToolInfo Properties
1070
     8
1000
CMD_LINE@
1002
}
  0
LINE
  5
108
330
1F
100
AcDbEntity
  8
0
  6
Continuous
 62
     5
420
      255
370
     0
100
AcDbLine
 10
-433.1580802390017
 20
79.40315969753814
 30
0.0
 11
-433.1580802390017
 21
71.4421773811392
 31
0.0
1001
TCAD
1000
TCW_CUSTOM_DATA
1002
{
1000
#$AUX@_ToolInfo Properties
1070
     8
1000
CMD_LINE@
1002
}
  0
LINE
  5
109
330
1F
100
AcDbEntity
  8
0
  6
Continuous
 62
     7
370
     0
100
AcDbLine
 10
-445.1580486678843
 20
54.9809464801037
 30
0.0
 11
-445.1580486678843
 21
50.9809464801037
 31
0.0
1001
TCAD
1000
TCW_CUSTOM_DATA
1002
{
1000
#$AUX@_ToolInfo Properties
1070
     8
1000
CMD_LINE@
1002
}
  0
LINE
  5
10A
330
1F
100
AcDbEntity
  8
0
  6
Continuous
 62
     7
370
     0
100
AcDbLine
 10
-399.1580741724017
 20
50.98096251591228
 30
0.0
 11
-399.1580741724017
 21
54.98096251591228
 31
0.0
1001
TCAD
1000
TCW_CUSTOM_DATA
1002
{
1000
#$AUX@_ToolInfo Properties
1070
     8
1000
CMD_LINE@
1002
}
  0
LINE
  5
10B
330
1F
100
AcDbEntity
  8
0
  6
Continuous
 62
     5
420
      255
370
     0
100
AcDbLine
 10
-411.1580876598248
 20
60.97284407224238
 30
0.0
 11
-411.1580876598248
 21
26.03224170708089
 31
0.0
1001
TCAD
1000
TCW_CUSTOM_DATA
1002
{
1000
#$AUX@_ToolInfo Properties
1070
     8
1000
CMD_LINE@
1002
}
  0
CIRCLE
  5
10C
330
1F
100
AcDbEntity
  8
0
  6
Continuous
 62
     7
370
     0
100
AcDbCircle
 10
-411.1580944927055
 20
75.4489082274059
 30
0.0
 40
4.0
1001
TCAD
1000
TCW_CUSTOM_DATA
1002
{
1000
#$AUX@_ToolInfo Properties
1070
     8
1000
CMD_CENTERPTCIRCLE@
1002
}
  0
LINE
  5
10D
330
1F
100
AcDbEntity
  8
0
  6
Continuous
 62
     7
370
     0
100
AcDbLine
 10
-407.1580544508829
 20
60.98261076983992
 30
0.0
 11
-407.1580544508829
 21
54.88533181902572
 31
0.0
1001
TCAD
1000
TCW_CUSTOM_DATA
1002
{
1000
#$AUX@_ToolInfo Properties
1070
     8
1000
CMD_LINE@
1002
}
  0
LINE
  5
10E
330
1F
100
AcDbEntity
  8
0
  6
Continuous
 62
     7
370
     0
100
AcDbLine
 10
-415.1573953847101
 20
60.98096593943768
 30
0.0
 11
-407.1574952902319
 21
60.98096593943768
 31
0.0
1001
TCAD
1000
TCW_CUSTOM_DATA
1002
{
1000
#$AUX@_ToolInfo Properties
1070
     8
1000
CMD_LINE@
1002
}
  0
INSERT
  5
113
330
1F
100
AcDbEntity
  8
0
  6
Continuous
 62
     7
100
AcDbBlockReference
  2
*E10
 10
0.0
 20
0.0
 30
0.0
1001
TCAD
1000
TC25ExternalObject
1002
{
1000
TCW30CURVE
1000

1070
     0
1071
        0
1040
1.0
1040
0.0
1000
Continuous
1000
0
1071
        7
1071
      162
1010
-415.1529621479704
1020
54.98183618722157
1030
0.0
1071
     6274
1010
-414.8084935869022
1020
54.37954219185545
1030
0.0
1071
     6274
1010
-414.6183228882985
1020
53.66398464795716
1030
0.0
1071
      130
1010
-414.6183228882985
1020
52.97014270167651
1030
0.0
1071
     6274
1010
-414.6183228882985
1020
52.27921954490392
1030
0.0
1071
     6274
1010
-414.8085966022666
1020
51.56649936207438
1030
0.0
1071
      162
1010
-415.1529621479704
1020
50.96751089849874
1030
0.0
1070
     3
1071
-2147483635
1000
$SPLINESEGS
1070
    18
1070
    20
1000
$SPLFRAME
1070
    18
1070
     0
1000
$SPLINETYPE
1070
    18
1070
     1
1000
$SHOWCONTRPTS
1070
    18
1070
     1
1000
$CURVESMOOTH
1070
    18
1070
     1
1000
DEGREE
1070
    19
1071
        3
1000
RATIONAL
1070
    17
1070
 16640
1000
SPLINECLOSED
1070
    17
1070
 20480
1000
NPOINTS
1070
     3
1071
        0
1000
NKNOTS
1070
     3
1071
        0
1000
WEIGHTS
1070
  8204
1070
    12
1070
     8
1004
0000000000000000
1070
    16
1000
KNOTS
1070
  8204
1070
    12
1070
     8
1004
0000000000000000
1070
    16
1000
REALDEGREE
1070
    19
1071
        3
1002
}
1000
TCW_CUSTOM_DATA
1002
{
1000
#$AUX@_ToolInfo Properties
1070
     8
1000
CMD_BEZIER@
1002
}
  0
INSERT
  5
118
330
1F
100
AcDbEntity
  8
0
  6
Continuous
 62
     7
100
AcDbBlockReference
  2
*E11
 10
0.0
 20
0.0
 30
0.0
1001
TCAD
1000
TC25ExternalObject
1002
{
1000
TCW30CURVE
1000

1070
     0
1071
        0
1040
1.0
1040
0.0
1000
Continuous
1000
0
1071
        7
1071
      162
1010
-407.1601482116823
1020
50.97635911403252
1030
0.0
1071
     6274
1010
-407.5153733923285
1020
51.57081650409079
1030
0.0
1071
     6274
1010
-407.7129108360889
1020
52.28648494787861
1030
0.0
1071
      130
1010
-407.7129108360889
1020
52.97899091721025
1030
0.0
1071
     6274
1010
-407.7129108360889
1020
53.6714968865419
1030
0.0
1071
     6274
1010
-407.5153733923285
1020
54.38716533032975
1030
0.0
1071
      162
1010
-407.1601482116823
1020
54.98162272038802
1030
0.0
1070
     3
1071
-2147483635
1000
$SPLINESEGS
1070
    18
1070
    20
1000
$SPLFRAME
1070
    18
1070
     0
1000
$SPLINETYPE
1070
    18
1070
     1
1000
$SHOWCONTRPTS
1070
    18
1070
     1
1000
$CURVESMOOTH
1070
    18
1070
     1
1000
DEGREE
1070
    19
1071
        3
1000
RATIONAL
1070
    17
1070
 16640
1000
SPLINECLOSED
1070
    17
1070
 20480
1000
NPOINTS
1070
     3
1071
        0
1000
NKNOTS
1070
     3
1071
        0
1000
WEIGHTS
1070
  8204
1070
    12
1070
     8
1004
0000000000000000
1070
    16
1000
KNOTS
1070
  8204
1070
    12
1070
     8
1004
0000000000000000
1070
    16
1000
REALDEGREE
1070
    19
1071
        3
1002
}
1000
TCW_CUSTOM_DATA
1002
{
1000
#$AUX@_ToolInfo Properties
1070
     8
1000
CMD_BEZIER@
1002
}
  0
LINE
  5
119
330
1F
100
AcDbEntity
  8
0
  6
Continuous
 62
     7
370
     0
100
AcDbLine
 10
-407.1580489202699
 20
50.99547876930879
 30
0.0
 11
-407.1580489202699
 21
25.98185044834271
 31
0.0
1001
TCAD
1000
TCW_CUSTOM_DATA
1002
{
1000
#$AUX@_ToolInfo Properties
1070
     8
1000
CMD_LINE@
1002
}
  0
LINE
  5
11A
330
1F
100
AcDbEntity
  8
0
  6
Continuous
 62
     7
370
     0
100
AcDbLine
 10
-429.1670185710689
 20
54.98095723300659
 30
0.0
 11
-415.153917100567
 21
54.98095723300659
 31
0.0
1001
TCAD
1000
TCW_CUSTOM_DATA
1002
{
1000
#$AUX@_ToolInfo Properties
1070
     8
1000
CMD_LINE@
1002
}
  0
LINE
  5
11B
330
1F
100
AcDbEntity
  8
0
  6
Continuous
 62
     7
370
     0
100
AcDbLine
 10
-429.1729716500201
 20
50.9809551184477
 30
0.0
 11
-415.153917100567
 21
50.9809551184477
 31
0.0
1001
TCAD
1000
TCW_CUSTOM_DATA
1002
{
1000
#$AUX@_ToolInfo Properties
1070
     8
1000
CMD_LINE@
1002
}
  0
LINE
  5
11C
330
1F
100
AcDbEntity
  8
0
  6
Continuous
 62
     7
370
     0
100
AcDbLine
 10
-415.1580899602741
 20
54.98673291110627
 30
0.0
 11
-415.1580899602741
 21
60.98058759175052
 31
0.0
1001
TCAD
1000
TCW_CUSTOM_DATA
1002
{
1000
#$AUX@_ToolInfo Properties
1070
     8
1000
CMD_LINE@
1002
}
  0
LINE
  5
11D
330
1F
100
AcDbEntity
  8
0
  6
Continuous
 62
     7
370
     0
100
AcDbLine
 10
-415.1580921701034
 20
50.97751831808255
 30
0.0
 11
-415.1580921701034
 21
25.98098214055758
 31
0.0
1001
TCAD
1000
TCW_CUSTOM_DATA
1002
{
1000
#$AUX@_ToolInfo Properties
1070
     8
1000
CMD_LINE@
1002
}
  0
LINE
  5
11E
330
1F
100
AcDbEntity
  8
0
  6
Continuous
 62
     7
370
     0
100
AcDbLine
 10
-399.1580801583957
 20
73.45812697540302
 30
0.0
 11
-399.1580801583957
 21
77.44551433746716
 31
0.0
1001
TCAD
1000
TCW_CUSTOM_DATA
1002
{
1000
#$AUX@_ToolInfo Properties
1070
     8
1000
CMD_LINE@
1002
}
  0
LINE
  5
11F
330
1F
100
AcDbEntity
  8
0
  6
Continuous
 62
     7
370
     0
100
AcDbLine
 10
-407.6121940382211
 20
77.44891137134323
 30
0.0
 11
-399.1686935211603
 21
77.44891137134323
 31
0.0
1001
TCAD
1000
TCW_CUSTOM_DATA
1002
{
1000
#$AUX@_ToolInfo Properties
1070
     8
1000
CMD_LINE@
1002
}
  0
LINE
  5
120
330
1F
100
AcDbEntity
  8
0
  6
Continuous
 62
     7
370
     0
100
AcDbLine
 10
-407.7767377794351
 20
73.44890112528319
 30
0.0
 11
-399.1581996601126
 21
73.44890112528321
 31
0.0
1001
TCAD
1000
TCW_CUSTOM_DATA
1002
{
1000
#$AUX@_ToolInfo Properties
1070
     8
1000
CMD_LINE@
1002
}
  0
DIMENSION
  5
122
330
1F
100
AcDbEntity
  8
0
  6
Continuous
 62
     7
100
AcDbDimension
  2
*D12
 10
-507.8989200708297
 20
22.88272223132468
 30
0.0
 11
-507.8989200708297
 21
41.88310288264548
 31
0.0
 70
    32
  1
38
 71
     5
 42
38.0007613026416
  3
Standard
100
AcDbAlignedDimension
 13
-492.1121884306697
 23
60.88348353396628
 33
0.0
 14
-492.1054442698328
 24
22.88272223132468
 34
0.0
 50
-90.0
100
AcDbRotatedDimension
1001
TCAD
1000
TCW_CUSTOM_DATA
1002
{
1000
#$AUX@_ToolInfo Properties
1070
     8
1000
CMD_ORTHOGONALDIM@
1002
}
1001
ACAD
1000
DSTYLE
1002
{
1070
   148
1040
0.01
1070
   340
1005
121
1002
}
  0
LINE
  5
130
330
1F
100
AcDbEntity
  8
0
  6
Continuous
 62
     5
420
      255
370
     0
100
AcDbLine
 10
-411.1580861097121
 20
71.56039118011682
 30
0.0
 11
-411.1580861097121
 21
79.53445759500701
 31
0.0
1001
TCAD
1000
TCW_CUSTOM_DATA
1002
{
1000
#$AUX@_ToolInfo Properties
1070
     8
1000
CMD_LINE@
1002
}
  0
LINE
  5
131
330
1F
100
AcDbEntity
  8
0
  6
Continuous
 62
     7
370
     0
100
AcDbLine
 10
-445.1579278193508
 20
73.44694437684788
 30
0.0
 11
-445.1579278193508
 21
77.45179329386116
 31
0.0
1001
TCAD
1000
TCW_CUSTOM_DATA
1002
{
1000
#$AUX@_ToolInfo Properties
1070
     8
1000
CMD_LINE@
1002
}
  0
DIMENSION
  5
133
330
1F
100
AcDbEntity
  8
0
  6
Continuous
 62
     7
100
AcDbDimension
  2
*D13
 10
-399.1579232349571
 20
88.66237313086492
 30
0.0
 11
-422.1580874541247
 21
90.25039865639044
 31
0.0
 70
    32
  1
46
 71
     5
 42
46.00032843833509
  3
Standard
100
AcDbAlignedDimension
 13
-445.1582516732922
 23
79.84569679915705
 33
0.0
 14
-399.1579232349571
 24
79.84298230523893
 34
0.0
100
AcDbRotatedDimension
1001
TCAD
1000
TCW_CUSTOM_DATA
1002
{
1000
#$AUX@_ToolInfo Properties
1070
     8
1000
CMD_ORTHOGONALDIM@
1002
}
1001
ACAD
1000
DSTYLE
1002
{
1070
   148
1040
0.01
1070
   340
1005
132
1002
}
  0
DIMENSION
  5
141
330
1F
100
AcDbEntity
  8
0
  6
Continuous
 62
     7
100
AcDbDimension
  2
*D14
 10
-437.1580537334515
 20
84.57227077231909
 30
0.0
 11
-441.1579334851414
 21
86.16029629784461
 31
0.0
 70
    32
  1
8
 71
     5
 42
7.999759503379892
  3
Standard
100
AcDbAlignedDimension
 13
-445.1578132368314
 23
78.36167311451513
 33
0.0
 14
-437.1580537334515
 24
78.36224161365604
 34
0.0
100
AcDbRotatedDimension
1001
TCAD
1000
TCW_CUSTOM_DATA
1002
{
1000
#$AUX@_ToolInfo Properties
1070
     8
1000
CMD_ORTHOGONALDIM@
1002
}
1001
ACAD
1000
DSTYLE
1002
{
1070
   148
1040
0.01
1070
   340
1005
140
1002
}
  0
DIMENSION
  5
151
330
1F
100
AcDbEntity
  8
0
  6
Continuous
 62
     7
100
AcDbDimension
  2
*D15
 10
-389.7857836255731
 20
77.44908562296206
 30
0.0
 11
-389.7857836255731
 21
75.44901306853725
 31
0.0
 70
    32
  1
4
 71
     5
 42
4.000145108849608
  3
Standard
100
AcDbAlignedDimension
 13
-399.1624370517621
 23
73.44894051411245
 33
0.0
 14
-399.176764219059
 24
77.44908562296206
 34
0.0
 50
-90.0
100
AcDbRotatedDimension
1001
TCAD
1000
TCW_CUSTOM_DATA
1002
{
1000
#$AUX@_ToolInfo Properties
1070
     8
1000
CMD_ORTHOGONALDIM@
1002
}
1001
ACAD
1000
DSTYLE
1002
{
1070
   148
1040
0.01
1070
   340
1005
150
1002
}
  0
DIMENSION
  5
162
330
1F
100
AcDbEntity
  8
0
  6
Continuous
 62
     7
100
AcDbDimension
  2
*D16
 10
-394.6585140432318
 20
52.97811011818725
 30
0.0
 11
-394.6585140432318
 21
56.97958073422865
 31
0.0
 70
    32
  1
8
 71
     5
 42
8.002941232082804
  3
Standard
100
AcDbAlignedDimension
 13
-406.0393914573932
 23
60.98105135027005
 33
0.0
 14
-400.6552725271653
 24
52.97811011818725
 34
0.0
 50
90.0
100
AcDbRotatedDimension
1001
TCAD
1000
TCW_CUSTOM_DATA
1002
{
1000
#$AUX@_ToolInfo Properties
1070
     8
1000
CMD_ORTHOGONALDIM@
1002
}
1001
ACAD
1000
DSTYLE
1002
{
1070
   148
1040
0.01
1070
   340
1005
161
1002
}
  0
DIMENSION
  5
173
330
1F
100
AcDbEntity
  8
0
  6
Continuous
 62
     7
100
AcDbDimension
  2
*D17
 10
-430.3858045921484
 20
78.33240112769528
 30
0.0
 11
-443.7717775960384
 21
66.94463130847609
 31
0.0
 70
    35
  1
8
 71
     5
 42
8.000000000000082
  3
Standard
100
AcDbDiametricDimension
 15
-435.9303044390558
 25
72.56538097447537
 35
0.0
 40
10.0
1001
TCAD
1000
TCW_CUSTOM_DATA
1002
{
1000
#$AUX@_ToolInfo Properties
1070
     8
1000
CMD_DIAMETERDIM@
1002
}
1001
ACAD
1000
DSTYLE
1002
{
1070
   148
1040
0.01
1070
   340
1005
172
1002
}
  0
DIMENSION
  5
181
330
1F
100
AcDbEntity
  8
0
  6
Continuous
 62
     7
100
AcDbDimension
  2
*D18
 10
-408.3868997203895
 20
78.33343237081135
 30
0.0
 11
-421.7681245441596
 21
66.94109925101228
 31
0.0
 70
    35
  1
8
 71
     5
 42
8.00000000000004
  3
Standard
100
AcDbDiametricDimension
 15
-413.9292892650214
 25
72.56438408400044
 35
0.0
 40
10.0000000000001
1001
TCAD
1000
TCW_CUSTOM_DATA
1002
{
1000
#$AUX@_ToolInfo Properties
1070
     8
1000
CMD_DIAMETERDIM@
1002
}
1001
ACAD
1000
DSTYLE
1002
{
1070
   148
1040
0.01
1070
   340
1005
180
1002
}
  0
LINE
  5
18E
330
1F
100
AcDbEntity
  8
0
  6
Continuous
 62
     7
370
     0
100
AcDbLine
 10
-429.1580758461799
 20
25.98097909706283
 30
0.0
 11
-437.1580758461799
 21
25.98097909706283
 31
0.0
1001
TCAD
1000
TCW_CUSTOM_DATA
1002
{
1000
#$AUX@_ToolInfo Properties
1070
     8
1000
CMD_LINE@
1002
}
  0
LINE
  5
18F
330
1F
100
AcDbEntity
  8
0
  6
Continuous
 62
     7
370
     0
100
AcDbLine
 10
-415.1580926667079
 20
25.98098214055761
 30
0.0
 11
-407.1580926667079
 21
25.98098214055761
 31
0.0
1001
TCAD
1000
TCW_CUSTOM_DATA
1002
{
1000
#$AUX@_ToolInfo Properties
1070
     8
1000
CMD_LINE@
1002
}
  0
DIMENSION
  5
191
330
1F
100
AcDbEntity
  8
0
  6
Continuous
 62
     7
100
AcDbDimension
  2
*D19
 10
-455.425153991815
 20
25.98098439271339
 30
0.0
 11
-455.425153991815
 21
43.48098132046219
 31
0.0
 70
    32
  1
35
 71
     5
 42
34.9999938554976
  3
Standard
100
AcDbAlignedDimension
 13
-438.4153284618871
 23
60.98097824821099
 33
0.0
 14
-438.4153916979856
 24
25.98098439271339
 34
0.0
 50
90.0
100
AcDbRotatedDimension
1001
TCAD
1000
TCW_CUSTOM_DATA
1002
{
1000
#$AUX@_ToolInfo Properties
1070
     8
1000
CMD_ORTHOGONALDIM@
1002
}
1001
ACAD
1000
DSTYLE
1002
{
1070
   148
1040
0.01
1070
   340
1005
190
1002
}
  0
TEXT
  5
1A0
330
1F
100
AcDbEntity
  8
0
  6
Continuous
 62
     5
420
      255
100
AcDbText
 10
-358.2275817995994
 20
195.6917726631656
 30
0.0
 40
5.012131690979004
  1
31.
  7
_TCW_TXTSTY_E
 11
-358.2275817995994
 21
200.7039043541446
 31
0.0
100
AcDbText
 73
     3
1001
TCAD
1000
TCW40_TEXT
1002
{
1000
Times New Roman
1070
     0
1070
   257
1002
}
1000
TCW_CUSTOM_DATA
1002
{
1000
#$AUX@_ToolInfo Properties
1070
     8
1000
CMD_TEXT@
1002
}
  0
CIRCLE
  5
1A1
330
1F
100
AcDbEntity
  8
0
  6
Continuous
 62
     5
420
      255
370
     0
100
AcDbCircle
 10
-353.9292373647793
 20
198.1098508262521
 30
0.0
 40
5.862654945854388
1001
TCAD
1000
TCW_CUSTOM_DATA
1002
{
1000
#$AUX@_ToolInfo Properties
1070
     8
1000
CMD_CENTERPTCIRCLE@
1002
}
  0
TEXT
  5
1A3
330
1F
100
AcDbEntity
  8
0
  6
Continuous
 62
     5
420
      255
100
AcDbText
 10
-248.2471226329251
 20
76.92292062365487
 30
0.0
 40
5.012131690979004
  1
33.
  7
_TCW_TXTSTY_F
 11
-248.2471226329251
 21
81.93505231463388
 31
0.0
100
AcDbText
 73
     3
1001
TCAD
1000
TCW40_TEXT
1002
{
1000
Times New Roman
1070
     0
1070
   257
1002
}
1000
TCW_CUSTOM_DATA
1002
{
1000
#$AUX@_ToolInfo Properties
1070
     8
1000
CMD_TEXT@
1002
}
  0
CIRCLE
  5
1A4
330
1F
100
AcDbEntity
  8
0
  6
Continuous
 62
     5
420
      255
370
     0
100
AcDbCircle
 10
-243.9487781981051
 20
79.34099878674147
 30
0.0
 40
5.862654945854388
1001
TCAD
1000
TCW_CUSTOM_DATA
1002
{
1000
#$AUX@_ToolInfo Properties
1070
     8
1000
CMD_CENTERPTCIRCLE@
1002
}
  0
TEXT
  5
1A6
330
1F
100
AcDbEntity
  8
0
  6
Continuous
 62
     5
420
      255
100
AcDbText
 10
-510.6434236533333
 20
68.63672164406304
 30
0.0
 40
5.012131690979004
  1
35.
  7
_TCW_TXTSTY_10
 11
-510.6434236533333
 21
73.64885333504205
 31
0.0
100
AcDbText
 73
     3
1001
TCAD
1000
TCW40_TEXT
1002
{
1000
Times New Roman
1070
     0
1070
   257
1002
}
1000
TCW_CUSTOM_DATA
1002
{
1000
#$AUX@_ToolInfo Properties
1070
     8
1000
CMD_TEXT@
1002
}
  0
CIRCLE
  5
1A7
330
1F
100
AcDbEntity
  8
0
  6
Continuous
 62
     5
420
      255
370
     0
100
AcDbCircle
 10
-506.3450792185133
 20
71.05479980714964
 30
0.0
 40
5.862654945854388
1001
TCAD
1000
TCW_CUSTOM_DATA
1002
{
1000
#$AUX@_ToolInfo Properties
1070
     8
1000
CMD_CENTERPTCIRCLE@
1002
}
  0
TEXT
  5
1A9
330
1F
100
AcDbEntity
  8
0
  6
Continuous
 62
     5
420
      255
100
AcDbText
 10
-399.9096736533334
 20
29.21450225630792
 30
0.0
 40
5.012131690979004
  1
36.
  7
_TCW_TXTSTY_11
 11
-399.9096736533334
 21
34.22663394728693
 31
0.0
100
AcDbText
 73
     3
1001
TCAD
1000
TCW40_TEXT
1002
{
1000
Times New Roman
1070
     0
1070
   257
1002
}
1000
TCW_CUSTOM_DATA
1002
{
1000
#$AUX@_ToolInfo Properties
1070
     8
1000
CMD_TEXT@
1002
}
  0
CIRCLE
  5
1AA
330
1F
100
AcDbEntity
  8
0
  6
Continuous
 62
     5
420
      255
370
     0
100
AcDbCircle
 10
-395.6113292185133
 20
31.63258041939451
 30
0.0
 40
5.862654945854388
1001
TCAD
1000
TCW_CUSTOM_DATA
1002
{
1000
#$AUX@_ToolInfo Properties
1070
     8
1000
CMD_CENTERPTCIRCLE@
1002
}
  0
LWPOLYLINE
  5
1AB
330
1F
100
AcDbEntity
  8
0
  6
Continuous
 62
     5
420
      255
370
     0
100
AcDbPolyline
 90
        4
 70
   128
 43
0.0
 10
-511.6617767918107
 20
168.3457763097754
 10
-511.6617767918107
 20
153.5578766673887
 10
-510.0678714411343
 20
158.8819632916916
 10
-510.0678714411343
 20
136.9657647198906
1001
TCAD
1000
TCW_CUSTOM_DATA
1002
{
1000
#$AUX@_ToolInfo Properties
1070
     8
1000
CMD_POLYLINE@
1002
}
  0
LWPOLYLINE
  5
1AC
330
1F
100
AcDbEntity
  8
0
  6
Continuous
 62
     5
420
      255
370
     0
100
AcDbPolyline
 90
        3
 70
   128
 43
0.0
 10
-510.8648241164725
 20
168.3568450984903
 10
-510.8648241164725
 20
158.3063863595028
 10
-510.0235962925043
 20
160.8743449800371
1001
TCAD
1000
TCW_CUSTOM_DATA
1002
{
1000
#$AUX@_ToolInfo Properties
1070
     8
1000
CMD_POLYLINE@
1002
}
  0
LWPOLYLINE
  5
1AD
330
1F
100
AcDbEntity
  8
0
  6
Continuous
 62
     5
420
      255
370
     0
100
AcDbPolyline
 90
        3
 70
   128
 43
0.0
 10
-511.7060519404407
 20
137.3199659089299
 10
-511.7060519404407
 20
151.2666377273486
 10
-510.3335223329137
 20
155.5613271444491
1001
TCAD
1000
TCW_CUSTOM_DATA
1002
{
1000
#$AUX@_ToolInfo Properties
1070
     8
1000
CMD_POLYLINE@
1002
}
  0
LINE
  5
1AE
330
1F
100
AcDbEntity
  8
0
  6
Continuous
 62
     5
420
      255
370
     0
100
AcDbLine
 10
-510.0427601586752
 20
160.836206038885
 30
0.0
 11
-510.0427601586752
 21
168.2642354528371
 31
0.0
1001
TCAD
1000
TCW_CUSTOM_DATA
1002
{
1000
#$AUX@_ToolInfo Properties
1070
     8
1000
CMD_LINE@
1002
}
  0
LWPOLYLINE
  5
1AF
330
1F
100
AcDbEntity
  8
0
  6
Continuous
 62
     5
420
      255
370
     0
100
AcDbPolyline
 90
        4
 70
   128
 43
0.0
 10
-460.1869043428311
 20
168.3457763097754
 10
-460.1869043428311
 20
153.5578766673887
 10
-458.5929989921548
 20
158.8819632916916
 10
-458.5929989921548
 20
136.9657647198906
1001
TCAD
1000
TCW_CUSTOM_DATA
1002
{
1000
#$AUX@_ToolInfo Properties
1070
     8
1000
CMD_POLYLINE@
1002
}
  0
LWPOLYLINE
  5
1B0
330
1F
100
AcDbEntity
  8
0
  6
Continuous
 62
     5
420
      255
370
     0
100
AcDbPolyline
 90
        3
 70
   128
 43
0.0
 10
-459.3899516674929
 20
168.3568450984903
 10
-459.3899516674929
 20
158.3063863595028
 10
-458.5487238435247
 20
160.8743449800371
1001
TCAD
1000
TCW_CUSTOM_DATA
1002
{
1000
#$AUX@_ToolInfo Properties
1070
     8
1000
CMD_POLYLINE@
1002
}
  0
LWPOLYLINE
  5
1B1
330
1F
100
AcDbEntity
  8
0
  6
Continuous
 62
     5
420
      255
370
     0
100
AcDbPolyline
 90
        3
 70
   128
 43
0.0
 10
-460.2311794914611
 20
137.3199659089299
 10
-460.2311794914611
 20
151.2666377273486
 10
-458.8586498839342
 20
155.5613271444491
1001
TCAD
1000
TCW_CUSTOM_DATA
1002
{
1000
#$AUX@_ToolInfo Properties
1070
     8
1000
CMD_POLYLINE@
1002
}
  0
LINE
  5
1B2
330
1F
100
AcDbEntity
  8
0
  6
Continuous
 62
     5
420
      255
370
     0
100
AcDbLine
 10
-458.5678877096956
 20
160.836206038885
 30
0.0
 11
-458.5678877096956
 21
168.2642354528371
 31
0.0
1001
TCAD
1000
TCW_CUSTOM_DATA
1002
{
1000
#$AUX@_ToolInfo Properties
1070
     8
1000
CMD_LINE@
1002
}
  0
LWPOLYLINE
  5
1B3
330
1F
100
AcDbEntity
  8
0
  6
Continuous
 62
     5
420
      255
370
     0
100
AcDbPolyline
 90
        4
 70
   128
 43
0.0
 10
-409.2142257714025
 20
167.3413885546734
 10
-409.2142257714025
 20
152.5534889122866
 10
-407.6203204207262
 20
157.8775755365896
 10
-407.6203204207262
 20
135.9613769647885
1001
TCAD
1000
TCW_CUSTOM_DATA
1002
{
1000
#$AUX@_ToolInfo Properties
1070
     8
1000
CMD_POLYLINE@
1002
}
  0
LWPOLYLINE
  5
1B4
330
1F
100
AcDbEntity
  8
0
  6
Continuous
 62
     5
420
      255
370
     0
100
AcDbPolyline
 90
        3
 70
   128
 43
0.0
 10
-408.4172730960643
 20
167.3524573433883
 10
-408.4172730960643
 20
157.3019986044008
 10
-407.5760452720961
 20
159.869957224935
1001
TCAD
1000
TCW_CUSTOM_DATA
1002
{
1000
#$AUX@_ToolInfo Properties
1070
     8
1000
CMD_POLYLINE@
1002
}
  0
LWPOLYLINE
  5
1B5
330
1F
100
AcDbEntity
  8
0
  6
Continuous
 62
     5
420
      255
370
     0
100
AcDbPolyline
 90
        3
 70
   128
 43
0.0
 10
-409.2585009200325
 20
136.3155781538278
 10
-409.2585009200325
 20
150.2622499722465
 10
-407.8859713125055
 20
154.556939389347
1001
TCAD
1000
TCW_CUSTOM_DATA
1002
{
1000
#$AUX@_ToolInfo Properties
1070
     8
1000
CMD_POLYLINE@
1002
}
  0
LINE
  5
1B6
330
1F
100
AcDbEntity
  8
0
  6
Continuous
 62
     5
420
      255
370
     0
100
AcDbLine
 10
-407.595209138267
 20
159.8318182837829
 30
0.0
 11
-407.595209138267
 21
167.259847697735
 31
0.0
1001
TCAD
1000
TCW_CUSTOM_DATA
1002
{
1000
#$AUX@_ToolInfo Properties
1070
     8
1000
CMD_LINE@
1002
}
  0
LWPOLYLINE
  5
1B7
330
1F
100
AcDbEntity
  8
0
  6
Continuous
 62
     5
420
      255
370
     0
100
AcDbPolyline
 90
        4
 70
   128
 43
0.0
 10
-328.8632053632392
 20
165.0815161056938
 10
-328.8632053632392
 20
150.293616463307
 10
-327.2693000125629
 20
155.61770308761
 10
-327.2693000125629
 20
133.7015045158089
1001
TCAD
1000
TCW_CUSTOM_DATA
1002
{
1000
#$AUX@_ToolInfo Properties
1070
     8
1000
CMD_POLYLINE@
1002
}
  0
LWPOLYLINE
  5
1B8
330
1F
100
AcDbEntity
  8
0
  6
Continuous
 62
     5
420
      255
370
     0
100
AcDbPolyline
 90
        3
 70
   128
 43
0.0
 10
-328.0662526879011
 20
165.0925848944087
 10
-328.0662526879011
 20
155.0421261554212
 10
-327.2250248639328
 20
157.6100847759554
1001
TCAD
1000
TCW_CUSTOM_DATA
1002
{
1000
#$AUX@_ToolInfo Properties
1070
     8
1000
CMD_POLYLINE@
1002
}
  0
LWPOLYLINE
  5
1B9
330
1F
100
AcDbEntity
  8
0
  6
Continuous
 62
     5
420
      255
370
     0
100
AcDbPolyline
 90
        3
 70
   128
 43
0.0
 10
-328.9074805118693
 20
134.0557057048482
 10
-328.9074805118693
 20
148.0023775232669
 10
-327.5349509043423
 20
152.2970669403674
1001
TCAD
1000
TCW_CUSTOM_DATA
1002
{
1000
#$AUX@_ToolInfo Properties
1070
     8
1000
CMD_POLYLINE@
1002
}
  0
LINE
  5
1BA
330
1F
100
AcDbEntity
  8
0
  6
Continuous
 62
     5
420
      255
370
     0
100
AcDbLine
 10
-327.2441887301037
 20
157.5719458348033
 30
0.0
 11
-327.2441887301037
 21
164.9999752487554
 31
0.0
1001
TCAD
1000
TCW_CUSTOM_DATA
1002
{
1000
#$AUX@_ToolInfo Properties
1070
     8
1000
CMD_LINE@
1002
}
  0
MTEXT
  5
1BC
330
1F
100
AcDbEntity
  8
0
  6
Continuous
 62
     5
420
      255
100
AcDbMText
 10
-369.0448745759755
 20
47.70876177784741
 30
0.0
 40
3.522528076171875
 41
64.37328326702118
 71
     1
 72
     1
  1
{31.:Fedйlzeti hбz homlokfalak\P33.:Fedйlzeti hбz hбtу tet\U+0151\P35.:Kцtйlbika\P36.:Vontatуbak\P37.:Helyzetlбmpa}
  7
_TCW_TXTSTY_12
 73
     1
 44
1.0
1001
TCAD
1000
TCW40_TEXT
1002
{
1000
Times New Roman
1070
     0
1070
   257
1002
}
1000
TCW_CUSTOM_DATA
1002
{
1000
#$AUX@_ToolInfo Properties
1070
     8
1000
CMD_TEXT@
1002
}
  0
LINE
  5
1BD
330
1F
100
AcDbEntity
  8
0
  6
Continuous
 62
     7
370
     0
100
AcDbLine
 10
-346.0872556876848
 20
73.26075936721034
 30
0.0
 11
-356.0872556876848
 21
73.26075936721034
 31
0.0
1001
TCAD
1000
TCW_CUSTOM_DATA
1002
{
1000
#$AUX@_ToolInfo Properties
1070
     8
1000
CMD_LINE@
1002
}
  0
LINE
  5
1BE
330
1F
100
AcDbEntity
  8
0
  6
Continuous
 62
     7
370
     0
100
AcDbLine
 10
-360.0869532697711
 20
77.26067998394731
 30
0.0
 11
-346.0642707856509
 21
77.26067998394731
 31
0.0
1001
TCAD
1000
TCW_CUSTOM_DATA
1002
{
1000
#$AUX@_ToolInfo Properties
1070
     8
1000
CMD_LINE@
1002
}
  0
LINE
  5
1BF
330
1F
100
AcDbEntity
  8
0
  6
Continuous
 62
     7
370
     0
100
AcDbLine
 10
-346.1068409594714
 20
87.25805636230646
 30
0.0
 11
-360.1068409594714
 21
87.25805636230646
 31
0.0
1001
TCAD
1000
TCW_CUSTOM_DATA
1002
{
1000
#$AUX@_ToolInfo Properties
1070
     8
1000
CMD_LINE@
1002
}
  0
LINE
  5
1C0
330
1F
100
AcDbEntity
  8
0
  6
Continuous
 62
     7
370
     0
100
AcDbLine
 10
-346.1068610419024
 20
77.2579840283702
 30
0.0
 11
-360.1068610419024
 21
77.2579840283702
 31
0.0
1001
TCAD
1000
TCW_CUSTOM_DATA
1002
{
1000
#$AUX@_ToolInfo Properties
1070
     8
1000
CMD_LINE@
1002
}
  0
ARC
  5
1C1
330
1F
100
AcDbEntity
  8
0
  6
Continuous
 62
     7
370
     0
100
AcDbCircle
 10
-353.1068146166517
 20
82.25809880787395
 30
0.0
 40
7.000000000000155
100
AcDbArc
 50
-45.2506785464229
 51
45.52285608248384
1001
TCAD
1000
TCW_CUSTOM_DATA
1002
{
1000
#$AUX@_ToolInfo Properties
1070
     8
1000
CMD_CENTERPTCIRCLE@
1002
}
  0
ARC
  5
1C2
330
1F
100
AcDbEntity
  8
0
  6
Continuous
 62
     7
370
     0
100
AcDbCircle
 10
-353.1067348818774
 20
82.2580625640642
 30
0.0
 40
6.999999999999999
100
AcDbArc
 50
134.4340923551752
 51
225.3978599577786
1001
TCAD
1000
TCW_CUSTOM_DATA
1002
{
1000
#$AUX@_ToolInfo Properties
1070
     8
1000
CMD_CENTERPTCIRCLE@
1002
}
  0
LINE
  5
1C3
330
1F
100
AcDbEntity
  8
0
  6
Continuous
 62
     7
370
     0
100
AcDbLine
 10
-360.1068092842852
 20
77.20922725466656
 30
0.0
 11
-360.1068092842852
 21
73.25802786979128
 31
0.0
1001
TCAD
1000
TCW_CUSTOM_DATA
1002
{
1000
#$AUX@_ToolInfo Properties
1070
     8
1000
CMD_LINE@
1002
}
  0
LINE
  5
1C4
330
1F
100
AcDbEntity
  8
0
  6
Continuous
 62
     7
370
     0
100
AcDbLine
 10
-360.1068092842852
 20
91.25802786979128
 30
0.0
 11
-360.1068092842852
 21
87.22917076026923
 31
0.0
1001
TCAD
1000
TCW_CUSTOM_DATA
1002
{
1000
#$AUX@_ToolInfo Properties
1070
     8
1000
CMD_LINE@
1002
}
  0
LINE
  5
1C5
330
1F
100
AcDbEntity
  8
0
  6
Continuous
 62
     7
370
     0
100
AcDbLine
 10
-360.1068092842852
 20
91.25802786979128
 30
0.0
 11
-346.1068092842852
 21
91.25802786979128
 31
0.0
1001
TCAD
1000
TCW_CUSTOM_DATA
1002
{
1000
#$AUX@_ToolInfo Properties
1070
     8
1000
CMD_LINE@
1002
}
  0
LINE
  5
1C6
330
1F
100
AcDbEntity
  8
0
  6
Continuous
 62
     7
370
     0
100
AcDbLine
 10
-346.1068047122194
 20
87.3068447409328
 30
0.0
 11
-346.1068047122194
 21
91.25802236734492
 31
0.0
1001
TCAD
1000
TCW_CUSTOM_DATA
1002
{
1000
#$AUX@_ToolInfo Properties
1070
     8
1000
CMD_LINE@
1002
}
  0
LINE
  5
1C7
330
1F
100
AcDbEntity
  8
0
  6
Continuous
 62
     7
370
     0
100
AcDbLine
 10
-346.1068047122194
 20
73.25802236734492
 30
0.0
 11
-346.1068047122194
 21
77.28690123533013
 31
0.0
1001
TCAD
1000
TCW_CUSTOM_DATA
1002
{
1000
#$AUX@_ToolInfo Properties
1070
     8
1000
CMD_LINE@
1002
}
  0
LINE
  5
1C8
330
1F
100
AcDbEntity
  8
0
  6
Continuous
 62
     7
370
     0
100
AcDbLine
 10
-346.1068047122194
 20
73.25802236734492
 30
0.0
 11
-360.1068047122194
 21
73.25802236734492
 31
0.0
1001
TCAD
1000
TCW_CUSTOM_DATA
1002
{
1000
#$AUX@_ToolInfo Properties
1070
     8
1000
CMD_LINE@
1002
}
  0
DIMENSION
  5
1C9
330
1F
100
AcDbEntity
  8
0
  6
Continuous
 62
     7
100
AcDbDimension
  2
*D20
 10
-337.1773243484504
 20
91.24354021104247
 30
0.0
 11
-337.1773243484504
 21
82.25785690020744
 31
0.0
 70
    32
  1
9
 71
     5
 42
17.97136662167006
  3
Standard
100
AcDbAlignedDimension
 13
-345.4919334169473
 23
73.27217358937241
 33
0.0
 14
-345.6918038272477
 24
91.24354021104247
 34
0.0
 50
90.0
100
AcDbRotatedDimension
1001
TCAD
1000
TCW_CUSTOM_DATA
1002
{
1000
#$AUX@_ToolInfo Properties
1070
     8
1000
CMD_ORTHOGONALDIM@
1002
}
1001
ACAD
1000
DSTYLE
1002
{
1070
   148
1040
0.01
1070
   340
1005
1BB
1002
}
  0
DIMENSION
  5
1D8
330
1F
100
AcDbEntity
  8
0
  6
Continuous
 62
     7
100
AcDbDimension
  2
*D21
 10
-341.9421326391071
 20
91.24354021104247
 30
0.0
 11
-341.9421326391071
 21
89.25270019606707
 31
0.0
 70
    32
  1
2
 71
     5
 42
3.981680029950809
  3
Standard
100
AcDbAlignedDimension
 13
-345.4200681826242
 23
87.26186018109166
 33
0.0
 14
-345.3410241929988
 24
91.24354021104247
 34
0.0
 50
90.0
100
AcDbRotatedDimension
1001
TCAD
1000
TCW_CUSTOM_DATA
1002
{
1000
#$AUX@_ToolInfo Properties
1070
     8
1000
CMD_ORTHOGONALDIM@
1002
}
1001
ACAD
1000
DSTYLE
1002
{
1070
   148
1040
0.01
1070
   340
1005
1D7
1002
}
  0
DIMENSION
  5
1E9
330
1F
100
AcDbEntity
  8
0
  6
Continuous
 62
     7
100
AcDbDimension
  2
*D22
 10
-365.4981529384933
 20
73.28095831462541
 30
0.0
 11
-365.4981529384933
 21
75.26328812013773
 31
0.0
 70
    32
  1
2
 71
     5
 42
3.964659611024629
  3
Standard
100
AcDbAlignedDimension
 13
-360.8832193675493
 23
77.24561792565004
 33
0.0
 14
-361.2305799589107
 24
73.28095831462541
 34
0.0
 50
90.0
100
AcDbRotatedDimension
1001
TCAD
1000
TCW_CUSTOM_DATA
1002
{
1000
#$AUX@_ToolInfo Properties
1070
     8
1000
CMD_ORTHOGONALDIM@
1002
}
1001
ACAD
1000
DSTYLE
1002
{
1070
   148
1040
0.01
1070
   340
1005
1E8
1002
}
  0
DIMENSION
  5
1FA
330
1F
100
AcDbEntity
  8
0
  6
Continuous
 62
     7
100
AcDbDimension
  2
*D23
 10
-360.1186513333586
 20
99.16584128659484
 30
0.0
 11
-353.1207882849839
 21
100.7583713166249
 31
0.0
 70
    32
  1
7
 71
     5
 42
13.99572609674948
  3
Standard
100
AcDbAlignedDimension
 13
-346.1229252366091
 23
91.9439573434898
 33
0.0
 14
-360.1186513333586
 24
92.04024912939785
 34
0.0
100
AcDbRotatedDimension
1001
TCAD
1000
TCW_CUSTOM_DATA
1002
{
1000
#$AUX@_ToolInfo Properties
1070
     8
1000
CMD_ORTHOGONALDIM@
1002
}
1001
ACAD
1000
DSTYLE
1002
{
1070
   148
1040
0.01
1070
   340
1005
1F9
1002
}
  0
DIMENSION
  5
208
330
1F
100
AcDbEntity
  8
0
  6
Continuous
 62
     7
100
AcDbDimension
  2
*D24
 10
-346.8696435532141
 20
79.08021867898846
 30
0.0
 11
-370.8449852085881
 21
91.60424949388566
 31
0.0
 70
    35
  1
%%c7
 71
     5
 42
13.99999999999998
  3
Standard
100
AcDbDiametricDimension
 15
-359.3438262105407
 25
85.43590644913995
 35
0.0
 40
10.0
1001
TCAD
1000
TCW_CUSTOM_DATA
1002
{
1000
#$AUX@_ToolInfo Properties
1070
     8
1000
CMD_DIAMETERDIM@
1002
}
1001
ACAD
1000
DSTYLE
1002
{
1070
   148
1040
0.01
1070
   340
1005
207
1002
}
  0
TEXT
  5
216
330
1F
100
AcDbEntity
  8
0
  6
Continuous
 62
     5
420
      255
100
AcDbText
 10
-332.8741829138236
 20
68.58074867351996
 30
0.0
 40
5.012131690979004
  1
37.
  7
_TCW_TXTSTY_17
 11
-332.8741829138236
 21
73.59288036449897
 31
0.0
100
AcDbText
 73
     3
1001
TCAD
1000
TCW40_TEXT
1002
{
1000
Times New Roman
1070
     0
1070
   257
1002
}
1000
TCW_CUSTOM_DATA
1002
{
1000
#$AUX@_ToolInfo Properties
1070
     8
1000
CMD_TEXT@
1002
}
  0
CIRCLE
  5
217
330
1F
100
AcDbEntity
  8
0
  6
Continuous
 62
     5
420
      255
370
     0
100
AcDbCircle
 10
-328.5758384790036
 20
70.99882683660655
 30
0.0
 40
5.862654945854388
1001
TCAD
1000
TCW_CUSTOM_DATA
1002
{
1000
#$AUX@_ToolInfo Properties
1070
     8
1000
CMD_CENTERPTCIRCLE@
1002
}
  0
TEXT
  5
219
330
1F
100
AcDbEntity
  8
0
  6
Continuous
 62
     5
420
      255
100
AcDbText
 10
-353.7618648532243
 20
63.36064481287371
 30
0.0
 40
4.771098518371581
  1
M 2:1
  7
_TCW_TXTSTY_18
 11
-353.7618648532243
 21
68.13174333124529
 31
0.0
100
AcDbText
 73
     3
1001
TCAD
1000
TCW40_TEXT
1002
{
1000
Times New Roman
1070
     0
1070
   257
1002
}
1000
TCW_CUSTOM_DATA
1002
{
1000
#$AUX@_ToolInfo Properties
1070
     8
1000
CMD_TEXT@
1002
}
  0
LINE
  5
21A
330
1F
100
AcDbEntity
  8
0
  6
Continuous
 62
     5
420
      255
370
     0
100
AcDbLine
 10
-353.1076189418671
 20
73.27592896720667
 30
0.0
 11
-353.1076189418671
 21
91.28463070403089
 31
0.0
1001
TCAD
1000
TCW_CUSTOM_DATA
1002
{
1000
#$AUX@_ToolInfo Properties
1070
     8
1000
CMD_LINE@
1002
}
  0
DIMENSION
  5
21C
330
1F
100
AcDbEntity
  8
0
  6
Continuous
 62
     7
100
AcDbDimension
  2
*D25
 10
-449.8763683834405
 20
31.98097928604096
 30
0.0
 11
-449.8763683834405
 21
46.48097928604096
 31
0.0
 70
    32
  1
29
 71
     5
 42
29.0
  3
Standard
100
AcDbAlignedDimension
 13
-438.9937192994331
 23
60.98097928604096
 33
0.0
 14
-438.9937192994331
 24
31.98097928604096
 34
0.0
 50
90.0
100
AcDbRotatedDimension
1001
TCAD
1000
TCW_CUSTOM_DATA
1002
{
1000
#$AUX@_ToolInfo Properties
1070
     8
1000
CMD_ORTHOGONALDIM@
1002
}
1001
ACAD
1000
DSTYLE
1002
{
1070
   148
1040
0.01
1070
   340
1005
21B
1002
}
  0
LINE
  5
22A
330
1F
100
AcDbEntity
  8
0
  6
Continuous
 62
     5
420
      255
370
     0
100
AcDbLine
 10
-415.1405926009822
 20
31.98084174396154
 30
0.0
 11
-407.2252386912357
 21
31.98084174396153
 31
0.0
1001
TCAD
1000
TCW_CUSTOM_DATA
1002
{
1000
#$AUX@_ToolInfo Properties
1070
     8
1000
CMD_LINE@
1002
}
  0
LINE
  5
22B
330
1F
100
AcDbEntity
  8
0
  6
Continuous
 62
     5
420
      255
370
     0
100
AcDbLine
 10
-437.1533749484277
 20
31.9830744862483
 30
0.0
 11
-429.155646240045
 21
31.9830744862483
 31
0.0
1001
TCAD
1000
TCW_CUSTOM_DATA
1002
{
1000
#$AUX@_ToolInfo Properties
1070
     8
1000
CMD_LINE@
1002
}
  0
ENDSEC
  0
SECTION
  2
OBJECTS
  0
DICTIONARY
  5
C
330
0
100
AcDbDictionary
281
     1
  3
ACAD_GROUP
350
D
  3
ACAD_LAYOUT
350
1A
  3
ACAD_MLINESTYLE
350
17
  3
ACAD_PLOTSETTINGS
350
19
  3
ACAD_PLOTSTYLENAME
350
E
  0
DICTIONARY
  5
D
102
{ACAD_REACTORS
330
C
102
}
330
C
100
AcDbDictionary
281
     1
  0
DICTIONARY
  5
1A
102
{ACAD_REACTORS
330
C
102
}
330
C
100
AcDbDictionary
281
     1
  3
Model
350
22
  3
Paper 1
350
1E
  0
DICTIONARY
  5
17
102
{ACAD_REACTORS
330
C
102
}
330
C
100
AcDbDictionary
281
     1
  3
Standard
350
18
  0
DICTIONARY
  5
19
102
{ACAD_REACTORS
330
C
102
}
330
C
100
AcDbDictionary
281
     1
  0
ACDBDICTIONARYWDFLT
  5
E
102
{ACAD_REACTORS
330
C
102
}
330
C
100
AcDbDictionary
281
     1
  3
Normal
350
F
100
AcDbDictionaryWithDefault
340
F
  0
LAYOUT
  5
22
102
{ACAD_REACTORS
330
1A
102
}
330
1A
100
AcDbPlotSettings
  1

  2
none_device
  4

  6

 40
7.0
 41
7.0
 42
7.0
 43
7.0
 44
297.0
 45
210.0
 46
523.6488228331662
 47
-18.42481468557386
 48
0.0
 49
0.0
140
0.0
141
0.0
142
1.0
143
1.0
 70
  1712
 72
     1
 73
     0
 74
     0
  7

 75
     0
 76
     0
 77
     2
 78
   300
147
1.0
148
0.0
149
0.0
100
AcDbLayout
  1
Model
 70
     1
 71
     0
 10
-530.6488228331662
 20
11.42481468557386
 11
-233.6488228331662
 21
221.4248146855739
 12
0.0
 22
0.0
 32
0.0
 14
-530.6488228331662
 24
11.42481468557386
 34
0.0
 15
-233.6488228331662
 25
221.4248146855739
 35
0.0
146
0.0
 13
0.0
 23
0.0
 33
0.0
 16
1.0
 26
0.0
 36
0.0
 17
0.0
 27
1.0
 37
0.0
 76
     0
330
1F
  0
LAYOUT
  5
1E
102
{ACAD_REACTORS
330
1A
102
}
330
1A
100
AcDbPlotSettings
  1

  2
none_device
  4

  6

 40
7.0
 41
7.0
 42
7.0
 43
7.0
 44
297.0
 45
210.0
 46
-7.0
 47
-7.0
 48
0.0
 49
0.0
140
0.0
141
0.0
142
1.0
143
1.0
 70
   688
 72
     1
 73
     0
 74
     5
  7

 75
    16
 76
     0
 77
     2
 78
   300
147
1.0
148
0.0
149
0.0
100
AcDbLayout
  1
Paper 1
 70
     1
 71
     1
 10
0.0
 20
0.0
 11
297.0
 21
210.0
 12
0.0
 22
0.0
 32
0.0
 14
0.0
 24
0.0
 34
0.0
 15
297.0
 25
210.0
 35
0.0
146
0.0
 13
0.0
 23
0.0
 33
0.0
 16
1.0
 26
0.0
 36
0.0
 17
0.0
 27
1.0
 37
0.0
 76
     0
330
1B
  0
MLINESTYLE
  5
18
102
{ACAD_REACTORS
330
17
102
}
330
17
100
AcDbMlineStyle
  2
Standard
 70
     0
  3

 62
   256
 51
90.0
 52
90.0
 71
     5
 49
0.5
 62
   256
  6
BYLAYER
 49
-0.5
 62
   256
  6
BYLAYER
 49
0.25
 62
     7
  6
BYLAYER
 49
0.0
 62
     7
  6
BYLAYER
 49
-0.25
 62
     7
  6
BYLAYER
  0
ACDBPLACEHOLDER
  5
F
102
{ACAD_REACTORS
330
E
102
}
330
E
  0
ENDSEC
  0
SECTION
  2
THUMBNAILIMAGE
 90
    16364
310
28000000B40000005500000001000800000000000000000000000000000000000000000000000000FFFFFF000000FF0000FFFF0000FF0000FFFF0000FF000000FF00FF000000000080808000C0C0C0000000FF007F7FFF000000A5005252A50000007F003F3F7F0000004C0026264C000000260013132600003FFF007F9FFF
310
000029A5005267A500001F7F003F4F7F0000134C00262F4C000009260013172600007FFF007FBFFF000052A500527CA500003F7F003F5F7F0000264C0026394C0000132600131C260000BFFF007FDFFF00007CA5005291A500005F7F003F6F7F0000394C0026424C00001C26001321260000FFFF007FFFFF0000A5A50052A5
310
A500007F7F003F7F7F00004C4C00264C4C00002626001326260000FFBF007FFFDF0000A57C0052A59100007F5F003F7F6F00004C3900264C420000261C001326210000FF7F007FFFBF0000A5520052A57C00007F3F003F7F5F00004C2600264C39000026130013261C0000FF3F007FFF9F0000A5290052A56700007F1F003F
310
7F4F00004C1300264C2F00002609001326170000FF00007FFF7F0000A5000052A55200007F00003F7F3F00004C0000264C260000260000132613003FFF00009FFF7F0029A5000067A552001F7F00004F7F3F00134C00002F4C260009260000172613007FFF0000BFFF7F0052A500007CA552003F7F00005F7F3F00264C0000
310
394C2600132600001C261300BFFF0000DFFF7F007CA5000091A552005F7F00006F7F3F00394C0000424C26001C26000021261300FFFF0000FFFF7F00A5A50000A5A552007F7F00007F7F3F004C4C00004C4C26002626000026261300FFBF0000FFDF7F00A57C0000A59152007F5F00007F6F3F004C3900004C422600261C00
310
0026211300FF7F0000FFBF7F00A5520000A57C52007F3F00007F5F3F004C2600004C39260026130000261C1300FF3F0000FF9F7F00A5290000A56752007F1F00007F4F3F004C1300004C2F26002609000026171300FF000000FF7F7F00A5000000A55252007F0000007F3F3F004C0000004C2626002600000026131300FF00
310
3F00FF7F9F00A5002900A55267007F001F007F3F4F004C0013004C262F002600090026131700FF007F00FF7FBF00A5005200A5527C007F003F007F3F5F004C0026004C2639002600130026131C00FF00BF00FF7FDF00A5007C00A55291007F005F007F3F6F004C0039004C26420026001C0026132100FF00FF00FF7FFF00A5
310
00A500A552A5007F007F007F3F7F004C004C004C264C002600260026132600BF00FF00DF7FFF007C00A5009152A5005F007F006F3F7F0039004C0042264C001C002600211326007F00FF00BF7FFF005200A5007C52A5003F007F005F3F7F0026004C0039264C00130026001C1326003F00FF009F7FFF002900A5006752A500
310
1F007F004F3F7F0013004C002F264C000900260017132600000000002D2D2D005B5B5B0089898900B7B7B700B3B3B30000000000000000000000000000000000000000000000000000000000000007070707070707070707070707070707070707070707070707070707070707070707070707070707070707070707070707
310
07070707070707070707070707070707070707070707070707070707070707070707070707070707070707070707070707070707070707070707070707070707070707070707070700000000000000000000000000000000000000000000000000000000000000000000000000000000000000000000000000000000000000
310
00000000070000000000000000000000000000000000000000000000000000000000000000000000000000000000000000000000000000000000000000000000000000000000000000050000000000000505000000000000000000000000000007070707070707070707070707070707070707070707070707070707070000
310
00000000000000000000000000000000000000000000000000000000000000000000000000000000000000000000000000000000000000000007000000000000000000000000000000000000000000000000000000000000000000000000000000000000000000000000000000000000000000000000000505050505050505
310
05050505050505050500000000000000000000000000070707070707070707070707070707070707070707070000000000070700000000000000000000000000000000000000000000000000000000000000000000000000000000000000000000000000000000000000000000000700070707070707070707070707000000
310
00000000000000000000000000000000000000000000000000000000000000000000000000000000000000000005050505050505050505050505050505050000000000000000000000000007000707070007070707070707070707070707070707000000000007070000000000000000000000000000000000000000000000
310
00000000000000000000000000000000000000000000000000000000000000000000000007000700000000000007000500070000000000000000000000070707070707070707070707000000000007070707070000000505000000000000000000000505050505050505050505050505050000000000000000000000000000
310
00070707070700070707070707070707070707000000000000000000070700000000000000000000000000000000000000000000000000000000000000000000000000000000000000000000000000000000000000000000000700070700000000000700050007000000000000000000000707000000000000000705000700
310
00000000070005000700000505050505000000000000000005050500050505050505050505050500000000000000000000000000000007070707070707070707070707070707070700000000000000000007070000000000000000000000000000000000000000000000000000000000000000000000000000000000000000
310
00000000000000000000000000000007000700000000000007000500070000000000000000000007070000000000000007050007000000000007000500070005050505050500000000000000000505050005050500000000050005000000000000000000000000000000000707070700000000070000070707070000000000
310
00000000000000070700000000000000000000000000000000000000000000000000000000000000000000000000000000000000000000000000000000000000000000000700070000000000000700050007000000000000000000000007000707070707070505050500000000000505050505000005050505050000000000
310
00000005050505050505050505050505050000000000000000000000000000000007070707070707070707070707070707070707070700000000000007070000000000000000000000000000000000000000000000000000000000000000000000000000000000000000000000000000000000000000000000070007000000
310
00000007000500070000000000000000000000070007000000000007050007000000000007000500070000050505050500000000000000000505050005050505050505050500000000000000000000000000000000000707070707070707070707070707070707070707070000000000000707000000000000000000000000
310
00000000000000000000000000000000000000000000000000000000000000000000000000000000000000000000000700070000000000000700050007000000000000000000000007000707000000000705000700000000000700050007000000050500000000000000000000050505050505050505050505050505050505
310
05050505050505000000000007070707070707000000000000000000000000000000000000000007070000000000000000000000000000000000000000000000000000000000000000000000000000000000000000000000000000000000000000000000070707070000000000070005000700000000000000000000000700
310
07000000000007050007000000000007000500070000000000000000000000000000000505050505050505050505050505050505050505050505050500000000000707070707070000000000000000000000000000000000000000000707000000000000000000000000000000000000000000000000000000000000000000
310
00000000000000000000000000000000000000000000000000000707070707070707070505050505000000000700000000000707070700000000000705000700000000000700050007000000000700000000000000000000050505000505050505000005000505050505050500050005050000000000070707070707000000
310
00000000000000000000000000000007000007070000000000000000000000000000000000000000000000000000000000000000000000000000000000000000000000000000000000000000000000070007070700000000070005000700000000070000000000070707070700000000070500070000000000070005000700
310
00000007000000000000000000000505050505050505050505050505050505050505050505050505050505000707070707070707070707070707070707070707070707070707000707000000000000000000000000000000000000000000000000000000000000000000000000000000000000000000000000000000000000
310
00000000000700070007070000000700050007000000070700000000000007070707000000000705000700000000000700050007000000000700000000000000000000050505000505050505050505050505050505050505050505050505050500070707070707070707070707070707070707070707070707070700070700
310
00000000000000000000000000000000000000000000000000000000000000000000000000000000000000000000000000000000000000000000070007000700000000070005000700000007070000000000000700070700000000070500070000000000070005000700000000070000000000000000000000000000000000
310
00000000000000000000000000000000000000000000000707070707070707070707070707070707070707070707070707070707000000000000000000000000000000000000000000000000000000000000000000000000000000000000000000000000000000000000000000000007000700070707070707070500070707
310
07000700000000000007000700070707070705000707070707070700050707070707000700000000000000000000000000000000000000000000000000000000000000000000000000000000070707070707070707070707070007070707070707070707070700070700000000000000000000000000000000000000000000
310
00000000000000000000000000000000000000000000000000000000000000000000000000070007000707070505050705050705050707070000000000000700070007050505070505070505050505070505070705070707070000000000000000000000000000000000000000000000000000000000000000000000000000
310
00000707070707070707070707070000070707070707070707070707000707000000000000000000000000000000000000000000000000000000000000000000000000000000000000000000000000000000000000000000000007000707070707070707000500070707070707000000000007070007070707070707050007
310
07070707070700050007070707000700000000000000000000000000000000000000000000000000000000000000000000000000000000070707070707070707070707070707070707070707070707070707070700000000000000000000000000000000000000000000000000000000000000000000000000000000000000
310
00000000000000000000000000000000070007000700000000070005000700000007070000000000070700070000000000070500070000000000070005000700000000070000000000000000000000000000000000000000000000000000000000000000000000000000000000000000000000000000000000000000000000
310
00000000000000000007000000000000000000000000000000000000000000000000000000000000000000000000000000000000000000000000000000000000000000000007000707070707070707070707070707070707000000000000070707070707070707070707000000000007070707070707070707000000000000
310
00000000000000000000000000000000000000000000000000000000000000000000000000000000000000000000000000000000000000000000000000000700000000000000000000000000000000000000000000000000000000000000000000000000000000000000000000000000000000000000000000000700000000
310
00000707000000000000000007070700000000000000000000000000000000000000000000000000000000000000070007000000000000000000000700000000050505050500050500000000000000000000000000000000000000000000000000000000000000000000000000000000000000070000000000000000000000
310
00000000000000000000000000000000000000000000000000000000000000000000000000000000000000000000000007000505000000070700000000000000000707070000000000000000000007000000000000000007070000000000000000000007000700000000000000000000070000000005050500050505000000
310
05050000000000000000000000000000000000000000000000000000000000000000000000000000000700000000000000000000000000000000000000000000000000000000000000000000000000000000000000000000000000000000000000000000000705050505050007070700000000000000000707000000000000
310
00000000070707000000000000070700070000000000000000070007070000000000000000070700000000050005050505050000050005050500000000000000000000000000000000000000000000000000000000000000000000000000070000000000000000000000000000000000000000000000000000000000000000
310
00000000000000000000000000000000000000000000000000000007050505050500000007000000000000000007070000000000000000000000000700000000000000000707000000000000000007000707000000000000000007070000000000000000000000000505050505050000000000000000000000000000000000
310
00000000000000000000000000000000000000000700000000000000000000000000000000000000000000000000000000000000000000000000000000000000000000000000000000000000000000000505050505050707070707050707070707070707000000000000000000000000000705070700000000000707050700
310
00000000000007000000000000000000000707070707050707070707070700050505050500000000000000000000000000000000000000000000000000000000000000000000000000070000000000000000000000000000000000000000000000000000000000000000000000000000000000000000000000000000000000
310
00000000000007050505050507050507070705070505070007070000000000000000000707070707070507070707070707050707070707070707070707000000000000000007070007000005000007000000070005050505050000000000000000000000000000000000000000000000000000000000000000050500000007
310
00000000000000000000000000000000000000000000000000000000000000000000000000000000000000000000000000000000000000000000000700050500000707070707070007070707070707000000000000000000070707070705070707070707070700070707070707070707070000000000000000000707070707
310
07050707070707070700000505000000000000000000000000000000000000000000000000000000000000000000050505050500070000000000000000000000000000000000000000000000000000000000000000000000000000000000000000000000000000000000000000000000070000000000070000000005070000
310
00070007070000000000000000000700000007050707000000000000070507000000070000000700000000000000000007070007000005000707070700070000000000000000000000000000000000000000000000000000000000000000000000000005050505050007000000000000000000000000000000000000000000
310
00000000000000000000000000000000000000000000000000000000000000000000000000000700000000000700000000000707070007000707000000000000000000070000000700000007000000000000000007070007000000070700000000000000000707000700000507070707070007000000000000000000000000
310
00000000000000000000000000000000000000000000000000050505050500070000000000000000000000000000000000000000000000000000000000000000000000000000000000000000000000000000000000000000000000070000000000070707070707070707070700000700000000000707070707070707070707
310
07070700000000000000000700070000000700000000000000000000070007000705000700070700070000000000000000000000000000000000000000000000000000000000000000000000000000050505050007000000000000000000000000000000000000000000000000000000000000000000000000000000000000
310
00000000000000000000000000000000000700000000000000070707070700070700000007000000000000000707070007000007070000000700000000000000000707000000070000000000000000000007070707070507070700070007000000000000000000000000000000000000000000000000000000000000000000
310
00000000000000000000070000000000000000000000000000000000000000000000000000000000000000000000000000000000000000000000000000000000000000000000070000000000000000000007070000000000000700000000000000000007070707070707070707070707070707070707070700000007000000
310
00000000000000070707000005000007070700070000000007070707070707070707070707070707070707070707070707070707070707070707070707070007000000000000000000000000000000000000000000000000000000000000000000000000000000000000000000000000000000000000000000000007000000
310
00000000000000000000000000000000000000000000000000000000000000000000070707000000000000000000000000000000000000000707070700000707070507070707070707000000000700000000000000000000000000000000000000000000000000000000000000000000000007000700000000000000000000
310
00000000000000000000000000000000000000000000000000000000000000000000000000000000000000000000000000070000000000000000000000000000000000000000000000000000000000000000000000000000000000000000000000000000000000000000000000070707000000070000000000070707000000
310
00000007070707070707070707070707070707070707070707070707070707070707070707070700070007000000000000000000000000000000000000000000000000000000000000000000000000000000000000000000000000000000000000000000000007000000000000000000000000000000000000000000000000
310
00000000000000000000000000000000000000000000000000000000000000000000000000000000000700000000000707070000000000000700000000000000000000000000000000000000000000000000000000000000000000070007000700000000000000000000000000000000000000000000000000000000000000
310
00000000000000000000000000000000000000000000000000000000070000000000000000000000000000000000000000000000000000000000000000000000000000000000000000000000000000000000000000000000000000000000070007000700070007000000000000070000000000000000000000000000000000
310
00000000000000000000000000000000000700070007000000000000000000000000000000000000000000000000000000000000000000000000000000000000000000000000000000000000000000000007000000000000000000000000000000000000000000000000000000000000000000000000000000000000000000
310
00000000000000000000000000000000000000000707070707070700070000000000000700000000000000000000000000000000000000000000000000000000000000000000070007000700000000000000000000000000000000000000000000000000000000000000000000000000000000000000000000000000000000
310
00000000000000070000000000000000000000000000000000000000000000000000000000000000000000000000000000000000000000000000000000000000000000000000000000000000070000000007000000000000070000000000000000000000000000000000000000000000000000000000000000000007000700
310
07000000000000000000000000000000000000000000000000000000000000000000000000000000000000000000000000000000000000000000000007000000000000000000000000000000000000000000000000000000000000000000000000000000000000000000000000000000000000000000000000000000000000
310
00000000000000000000000000000700000000000000000000000000000000000000000000000000000000000000000000070007000700000000000000000000000000000000000000000000000000000000000000000000000000000000000000000000000000000000000000000000000700070707070707070707070707
310
07070707070707070000070707070707070707070707070707070707070700000007070707070707070707070707070707070707070000000000000000000000000000070000000000000000000000000000000000000000000000000000000000000000000007000700070000000000000000000000000000000000000000
310
00000000000000000000000000000000000000000000000000000000000000000000000000000007000700000000000000000000000000000000000007000007000000000000000000000000000000000000070000000700000000000000000000000000000000000007000000000000000000000000000007000000000000
310
00000000000000000000000000000000000000000000000000000000070007000700000000000000000000000000000000000000000000000000000000000000000000000000000000000000000000000000000000000000000000000700070000000000000000000000000000000000000700000700000000000000000000
310
00000000000000000700000007000000000000000000000000000000000000070000000000000000000000000000070000000000000000000000000000000000000000000000000000000000000000000007000700070000000000000000000000000000000000000000000000000000000000000000000000000000000000
310
00000000000000000000000000000000000007000700000000000000000000000000000000000007000007000000000000000000000000000000000000070000000700000000000000000000000000000000000007000000000000000000000000000007000000000000000000000000000000000000000000000000000000
310
00000000000000070007000700000000000000000000000000000000000000000000000000000000000000000000000000000000000000000000000000000000000000000000000700070000000000000000000000000000000000000700000700000000000000000000000000000000000007000000070000000000000000
310
00000000000000000000070000000000000000000000000000070000000000000000000000000000000000000000000000000000000000000000000007000700070000000000000000000000000000000000000000000000000000000000000000000000000000000000000000000000000000000000000000000000070007
310
00000000000000000000000000000000000007000007000000000000000000000000000000000000070000000700000000000000000000000000000000000007000000000000000000000000000007000000000000000000000000000000000000000000000000000000000000000000000700070007000000000000000000
310
00000000000000000000000000000000000000000000000000000000000000000000000000000000000000000000000000000700070000000000000000000000000000000000000700000700000000000000000000000000000000000007000000070000000000000000000000000000000000000700000000000000000000
310
00000000070000000000000000000000000000000000000000000000000000000000000000000007000700070000000000000000000000000000000000000000000000000000000000000000000000000000000000000000000000000000000000000000000000070007000000000000000000000000000000000000070000
310
07000000000000000000000000000000000000070000000700000000000000000000000000000000000007000000000000000000000000000007000000000000000000000000000000000000000000000000000000000000000000000700070007000000000000000000000000000000000000000000000000000000000000
310
00000000000000000000000000000000000000000000000000000000000700070000000000000000000000000000000000000700000700000000000000000000000000000000000007000000070000000000000000000000000000000000000700000000000000000000000000000700000000000000000000000000000000
310
00000000000000000000000000000000000007000700070000000000000000000000000000000000000000000000000000000000000000000000000000000000000000000000000000000000000000000000070007000000000000000000000000000000000000070000070000000000000000000000000000000000000700
310
00000700000000000000000000000000000000000007000000000000000000000000000007000000000000000000000000000000000000000000000000000000000000000000000700070007000000000000000000000000000000000000000000000000000000000000000000000000000000000000000000000000000000
310
00000000000000000700070000000000000000000000000000000000000700000700000000000000000000000000000000000007000000070000000000000000000000000000000000000700000000000000000000000000000700000000000000000000000000000000000000000000000000000000000000000000070007
310
00070000000000000000000000000000000000000000000000000000000000000000000000000000000000000000000000000000000000000000000000070007000000000000000000000000000000000000070000070000000000000000000000000000000000000700000007000000000000000000000000000000000000
310
07000000000000000000000000000007000000000000000000000000000000000000000000000000000000000000000000000700070007000000000000000000000000000000000000000000000000000000000000000000000000000000000000000000000000000000000000000000000007000700000000000000000000
310
00000000000000000700000700000000000000000000000000000000000007000000070000000000000000000000000000000000000700000000000000000000000005050700000000000000000000000000000000000000000000000000000000000000000000070007000700000000000000000000000000000000000000
310
00000000000000000000000000000000000000000000000000000000000000000000000000000000070507000000000000000000000000000000000000070005070000000000000000000000000000000000000700050007000000000000000000000000000000000000070000000000000000000000000505070000000000
310
00000000000000000000000000000000000000000000000000000000000700070007000000000000000000000000000000000000000000000000000000000000000000000000000000000000000000000000000000000000000000000007050700000000000000000000000000000000000007000507000000000000000000
310
00000000000000000007000500070000000000000000000000000000000000000700000000000000000000000005050700000000000000000000000000000000000000000000000000000000000000000000070007000700000000000000000000000000000000000000000000000000000000000000000000000000000000
310
00000000000000000000000000000000000000070507000000000000000000000000000000000000070005070000000000000000000000000000000000000700050007000000000000000000000000000000000000070000000000000000000000000505070000000000000000000000000000000000000000000000000000
310
00000000000000000700070007000000000000000000000000000000000000000000000000000000000000000000000000000000000000000000000000000000000000000000000007050700000000000000000000000000000000000007000507000000000000000000000000000000000000070005000700000000000000
310
00000000000000000000000700000000000000000000000005050700000000000000000000000000000000000000000000000000000000000000000000070007000700000000000000000000000000000000000000000000000000000000000000000000000000000000000000000000000000000000000000000000000705
310
07000000000000000000000000000000000000070005070000000000000000000000000000000000000700050007000000000000000000000000000000000000070000000000000000000000000505070505050505050505050505050505050505050505050505050505050505050505050507000700070000000000000000
310
00000000000000000000000000000000000000000000000000000000000000000000000000000000000000000000000000000007050700000000000000000000000000000000000007000507000000000000000000000000000000000000070005000700000000000000000000000000000000000007000000000000000000
310
00000005050700000000000000000000000000000000000000000000000000000000000000000000070007000700000000000000000000000000000000000000000000000000000000000000000000000000000000000000000000000000000000000000000000000705070000000000000000000000000000000000000700
310
05070000000000000000000000000000000000000700050007000000000000000000000000000000000000070000000000000000000000000505070000000000000000000000000000000000000000000000000000000000000000000007000700070000000000000000000000000000000000000000000000000000000000
310
00000000000000000000000000000000000000000000000000000000000007050700000000000000000000000000000000000007000507000000000000000000000000000000000000070005000700000000000000000000000000000000000007000000000000000000000000050507000000000000000000000000000000
310
00000000000000000000000000000000000000070007000700000000000000000000000000000000000000000000000000000000000000000000000000000000000000000000000000000000000000000000000705070007070707070707070707070707070707000700050700070707070707070707070707070707070007
310
00050007000707070707070707070707070707070000070000000000000000000000000505070000000000000000000000000000000000000000000000000000000000000000000007000700070000000000000000000000000000000000000000000000000000000000000000000000000000000000000000000000000000
310
00000000000000000007050700070707070707070707070707070707070007000507000707070707070707070707070707070700070005000700070707070707070707070707070707000007000000000000000000000000050507000000000000000000000000000000000000000000000000000000000000000000000700
310
07000700000000000000000000000000000000000000000000000000000000000000000000000000000000000000000000000000000000000000000000000705070007000700000000000000000000000707000700050500070007000000000000000000000007070007000505070007070000000000000000000000070700
310
00070000000000000000000000000505070000000000000000000000000000000000000000000000000000000000000000000007000700070000000000000000000000000000000000000000000000000000000000000000000000000000000000000000000000000000000000000000000000070507000700070000000000
310
00000000000007070007000507000700070000000000000000000000070700070005050700070700000000000000000000000707000007000000000000000000000000050507000000000000000000000000000000000000000000000000000000000000000000000700070007000000000000000000000000000000000000
310
00000000000000000000000000000000000000000000000000000000000000000000000000000000000705070007000700000000000000000000000707000700050700070007000000000000000000000007070007000505070007070000000000000000000000070700000700000000000000000000000005050700000000
310
00000000000000000000000000000000000000000000000000000000000007000700070000000000000000000000000000000000000000000000000000000000000000000000000000000000000000000000000000000000000000000000070507000700070000000000000000000000070700070005070007000700000000
310
00000000000000070700070005050700070700000000000000000000000707000007000000000000000000000000000007000000000000000000000000000000000000000000000000000000000000000000000700070007000000000000000000000000000000000000000000000000000000000000000000000000000000
310
00000000000000000000000000000000000000000705070007000700000000000000000000000707000700050700070007000000000000000000000007070007000000070007070000000000000000000000070700000700000000000000000000000000000700000000000000000000000000000000000000000000000000
310
00000000000000000007000700070000000000000000000000000000000000000000000000000000000000000000000000000000000000000000000000000000000000000000000000070007000700070000000000000000000000070700070000070007000700000000000000000000000707000700000007000707000000
310
00000000000000000707000007000000000000000000000000000007000000000000000000000000000000000000000000000000000000000000000000000700070007000000000000000000000000000000000000000000000000000000000000000000000000000000000000000000000000000000000000000000000007
310
00070007000700000000000000000000000707000700000700070007000000000000000000000007070007000000070007070000000000000000000000070700000700000000000000000000000000000700000000000000000000000000000000000000000000000000000000000000000000070007000700000000000000
310
00000000000000000000000000000000000000000000000000000000000000000000000000000000000000000000000000000000070007000700070000000000000000000000070700070000070007000700000000000000000000000707000700000007000707000000000000000000000007070000070000000000000000
310
00000000000007000000000000000000000000000000000000000000000000000000000000000000000700070007000000000000000000000000000000000000000000000000000000000000000000000000000000000000000000000000000000000000000000000007000700070007000000000000000000000007070007
310
00000700070007000000000000000000000007070007000000070007070000000000000000000000070700000700000000000000000000000000000700000000000000000000000000000000000000000000000000000000000000000000070007000700000000000000000000000000000000000000000000000000000000
310
00000000000000000000000000000000000000000000000000000000000000070007000700070000000000000000000000070700070000070007000700000000000000000000000707000700000007000707000000000000000000000007070000070000000000000000000000000000070000000000000000000000000000
310
00000000000000000000000000000000000000000700070007000000000000000000000000000000000000000000000000000000000000000000000000000000000000000000000000000000000000000000000007000700070007000000000000000000000007070007000007000700070000000000000000000000070700
310
07000000070007070000000000000000000000070700000700000000000000000000000000000700000000000000000000000000000000000000000000000000000000000000000000070007000700000000000000000000000000000000000000000000000000000000000000000000000000000000000000000000000000
310
00000000000000000000070007000700070000000000000000000000070700070000070007000700000000000000000000000707000700000007000707000000000000000000000007070000070000000000000000000000000000070000000000000000000000000000000000000000000000000000000000000000000007
310
00070007000000000000000000000000000000000000000000000000000000000000000000000000000000000000000000000000000000000000000000000007000700070007000000000000000000000007070007000007000700070000000000000000000000070700070000000700070700000000000000000000000707
310
00000700000000000000000000000000000700000000000000000000000000000000000000000000000000000000000000000000070007000700000000000000000000000000000000000000000000000000000000000000000000000000000000000000000000000000000000000000000000000700070007000700000000
310
00000000000000070700070000070007000700000000000000000000000707000700000007000707000000000000000000000007070000070000000000000000000000000000070000000000000000000000000000000000000000000000000000000000000000000007000700070000000000000000000000000000000000
310
00000000000000000000000000000000000000000000000000000000000000000000000000000000000007000700070007000000000000000000000007070007000007000700070000000000000000000000070700070000000700070700000000000000000000000707000007000505000000000000000000000007000000
310
00000000000000000000000000000000000000000000000000000000000000070007000700000000000000000000000000000000000000000000000000000000000000000000000000000000000000000000000000000000000000000000000700070007000707070707070707070707070707000700000700070007070707
310
07070707070707070707000700000007000707070707070707070707070707070000070505050505000000000000000000070000000000000000000000000000000000000000000000000000000000000000000007000700070000000000000000000000000000000000000000000000000000000000000000000000000000
310
00000000000000000000000000000000000000000007000700070707070707070707070707070707070007000007000707070707070707070707070707070700070000000700070707070707070707070707070707000005050505050500000000000000000007000000000000000000000000000000000000000000000000
310
00000000000000000000070007000700000000000000000000000000000000000000000000000000000000000000000000000000000000000000000000000000000000000000000000000700070000000000000000000000000000000000000700000700000000000000000000000000000000000007000000070000000000
310
00000000000000000000000000070505050005000000000000000000070707070707070707070707070707070707070707070707070707070707070707070707000700070000000000000000000000000000000000000000000000000000000000000000000000000000000000000000000000000000000000000000000000
310
07000700000000000000000000000000000000000007000007000000000000000000000000000000000000070000000700000000000000000000000000000000000007050000050500000000000000000007000000000000000000000000000000000000000000000000000000000000000000000000070007000000000000
310
00000000000000000000000000000000000000000000000000000000000000000000000000000000000000000000000000000000000700070707070707070707070707070707070707070700000707070707070707070707070707070707070707000000070707070707070707070707070707070707070700050500000000
310
00000000000000070707070707070707070707070707070707070707070707070707070707070707070707070700070000000000000000000000000000000000000000000000000000000000000000000000000000000000000000000000000000000000000000000000070000000000000000000000000000000000000000
310
00000000000000000000000000000000000000000000000000000000000000000000000000000000000000000000000000000000000000000000000000000000000000000000000000000000000000000000000000000000000000000000000000000007000000000000000000000000000000000000000000000000000000
310
00000000000000000000000000000000000000000000000000000000000000000707070707070707070707070707070707070707070707070707070707070707070707070707070707070707070707070707070707070707070707070707070707070707070707070707070707070707070707070707070707070707070707
310
07070707070707070707070707070707070707070707070707070000000000000000000000000000000000000000000000000000000000000000000000000000000000000000000000000000000000000000000000000000000000000000000000000000000000000000000000000000000000000000000000000000000000
310
000000000000000000000000000000000000000000000000000000000000000000000000000000000000000000000000000000000000000000000000000000000000000000000000000000000000000000000000000000000000000000000000000000000000000000000000
  0
ENDSEC
  0
EOF
