  0
SECTION
  2
HEADER
  9
$ACADVER
  1
AC1018
  9
$ACADMAINTVER
 70
     0
  9
$DWGCODEPAGE
  3
ANSI_1251
  9
$INSBASE
 10
0.0
 20
0.0
 30
0.0
  9
$EXTMIN
 10
559.5884644117976
 20
-805.8439193153342
 30
0.0
  9
$EXTMAX
 10
856.5884644117976
 20
-595.8439193153342
 30
0.0
  9
$LIMMIN
 10
559.5884644117976
 20
-805.8439193153342
  9
$LIMMAX
 10
856.5884644117976
 20
-595.8439193153342
  9
$ORTHOMODE
 70
     0
  9
$REGENMODE
 70
     1
  9
$FILLMODE
 70
     1
  9
$QTEXTMODE
 70
     0
  9
$MIRRTEXT
 70
     0
  9
$LTSCALE
 40
1.0
  9
$ATTMODE
 70
     1
  9
$TEXTSIZE
 40
12.69999980926514
  9
$TRACEWID
 40
1.0
  9
$TEXTSTYLE
  7
STANDARD
  9
$CLAYER
  8
0
  9
$CELTYPE
  6
ByLayer
  9
$CECOLOR
 62
     7
  9
$CELTSCALE
 40
1.0
  9
$DISPSILH
 70
     0
  9
$DIMSCALE
 40
1.0
  9
$DIMASZ
 40
5.0
  9
$DIMEXO
 40
0.0625
  9
$DIMDLI
 40
0.375
  9
$DIMRND
 40
0.01
  9
$DIMDLE
 40
0.0
  9
$DIMEXE
 40
0.125
  9
$DIMTP
 40
0.0
  9
$DIMTM
 40
0.0
  9
$DIMTXT
 40
3.0
  9
$DIMCEN
 40
0.09
  9
$DIMTSZ
 40
0.0
  9
$DIMTOL
 70
     0
  9
$DIMLIM
 70
     0
  9
$DIMTIH
 70
     1
  9
$DIMTOH
 70
     1
  9
$DIMSE1
 70
     0
  9
$DIMSE2
 70
     0
  9
$DIMTAD
 70
     1
  9
$DIMZIN
 70
     3
  9
$DIMBLK
  1

  9
$DIMASO
 70
     1
  9
$DIMSHO
 70
     1
  9
$DIMPOST
  1
mm
  9
$DIMAPOST
  1

  9
$DIMALT
 70
     0
  9
$DIMALTD
 70
     2
  9
$DIMALTF
 40
1.0
  9
$DIMLFAC
 40
1.0
  9
$DIMTOFL
 70
     1
  9
$DIMTVP
 40
0.0
  9
$DIMTIX
 70
     0
  9
$DIMSOXD
 70
     0
  9
$DIMSAH
 70
     0
  9
$DIMBLK1
  1

  9
$DIMBLK2
  1

  9
$DIMSTYLE
  2
Standard
  9
$DIMCLRD
 70
     7
  9
$DIMCLRE
 70
     7
  9
$DIMCLRT
 70
     7
  9
$DIMTFAC
 40
1.0
  9
$DIMGAP
 40
0.0625
  9
$DIMJUST
 70
     0
  9
$DIMSD1
 70
     0
  9
$DIMSD2
 70
     0
  9
$DIMTOLJ
 70
     1
  9
$DIMTZIN
 70
     0
  9
$DIMALTZ
 70
     3
  9
$DIMALTTZ
 70
     0
  9
$DIMUPT
 70
     0
  9
$DIMDEC
 70
     2
  9
$DIMTDEC
 70
     4
  9
$DIMALTU
 70
     2
  9
$DIMALTTD
 70
     2
  9
$DIMTXSTY
  7
_TCW_TXTSTY_1
  9
$DIMAUNIT
 70
     0
  9
$DIMADEC
 70
     2
  9
$DIMALTRND
 40
0.01
  9
$DIMAZIN
 70
     0
  9
$DIMDSEP
 70
    46
  9
$DIMATFIT
 70
     3
  9
$DIMFRAC
 70
     0
  9
$DIMLDRBLK
  1

  9
$DIMLUNIT
 70
     2
  9
$DIMLWD
 70
    -2
  9
$DIMLWE
 70
    -2
  9
$DIMTMOVE
 70
     0
  9
$LUNITS
 70
     2
  9
$LUPREC
 70
     2
  9
$SKETCHINC
 40
1.0
  9
$FILLETRAD
 40
1.0
  9
$AUNITS
 70
     0
  9
$AUPREC
 70
     2
  9
$MENU
  1
.
  9
$ELEVATION
 40
0.0
  9
$PELEVATION
 40
0.0
  9
$THICKNESS
 40
0.0
  9
$LIMCHECK
 70
     0
  9
$CHAMFERA
 40
0.5
  9
$CHAMFERB
 40
0.5
  9
$CHAMFERC
 40
1.0
  9
$CHAMFERD
 40
0.0
  9
$SKPOLY
 70
     0
  9
$TDCREATE
 40
2454518.412178634
  9
$TDUCREATE
 40
2454518.370511968
  9
$TDUPDATE
 40
2454518.412178646
  9
$TDUUPDATE
 40
2454518.370511979
  9
$TDINDWG
 40
0.0
  9
$TDUSRTIMER
 40
0.0
  9
$USRTIMER
 70
     1
  9
$ANGBASE
 50
0.0
  9
$ANGDIR
 70
     0
  9
$PDMODE
 70
     0
  9
$PDSIZE
 40
0.0
  9
$PLINEWID
 40
0.0
  9
$SPLFRAME
 70
     0
  9
$SPLINETYPE
 70
     6
  9
$SPLINESEGS
 70
    20
  9
$HANDSEED
  5
28F
  9
$SURFTAB1
 70
     6
  9
$SURFTAB2
 70
     6
  9
$SURFTYPE
 70
     6
  9
$SURFU
 70
     6
  9
$SURFV
 70
     6
  9
$UCSBASE
  2

  9
$UCSNAME
  2

  9
$UCSORG
 10
0.0
 20
0.0
 30
0.0
  9
$UCSXDIR
 10
1.0
 20
0.0
 30
0.0
  9
$UCSYDIR
 10
0.0
 20
1.0
 30
0.0
  9
$UCSORTHOREF
  2

  9
$UCSORTHOVIEW
 70
     0
  9
$UCSORGTOP
 10
0.0
 20
0.0
 30
0.0
  9
$UCSORGBOTTOM
 10
0.0
 20
0.0
 30
0.0
  9
$UCSORGLEFT
 10
0.0
 20
0.0
 30
0.0
  9
$UCSORGRIGHT
 10
0.0
 20
0.0
 30
0.0
  9
$UCSORGFRONT
 10
0.0
 20
0.0
 30
0.0
  9
$UCSORGBACK
 10
0.0
 20
0.0
 30
0.0
  9
$PUCSBASE
  2

  9
$PUCSNAME
  2

  9
$PUCSORG
 10
0.0
 20
0.0
 30
0.0
  9
$PUCSXDIR
 10
1.0
 20
0.0
 30
0.0
  9
$PUCSYDIR
 10
0.0
 20
1.0
 30
0.0
  9
$PUCSORTHOREF
  2

  9
$PUCSORTHOVIEW
 70
     0
  9
$PUCSORGTOP
 10
0.0
 20
0.0
 30
0.0
  9
$PUCSORGBOTTOM
 10
0.0
 20
0.0
 30
0.0
  9
$PUCSORGLEFT
 10
0.0
 20
0.0
 30
0.0
  9
$PUCSORGRIGHT
 10
0.0
 20
0.0
 30
0.0
  9
$PUCSORGFRONT
 10
0.0
 20
0.0
 30
0.0
  9
$PUCSORGBACK
 10
0.0
 20
0.0
 30
0.0
  9
$USERI1
 70
     0
  9
$USERI2
 70
     0
  9
$USERI3
 70
     0
  9
$USERI4
 70
     0
  9
$USERI5
 70
     0
  9
$USERR1
 40
0.0
  9
$USERR2
 40
0.0
  9
$USERR3
 40
0.0
  9
$USERR4
 40
0.0
  9
$USERR5
 40
0.0
  9
$WORLDVIEW
 70
     1
  9
$SHADEDGE
 70
     3
  9
$SHADEDIF
 70
    70
  9
$TILEMODE
 70
     1
  9
$MAXACTVP
 70
    64
  9
$PINSBASE
 10
0.0
 20
0.0
 30
0.0
  9
$PLIMCHECK
 70
     0
  9
$PEXTMIN
 10
0.0
 20
0.0
 30
0.0
  9
$PEXTMAX
 10
297.0
 20
210.0
 30
0.0
  9
$PLIMMIN
 10
0.0
 20
0.0
  9
$PLIMMAX
 10
297.0
 20
210.0
  9
$UNITMODE
 70
     0
  9
$VISRETAIN
 70
     1
  9
$PLINEGEN
 70
     0
  9
$PSLTSCALE
 70
     1
  9
$TREEDEPTH
 70
  3020
  9
$CMLSTYLE
  2
Standard
  9
$CMLJUST
 70
     0
  9
$CMLSCALE
 40
1.0
  9
$PROXYGRAPHICS
 70
     1
  9
$MEASUREMENT
 70
     0
  9
$CELWEIGHT
370
    -1
  9
$ENDCAPS
280
     0
  9
$JOINSTYLE
280
     0
  9
$LWDISPLAY
290
     0
  9
$INSUNITS
 70
     1
  9
$HYPERLINKBASE
  1

  9
$STYLESHEET
  1

  9
$XEDIT
290
     1
  9
$CEPSNTYPE
380
     0
  9
$PSTYLEMODE
290
     1
  9
$FINGERPRINTGUID
  2
{1F622BB1-8EFF-45B8-A74A-837CC199DFA8}
  9
$VERSIONGUID
  2
{FAEB1C32-E019-11D5-929B-00C0DF256EC4}
  9
$EXTNAMES
290
     1
  9
$PSVPSCALE
 40
0.0
  9
$OLESTARTUP
290
     0
  9
$SORTENTS
280
   127
  9
$INDEXCTL
280
     0
  9
$HIDETEXT
280
     1
  9
$XCLIPFRAME
290
     0
  9
$HALOGAP
280
     0
  9
$OBSCOLOR
 70
   257
  9
$OBSLTYPE
280
     0
  9
$INTERSECTIONDISPLAY
280
     0
  9
$INTERSECTIONCOLOR
 70
   257
  9
$DIMASSOC
280
     2
  9
$PROJECTNAME
  1

  0
ENDSEC
  0
SECTION
  2
CLASSES
  0
CLASS
  1
ACDBDICTIONARYWDFLT
  2
AcDbDictionaryWithDefault
  3
ObjectDBX Classes
 90
        0
 91
        3
280
     0
281
     0
  0
ENDSEC
  0
SECTION
  2
TABLES
  0
TABLE
  2
VPORT
  5
8
330
0
100
AcDbSymbolTable
 70
     1
  0
VPORT
  5
29
330
8
100
AcDbSymbolTableRecord
100
AcDbViewportTableRecord
  2
*Active
 70
     0
 10
0.0
 20
0.0
 11
1.0
 21
1.0
 12
0.0
 22
0.0
 13
0.0
 23
0.0
 14
5.0
 24
5.0
 15
5.0
 25
5.0
 16
0.0
 26
0.0
 36
1.0
 17
708.0884644117978
 27
-704.7650955890936
 37
0.0
 40
196.8600000000001
 41
1.522959183673469
 42
50.0
 43
0.0
 44
0.0
 50
0.0
 51
0.0
 71
     0
 72
   100
 73
     1
 74
     3
 75
     0
 76
     1
 77
     0
 78
     0
281
     0
 65
     1
110
0.0
120
0.0
130
0.0
111
1.0
121
0.0
131
0.0
112
0.0
122
1.0
132
0.0
 79
     0
146
0.0
  0
ENDTAB
  0
TABLE
  2
LTYPE
  5
5
330
0
100
AcDbSymbolTable
 70
    13
  0
LTYPE
  5
14
330
5
100
AcDbSymbolTableRecord
100
AcDbLinetypeTableRecord
  2
ByBlock
 70
     0
  3

 72
    65
 73
     0
 40
0.0
  0
LTYPE
  5
15
330
5
100
AcDbSymbolTableRecord
100
AcDbLinetypeTableRecord
  2
ByLayer
 70
     0
  3

 72
    65
 73
     0
 40
0.0
  0
LTYPE
  5
16
330
5
100
AcDbSymbolTableRecord
100
AcDbLinetypeTableRecord
  2
Continuous
 70
     0
  3
Solid line
 72
    65
 73
     0
 40
0.0
  0
LTYPE
  5
2B
330
5
100
AcDbSymbolTableRecord
100
AcDbLinetypeTableRecord
  2
BORDER
 70
     0
  3
BORDER
 72
    65
 73
     6
 40
1.75
 49
0.5
 74
     0
 49
-0.25
 74
     0
 49
0.5
 74
     0
 49
-0.25
 74
     0
 49
0.0
 74
     0
 49
-0.25
 74
     0
  0
LTYPE
  5
2C
330
5
100
AcDbSymbolTableRecord
100
AcDbLinetypeTableRecord
  2
CENTER
 70
     0
  3
CENTER
 72
    65
 73
     4
 40
2.0
 49
1.25
 74
     0
 49
-0.25
 74
     0
 49
0.25
 74
     0
 49
-0.25
 74
     0
  0
LTYPE
  5
2D
330
5
100
AcDbSymbolTableRecord
100
AcDbLinetypeTableRecord
  2
DASHDOT
 70
     0
  3
DASHDOT
 72
    65
 73
     4
 40
1.0
 49
0.5
 74
     0
 49
-0.25
 74
     0
 49
0.0
 74
     0
 49
-0.25
 74
     0
  0
LTYPE
  5
2E
330
5
100
AcDbSymbolTableRecord
100
AcDbLinetypeTableRecord
  2
DASHED
 70
     0
  3
DASHED
 72
    65
 73
     2
 40
0.75
 49
0.5
 74
     0
 49
-0.25
 74
     0
  0
LTYPE
  5
2F
330
5
100
AcDbSymbolTableRecord
100
AcDbLinetypeTableRecord
  2
DIVIDE
 70
     0
  3
DIVIDE
 72
    65
 73
     6
 40
1.25
 49
0.5
 74
     0
 49
-0.25
 74
     0
 49
0.0
 74
     0
 49
-0.25
 74
     0
 49
0.0
 74
     0
 49
-0.25
 74
     0
  0
LTYPE
  5
30
330
5
100
AcDbSymbolTableRecord
100
AcDbLinetypeTableRecord
  2
DOT
 70
     0
  3
DOT
 72
    65
 73
     2
 40
0.25
 49
0.0
 74
     0
 49
-0.25
 74
     0
  0
LTYPE
  5
31
330
5
100
AcDbSymbolTableRecord
100
AcDbLinetypeTableRecord
  2
HIDDEN
 70
     0
  3
HIDDEN
 72
    65
 73
     2
 40
0.375
 49
0.25
 74
     0
 49
-0.125
 74
     0
  0
LTYPE
  5
32
330
5
100
AcDbSymbolTableRecord
100
AcDbLinetypeTableRecord
  2
PHANTOM
 70
     0
  3
PHANTOM
 72
    65
 73
     6
 40
2.5
 49
1.25
 74
     0
 49
-0.25
 74
     0
 49
0.25
 74
     0
 49
-0.25
 74
     0
 49
0.25
 74
     0
 49
-0.25
 74
     0
  0
LTYPE
  5
33
330
5
100
AcDbSymbolTableRecord
100
AcDbLinetypeTableRecord
  2
$INVISIBLE
 70
     0
  3
$INVISIBLE
 72
    65
 73
     2
 40
200.0
 49
-100.0
 74
     0
 49
-100.0
 74
     0
  0
LTYPE
  5
34
330
5
100
AcDbSymbolTableRecord
100
AcDbLinetypeTableRecord
  2
$AUXILIARY
 70
     0
  3
$AUXILIARY
 72
    65
 73
     2
 40
0.1000000014901161
 49
0.0500000007450581
 74
     0
 49
-0.0500000007450581
 74
     0
  0
LTYPE
  5
35
330
5
100
AcDbSymbolTableRecord
100
AcDbLinetypeTableRecord
  2
$CONSTRUCTION
 70
     0
  3
$CONSTRUCTION
 72
    65
 73
     4
 40
0.3
 49
0.2
 74
     0
 49
-0.05
 74
     0
 49
0.0
 74
     0
 49
-0.05
 74
     0
  0
LTYPE
  5
36
330
5
100
AcDbSymbolTableRecord
100
AcDbLinetypeTableRecord
  2
$SNAPEXT
 70
     0
  3
$SNAPEXT
 72
    65
 73
     2
 40
0.04
 49
0.02
 74
     0
 49
-0.02
 74
     0
  0
ENDTAB
  0
TABLE
  2
LAYER
  5
2
330
0
100
AcDbSymbolTable
 70
     2
  0
LAYER
  5
10
330
2
100
AcDbSymbolTableRecord
100
AcDbLayerTableRecord
  2
0
 70
     0
 62
     7
  6
Continuous
370
     0
390
F
1001
TCAD
1000
TCW_LAYER_ORDER
1002
{
1071
        0
1002
}
  0
LAYER
  5
50
330
2
100
AcDbSymbolTableRecord
100
AcDbLayerTableRecord
  2
Defpoints
 70
     0
 62
     7
  6
Continuous
290
     0
370
    -3
390
F
  0
ENDTAB
  0
TABLE
  2
STYLE
  5
3
330
0
100
AcDbSymbolTable
 70
    40
  0
STYLE
  5
11
330
3
100
AcDbSymbolTableRecord
100
AcDbTextStyleTableRecord
  2
STANDARD
 70
     0
 40
0.0
 41
1.0
 50
0.0
 71
     0
 42
7.619999885559082
  3
txt
  4

1001
ACAD
1000
Times New Roman
1071
      290
  0
STYLE
  5
38
330
3
100
AcDbSymbolTableRecord
100
AcDbTextStyleTableRecord
  2
_TCW_TXTSTY_1
 70
     0
 40
0.0
 41
1.0
 50
0.0
 71
     0
 42
0.6000000238418579
  3
TIMES.TTF
  4

1001
ACAD
1000
Times New Roman
1071
      290
  0
STYLE
  5
5D
330
3
100
AcDbSymbolTableRecord
100
AcDbTextStyleTableRecord
  2
_TCW_TXTSTY_2
 70
     0
 40
0.0
 41
1.0
 50
0.0
 71
     0
 42
0.6000000238418579
  3
TIMES.TTF
  4

1001
ACAD
1000
Times New Roman
1071
      290
  0
STYLE
  5
6E
330
3
100
AcDbSymbolTableRecord
100
AcDbTextStyleTableRecord
  2
_TCW_TXTSTY_3
 70
     0
 40
0.0
 41
1.0
 50
0.0
 71
     0
 42
0.6000000238418579
  3
TIMES.TTF
  4

1001
ACAD
1000
Times New Roman
1071
      290
  0
STYLE
  5
97
330
3
100
AcDbSymbolTableRecord
100
AcDbTextStyleTableRecord
  2
_TCW_TXTSTY_4
 70
     0
 40
0.0
 41
1.0
 50
0.0
 71
     0
 42
0.6000000238418579
  3
TIMES.TTF
  4

1001
ACAD
1000
Times New Roman
1071
      290
  0
STYLE
  5
A5
330
3
100
AcDbSymbolTableRecord
100
AcDbTextStyleTableRecord
  2
_TCW_TXTSTY_5
 70
     0
 40
0.0
 41
1.0
 50
0.0
 71
     0
 42
0.6000000238418579
  3
TIMES.TTF
  4

1001
ACAD
1000
Times New Roman
1071
      290
  0
STYLE
  5
B3
330
3
100
AcDbSymbolTableRecord
100
AcDbTextStyleTableRecord
  2
_TCW_TXTSTY_6
 70
     0
 40
0.0
 41
1.0
 50
0.0
 71
     0
 42
0.6000000238418579
  3
TIMES.TTF
  4

1001
ACAD
1000
Times New Roman
1071
      290
  0
STYLE
  5
C1
330
3
100
AcDbSymbolTableRecord
100
AcDbTextStyleTableRecord
  2
_TCW_TXTSTY_7
 70
     0
 40
0.0
 41
1.0
 50
0.0
 71
     0
 42
0.6000000238418579
  3
TIMES.TTF
  4

1001
ACAD
1000
Times New Roman
1071
      290
  0
STYLE
  5
E4
330
3
100
AcDbSymbolTableRecord
100
AcDbTextStyleTableRecord
  2
_TCW_TXTSTY_8
 70
     0
 40
0.0
 41
1.0
 50
0.0
 71
     0
 42
0.6000000238418579
  3
TIMES.TTF
  4

1001
ACAD
1000
Times New Roman
1071
      290
  0
STYLE
  5
F3
330
3
100
AcDbSymbolTableRecord
100
AcDbTextStyleTableRecord
  2
_TCW_TXTSTY_9
 70
     0
 40
0.0
 41
1.0
 50
0.0
 71
     0
 42
0.6000000238418579
  3
TIMES.TTF
  4

1001
ACAD
1000
Times New Roman
1071
      290
  0
STYLE
  5
102
330
3
100
AcDbSymbolTableRecord
100
AcDbTextStyleTableRecord
  2
_TCW_TXTSTY_A
 70
     0
 40
0.0
 41
1.0
 50
0.0
 71
     0
 42
0.6000000238418579
  3
TIMES.TTF
  4

1001
ACAD
1000
Times New Roman
1071
      290
  0
STYLE
  5
112
330
3
100
AcDbSymbolTableRecord
100
AcDbTextStyleTableRecord
  2
_TCW_TXTSTY_B
 70
     0
 40
0.0
 41
1.0
 50
0.0
 71
     0
 42
0.6000000238418579
  3
TIMES.TTF
  4

1001
ACAD
1000
Times New Roman
1071
      290
  0
STYLE
  5
138
330
3
100
AcDbSymbolTableRecord
100
AcDbTextStyleTableRecord
  2
_TCW_TXTSTY_C
 70
     0
 40
0.0
 41
1.0
 50
0.0
 71
     0
 42
0.6000000238418579
  3
TIMES.TTF
  4

1001
ACAD
1000
Times New Roman
1071
      290
  0
STYLE
  5
147
330
3
100
AcDbSymbolTableRecord
100
AcDbTextStyleTableRecord
  2
_TCW_TXTSTY_D
 70
     0
 40
0.0
 41
1.0
 50
0.0
 71
     0
 42
0.6000000238418579
  3
TIMES.TTF
  4

1001
ACAD
1000
Times New Roman
1071
      290
  0
STYLE
  5
157
330
3
100
AcDbSymbolTableRecord
100
AcDbTextStyleTableRecord
  2
_TCW_TXTSTY_E
 70
     0
 40
0.0
 41
1.0
 50
0.0
 71
     0
 42
0.6000000238418579
  3
TIMES.TTF
  4

1001
ACAD
1000
Times New Roman
1071
      290
  0
STYLE
  5
166
330
3
100
AcDbSymbolTableRecord
100
AcDbTextStyleTableRecord
  2
_TCW_TXTSTY_F
 70
     0
 40
0.0
 41
1.0
 50
0.0
 71
     0
 42
0.6000000238418579
  3
TIMES.TTF
  4

1001
ACAD
1000
Times New Roman
1071
      290
  0
STYLE
  5
177
330
3
100
AcDbSymbolTableRecord
100
AcDbTextStyleTableRecord
  2
_TCW_TXTSTY_10
 70
     0
 40
0.0
 41
1.0
 50
0.0
 71
     0
 42
0.6000000238418579
  3
TIMES.TTF
  4

1001
ACAD
1000
Times New Roman
1071
      290
  0
STYLE
  5
186
330
3
100
AcDbSymbolTableRecord
100
AcDbTextStyleTableRecord
  2
_TCW_TXTSTY_11
 70
     0
 40
0.0
 41
1.0
 50
0.0
 71
     0
 42
0.6000000238418579
  3
TIMES.TTF
  4

1001
ACAD
1000
Times New Roman
1071
      290
  0
STYLE
  5
195
330
3
100
AcDbSymbolTableRecord
100
AcDbTextStyleTableRecord
  2
_TCW_TXTSTY_12
 70
     0
 40
0.0
 41
1.0
 50
0.0
 71
     0
 42
0.6000000238418579
  3
TIMES.TTF
  4

1001
ACAD
1000
Times New Roman
1071
      290
  0
STYLE
  5
1BB
330
3
100
AcDbSymbolTableRecord
100
AcDbTextStyleTableRecord
  2
_TCW_TXTSTY_13
 70
     0
 40
0.0
 41
1.0
 50
0.0
 71
     0
 42
5.012131690979004
  3
TIMES.TTF
  4

1001
ACAD
1000
Times New Roman
1071
      290
  0
STYLE
  5
1BE
330
3
100
AcDbSymbolTableRecord
100
AcDbTextStyleTableRecord
  2
_TCW_TXTSTY_14
 70
     0
 40
0.0
 41
1.0
 50
0.0
 71
     0
 42
5.012131690979004
  3
TIMES.TTF
  4

1001
ACAD
1000
Times New Roman
1071
      290
  0
STYLE
  5
1C1
330
3
100
AcDbSymbolTableRecord
100
AcDbTextStyleTableRecord
  2
_TCW_TXTSTY_15
 70
     0
 40
0.0
 41
1.0
 50
0.0
 71
     0
 42
5.012131690979004
  3
TIMES.TTF
  4

1001
ACAD
1000
Times New Roman
1071
      290
  0
STYLE
  5
1C4
330
3
100
AcDbSymbolTableRecord
100
AcDbTextStyleTableRecord
  2
_TCW_TXTSTY_16
 70
     0
 40
0.0
 41
1.0
 50
0.0
 71
     0
 42
5.012131690979004
  3
TIMES.TTF
  4

1001
ACAD
1000
Times New Roman
1071
      290
  0
STYLE
  5
1DF
330
3
100
AcDbSymbolTableRecord
100
AcDbTextStyleTableRecord
  2
_TCW_TXTSTY_17
 70
     0
 40
0.0
 41
1.0
 50
0.0
 71
     0
 42
5.012131690979004
  3
TIMES.TTF
  4

1001
ACAD
1000
Times New Roman
1071
      290
  0
STYLE
  5
1E2
330
3
100
AcDbSymbolTableRecord
100
AcDbTextStyleTableRecord
  2
_TCW_TXTSTY_18
 70
     0
 40
0.0
 41
1.0
 50
0.0
 71
     0
 42
0.6000000238418579
  3
TIMES.TTF
  4

1001
ACAD
1000
Times New Roman
1071
      290
  0
STYLE
  5
1F2
330
3
100
AcDbSymbolTableRecord
100
AcDbTextStyleTableRecord
  2
_TCW_TXTSTY_19
 70
     0
 40
0.0
 41
1.0
 50
0.0
 71
     0
 42
0.6000000238418579
  3
TIMES.TTF
  4

1001
ACAD
1000
Times New Roman
1071
      290
  0
STYLE
  5
203
330
3
100
AcDbSymbolTableRecord
100
AcDbTextStyleTableRecord
  2
_TCW_TXTSTY_1A
 70
     0
 40
0.0
 41
1.0
 50
0.0
 71
     0
 42
0.6000000238418579
  3
TIMES.TTF
  4

1001
ACAD
1000
Times New Roman
1071
      290
  0
STYLE
  5
209
330
3
100
AcDbSymbolTableRecord
100
AcDbTextStyleTableRecord
  2
_TCW_TXTSTY_1B
 70
     0
 40
0.0
 41
1.0
 50
0.0
 71
     0
 42
5.012131690979004
  3
TIMES.TTF
  4

1001
ACAD
1000
Times New Roman
1071
      290
  0
STYLE
  5
20C
330
3
100
AcDbSymbolTableRecord
100
AcDbTextStyleTableRecord
  2
_TCW_TXTSTY_1C
 70
     0
 40
0.0
 41
1.0
 50
0.0
 71
     0
 42
5.012131690979004
  3
TIMES.TTF
  4

1001
ACAD
1000
Times New Roman
1071
      290
  0
STYLE
  5
20F
330
3
100
AcDbSymbolTableRecord
100
AcDbTextStyleTableRecord
  2
_TCW_TXTSTY_1D
 70
     0
 40
0.0
 41
1.0
 50
0.0
 71
     0
 42
5.012131690979004
  3
TIMES.TTF
  4

1001
ACAD
1000
Times New Roman
1071
      290
  0
STYLE
  5
212
330
3
100
AcDbSymbolTableRecord
100
AcDbTextStyleTableRecord
  2
_TCW_TXTSTY_1E
 70
     0
 40
0.0
 41
1.0
 50
0.0
 71
     0
 42
5.012131690979004
  3
TIMES.TTF
  4

1001
ACAD
1000
Times New Roman
1071
      290
  0
STYLE
  5
215
330
3
100
AcDbSymbolTableRecord
100
AcDbTextStyleTableRecord
  2
_TCW_TXTSTY_1F
 70
     0
 40
0.0
 41
1.0
 50
0.0
 71
     0
 42
2.636518001556396
  3
TIMES.TTF
  4

1001
ACAD
1000
Times New Roman
1071
      290
  0
STYLE
  5
233
330
3
100
AcDbSymbolTableRecord
100
AcDbTextStyleTableRecord
  2
_TCW_TXTSTY_20
 70
     0
 40
0.0
 41
1.0
 50
0.0
 71
     0
 42
0.6000000238418579
  3
TIMES.TTF
  4

1001
ACAD
1000
Times New Roman
1071
      290
  0
STYLE
  5
242
330
3
100
AcDbSymbolTableRecord
100
AcDbTextStyleTableRecord
  2
_TCW_TXTSTY_21
 70
     0
 40
0.0
 41
1.0
 50
0.0
 71
     0
 42
0.6000000238418579
  3
TIMES.TTF
  4

1001
ACAD
1000
Times New Roman
1071
      290
  0
STYLE
  5
252
330
3
100
AcDbSymbolTableRecord
100
AcDbTextStyleTableRecord
  2
_TCW_TXTSTY_22
 70
     0
 40
0.0
 41
1.0
 50
0.0
 71
     0
 42
0.6000000238418579
  3
TIMES.TTF
  4

1001
ACAD
1000
Times New Roman
1071
      290
  0
STYLE
  5
260
330
3
100
AcDbSymbolTableRecord
100
AcDbTextStyleTableRecord
  2
_TCW_TXTSTY_23
 70
     0
 40
0.0
 41
1.0
 50
0.0
 71
     0
 42
0.6000000238418579
  3
TIMES.TTF
  4

1001
ACAD
1000
Times New Roman
1071
      290
  0
STYLE
  5
26E
330
3
100
AcDbSymbolTableRecord
100
AcDbTextStyleTableRecord
  2
_TCW_TXTSTY_24
 70
     0
 40
0.0
 41
1.0
 50
0.0
 71
     0
 42
0.6000000238418579
  3
TIMES.TTF
  4

1001
ACAD
1000
Times New Roman
1071
      290
  0
STYLE
  5
27C
330
3
100
AcDbSymbolTableRecord
100
AcDbTextStyleTableRecord
  2
_TCW_TXTSTY_25
 70
     0
 40
0.0
 41
1.0
 50
0.0
 71
     0
 42
0.6000000238418579
  3
TIMES.TTF
  4

1001
ACAD
1000
Times New Roman
1071
      290
  0
STYLE
  5
28A
330
3
100
AcDbSymbolTableRecord
100
AcDbTextStyleTableRecord
  2
_TCW_TXTSTY_26
 70
     0
 40
0.0
 41
1.0
 50
0.0
 71
     0
 42
5.012131690979004
  3
TIMES.TTF
  4

1001
ACAD
1000
Times New Roman
1071
      290
  0
STYLE
  5
28D
330
3
100
AcDbSymbolTableRecord
100
AcDbTextStyleTableRecord
  2
_TCW_TXTSTY_27
 70
     0
 40
0.0
 41
1.0
 50
0.0
 71
     0
 42
3.522528171539307
  3
TIMES.TTF
  4

1001
ACAD
1000
Times New Roman
1071
      290
  0
ENDTAB
  0
TABLE
  2
VIEW
  5
6
330
0
100
AcDbSymbolTable
 70
     1
  0
VIEW
  5
37
330
6
100
AcDbSymbolTableRecord
100
AcDbViewTableRecord
  2
View_0
 70
     0
 40
210.0
 10
148.5
 20
105.0
 41
297.0
 11
0.0
 21
0.0
 31
1.0
 12
0.0
 22
0.0
 32
0.0
 42
50.0
 43
0.0
 44
0.0
 50
0.0
 71
     0
281
     0
 72
     0
  0
ENDTAB
  0
TABLE
  2
UCS
  5
7
330
0
100
AcDbSymbolTable
 70
     0
  0
ENDTAB
  0
TABLE
  2
APPID
  5
9
330
0
100
AcDbSymbolTable
 70
     2
  0
APPID
  5
12
330
9
100
AcDbSymbolTableRecord
100
AcDbRegAppTableRecord
  2
ACAD
 70
     0
  0
APPID
  5
2A
330
9
100
AcDbSymbolTableRecord
100
AcDbRegAppTableRecord
  2
TCAD
 70
     0
  0
ENDTAB
  0
TABLE
  2
DIMSTYLE
  5
A
330
0
100
AcDbSymbolTable
 70
     1
100
AcDbDimStyleTable
  0
DIMSTYLE
105
27
102
{ACAD_REACTORS
330
4F
330
5E
330
6F
330
98
330
A6
330
B4
330
C2
330
E5
330
F4
330
103
330
113
330
139
330
148
330
158
330
167
330
178
330
187
330
196
330
1E3
330
1F3
330
224
330
234
330
243
330
253
330
261
330
26F
330
27D
102
}
330
A
100
AcDbSymbolTableRecord
100
AcDbDimStyleTableRecord
  2
Standard
 70
     0
  3
mm
 41
5.0
 43
0.375
 44
0.125
 45
0.01
 77
     1
 78
     3
140
3.0
143
1.0
147
0.0625
148
0.01
172
     1
176
     7
177
     7
178
     7
179
     2
271
     2
285
     3
340
38
  0
ENDTAB
  0
TABLE
  2
BLOCK_RECORD
  5
1
330
0
100
AcDbSymbolTable
 70
    28
  0
BLOCK_RECORD
  5
1F
330
1
100
AcDbSymbolTableRecord
100
AcDbBlockTableRecord
  2
*Model_Space
340
22
  0
BLOCK_RECORD
  5
1B
330
1
100
AcDbSymbolTableRecord
100
AcDbBlockTableRecord
  2
*Paper_Space
340
1E
  0
BLOCK_RECORD
  5
51
330
1
100
AcDbSymbolTableRecord
100
AcDbBlockTableRecord
  2
*D1
340
0
  0
BLOCK_RECORD
  5
5F
330
1
100
AcDbSymbolTableRecord
100
AcDbBlockTableRecord
  2
*D2
340
0
  0
BLOCK_RECORD
  5
70
330
1
100
AcDbSymbolTableRecord
100
AcDbBlockTableRecord
  2
*D3
340
0
  0
BLOCK_RECORD
  5
99
330
1
100
AcDbSymbolTableRecord
100
AcDbBlockTableRecord
  2
*D4
340
0
  0
BLOCK_RECORD
  5
A7
330
1
100
AcDbSymbolTableRecord
100
AcDbBlockTableRecord
  2
*D5
340
0
  0
BLOCK_RECORD
  5
B5
330
1
100
AcDbSymbolTableRecord
100
AcDbBlockTableRecord
  2
*D6
340
0
  0
BLOCK_RECORD
  5
C3
330
1
100
AcDbSymbolTableRecord
100
AcDbBlockTableRecord
  2
*D7
340
0
  0
BLOCK_RECORD
  5
E6
330
1
100
AcDbSymbolTableRecord
100
AcDbBlockTableRecord
  2
*D8
340
0
  0
BLOCK_RECORD
  5
F5
330
1
100
AcDbSymbolTableRecord
100
AcDbBlockTableRecord
  2
*D9
340
0
  0
BLOCK_RECORD
  5
104
330
1
100
AcDbSymbolTableRecord
100
AcDbBlockTableRecord
  2
*D10
340
0
  0
BLOCK_RECORD
  5
114
330
1
100
AcDbSymbolTableRecord
100
AcDbBlockTableRecord
  2
*D11
340
0
  0
BLOCK_RECORD
  5
13A
330
1
100
AcDbSymbolTableRecord
100
AcDbBlockTableRecord
  2
*D12
340
0
  0
BLOCK_RECORD
  5
149
330
1
100
AcDbSymbolTableRecord
100
AcDbBlockTableRecord
  2
*D13
340
0
  0
BLOCK_RECORD
  5
159
330
1
100
AcDbSymbolTableRecord
100
AcDbBlockTableRecord
  2
*D14
340
0
  0
BLOCK_RECORD
  5
168
330
1
100
AcDbSymbolTableRecord
100
AcDbBlockTableRecord
  2
*D15
340
0
  0
BLOCK_RECORD
  5
179
330
1
100
AcDbSymbolTableRecord
100
AcDbBlockTableRecord
  2
*D16
340
0
  0
BLOCK_RECORD
  5
188
330
1
100
AcDbSymbolTableRecord
100
AcDbBlockTableRecord
  2
*D17
340
0
  0
BLOCK_RECORD
  5
197
330
1
100
AcDbSymbolTableRecord
100
AcDbBlockTableRecord
  2
*D18
340
0
  0
BLOCK_RECORD
  5
1E4
330
1
100
AcDbSymbolTableRecord
100
AcDbBlockTableRecord
  2
*D19
340
0
  0
BLOCK_RECORD
  5
1F4
330
1
100
AcDbSymbolTableRecord
100
AcDbBlockTableRecord
  2
*D20
340
0
  0
BLOCK_RECORD
  5
225
330
1
100
AcDbSymbolTableRecord
100
AcDbBlockTableRecord
  2
*D21
340
0
  0
BLOCK_RECORD
  5
235
330
1
100
AcDbSymbolTableRecord
100
AcDbBlockTableRecord
  2
*D22
340
0
  0
BLOCK_RECORD
  5
244
330
1
100
AcDbSymbolTableRecord
100
AcDbBlockTableRecord
  2
*D23
340
0
  0
BLOCK_RECORD
  5
254
330
1
100
AcDbSymbolTableRecord
100
AcDbBlockTableRecord
  2
*D24
340
0
  0
BLOCK_RECORD
  5
262
330
1
100
AcDbSymbolTableRecord
100
AcDbBlockTableRecord
  2
*D25
340
0
  0
BLOCK_RECORD
  5
270
330
1
100
AcDbSymbolTableRecord
100
AcDbBlockTableRecord
  2
*D26
340
0
  0
BLOCK_RECORD
  5
27E
330
1
100
AcDbSymbolTableRecord
100
AcDbBlockTableRecord
  2
*D27
340
0
  0
ENDTAB
  0
ENDSEC
  0
SECTION
  2
BLOCKS
  0
BLOCK
  5
20
330
1F
100
AcDbEntity
  8
0
100
AcDbBlockBegin
  2
*Model_Space
 70
     0
 71
     0
 10
0.0
 20
0.0
 30
0.0
  3
*Model_Space
  1

  0
ENDBLK
  5
21
330
1F
100
AcDbEntity
  8
0
100
AcDbBlockEnd
  0
BLOCK
  5
1C
330
1B
100
AcDbEntity
 67
     1
  8
0
100
AcDbBlockBegin
  2
*Paper_Space
 70
     0
 71
     0
 10
0.0
 20
0.0
 30
0.0
  3
*Paper_Space
  1

  0
ENDBLK
  5
1D
330
1B
100
AcDbEntity
 67
     1
  8
0
100
AcDbBlockEnd
  0
BLOCK
  5
5B
330
51
100
AcDbEntity
  8
0
100
AcDbBlockBegin
  2
*D1
 70
     1
 71
     0
 10
0.0
 20
0.0
 30
0.0
  3
*D1
  1

  0
LINE
  5
52
330
51
100
AcDbEntity
  8
0
  6
Continuous
 62
     7
370
    -2
100
AcDbLine
 10
651.8146242503983
 20
-617.1834138040679
 30
0.0
 11
651.8146242503983
 21
-611.4547382864721
 31
0.0
  0
LINE
  5
53
330
51
100
AcDbEntity
  8
0
  6
Continuous
 62
     7
370
    -2
100
AcDbLine
 10
676.8167689976184
 20
-617.1904263975327
 30
0.0
 11
676.8167689976184
 21
-611.4547382864721
 31
0.0
  0
LINE
  5
54
330
51
100
AcDbEntity
  8
0
  6
Continuous
 62
     7
370
    -2
100
AcDbLine
 10
656.8146242503983
 20
-611.5797382864721
 30
0.0
 11
671.8167689976184
 21
-611.5797382864721
 31
0.0
  0
SOLID
  5
55
330
51
100
AcDbEntity
  8
0
 62
     7
100
AcDbTrace
 10
656.8146242503983
 20
-610.7464049531387
 30
0.0
 11
656.8146242503983
 21
-612.4130716198055
 31
0.0
 12
651.8146242503983
 22
-611.5797382864721
 32
0.0
 13
651.8146242503983
 23
-611.5797382864721
 33
0.0
  0
SOLID
  5
56
330
51
100
AcDbEntity
  8
0
 62
     7
100
AcDbTrace
 10
671.8167689976184
 20
-612.4130716198055
 30
0.0
 11
671.8167689976184
 21
-610.7464049531387
 31
0.0
 12
676.8167689976184
 22
-611.5797382864721
 32
0.0
 13
676.8167689976184
 23
-611.5797382864721
 33
0.0
  0
MTEXT
  5
57
330
51
100
AcDbEntity
  8
0
 62
     7
100
AcDbMText
 10
664.3156966240083
 20
-609.9917127609466
 30
0.0
 40
3.0
 41
0.0
 71
     5
 72
     1
  1
\A1;5
  7
_TCW_TXTSTY_1
 73
     1
 44
1.0
  0
POINT
  5
58
330
51
100
AcDbEntity
  8
Defpoints
 62
     0
100
AcDbPoint
 10
651.8146242503983
 20
-617.2459138040679
 30
0.0
  0
POINT
  5
59
330
51
100
AcDbEntity
  8
Defpoints
 62
     0
100
AcDbPoint
 10
676.8167689976184
 20
-617.2529263975327
 30
0.0
  0
POINT
  5
5A
330
51
100
AcDbEntity
  8
Defpoints
 62
     0
100
AcDbPoint
 10
676.8167689976184
 20
-611.5797382864721
 30
0.0
  0
ENDBLK
  5
5C
330
51
100
AcDbEntity
  8
0
100
AcDbBlockEnd
  0
BLOCK
  5
6C
330
5F
100
AcDbEntity
  8
0
100
AcDbBlockBegin
  2
*D2
 70
     1
 71
     0
 10
0.0
 20
0.0
 30
0.0
  3
*D2
  1

  0
LINE
  5
60
330
5F
100
AcDbEntity
  8
0
  6
Continuous
 62
     7
370
    -2
100
AcDbLine
 10
677.7135884089698
 20
-620.7305806480559
 30
0.0
 11
681.7951633116544
 21
-620.7305806480559
 31
0.0
  0
LINE
  5
61
330
5F
100
AcDbEntity
  8
0
  6
Continuous
 62
     7
370
    -2
100
AcDbLine
 10
677.7135884089698
 20
-630.7305806480559
 30
0.0
 11
681.7951633116544
 21
-630.7305806480559
 31
0.0
  0
LINE
  5
62
330
5F
100
AcDbEntity
  8
0
  6
Continuous
 62
     7
370
    -2
100
AcDbLine
 10
681.6701633116544
 20
-620.7305806480559
 30
0.0
 11
681.6701633116544
 21
-624.1680806480559
 31
0.0
  0
LINE
  5
63
330
5F
100
AcDbEntity
  8
0
  6
Continuous
 62
     7
370
    -2
100
AcDbLine
 10
681.6701633116544
 20
-630.7305806480559
 30
0.0
 11
681.6701633116544
 21
-627.2930806480559
 31
0.0
  0
LINE
  5
64
330
5F
100
AcDbEntity
  8
0
  6
Continuous
 62
     7
370
    -2
100
AcDbLine
 10
681.6701633116544
 20
-615.7305806480559
 30
0.0
 11
681.6701633116544
 21
-610.7305806480559
 31
0.0
  0
LINE
  5
65
330
5F
100
AcDbEntity
  8
0
  6
Continuous
 62
     7
370
    -2
100
AcDbLine
 10
681.6701633116544
 20
-635.7305806480559
 30
0.0
 11
681.6701633116544
 21
-640.7305806480559
 31
0.0
  0
SOLID
  5
66
330
5F
100
AcDbEntity
  8
0
 62
     7
100
AcDbTrace
 10
680.836829978321
 20
-615.7305806480559
 30
0.0
 11
682.5034966449878
 21
-615.7305806480559
 31
0.0
 12
681.6701633116544
 22
-620.7305806480559
 32
0.0
 13
681.6701633116544
 23
-620.7305806480559
 33
0.0
  0
SOLID
  5
67
330
5F
100
AcDbEntity
  8
0
 62
     7
100
AcDbTrace
 10
682.5034966449878
 20
-635.7305806480559
 30
0.0
 11
680.836829978321
 21
-635.7305806480559
 31
0.0
 12
681.6701633116544
 22
-630.7305806480559
 32
0.0
 13
681.6701633116544
 23
-630.7305806480559
 33
0.0
  0
MTEXT
  5
68
330
5F
100
AcDbEntity
  8
0
 62
     7
100
AcDbMText
 10
681.6701633116544
 20
-625.7305806480559
 30
0.0
 40
3.0
 41
0.0
 71
     5
 72
     1
  1
\A1;2
  7
_TCW_TXTSTY_2
 73
     1
 44
1.0
  0
POINT
  5
69
330
5F
100
AcDbEntity
  8
Defpoints
 62
     0
100
AcDbPoint
 10
677.6510884089698
 20
-620.7305806480559
 30
0.0
  0
POINT
  5
6A
330
5F
100
AcDbEntity
  8
Defpoints
 62
     0
100
AcDbPoint
 10
677.6510884089698
 20
-630.7305806480559
 30
0.0
  0
POINT
  5
6B
330
5F
100
AcDbEntity
  8
Defpoints
 62
     0
100
AcDbPoint
 10
681.6701633116544
 20
-630.7305806480559
 30
0.0
  0
ENDBLK
  5
6D
330
5F
100
AcDbEntity
  8
0
100
AcDbBlockEnd
  0
BLOCK
  5
7B
330
70
100
AcDbEntity
  8
0
100
AcDbBlockBegin
  2
*D3
 70
     1
 71
     0
 10
0.0
 20
0.0
 30
0.0
  3
*D3
  1

  0
LINE
  5
71
330
70
100
AcDbEntity
  8
0
  6
Continuous
 62
     7
370
    -2
100
AcDbLine
 10
651.505334839741
 20
-618.22401630851
 30
0.0
 11
645.7953875186184
 21
-618.22401630851
 31
0.0
  0
LINE
  5
72
330
70
100
AcDbEntity
  8
0
  6
Continuous
 62
     7
370
    -2
100
AcDbLine
 10
651.5172158649642
 20
-633.2266312546548
 30
0.0
 11
645.7953875186184
 21
-633.2266312546548
 31
0.0
  0
LINE
  5
73
330
70
100
AcDbEntity
  8
0
  6
Continuous
 62
     7
370
    -2
100
AcDbLine
 10
645.9203875186184
 20
-623.22401630851
 30
0.0
 11
645.9203875186184
 21
-624.1372982560569
 31
0.0
  0
LINE
  5
74
330
70
100
AcDbEntity
  8
0
  6
Continuous
 62
     7
370
    -2
100
AcDbLine
 10
645.9203875186184
 20
-628.2266312546548
 30
0.0
 11
645.9203875186184
 21
-627.3133493071078
 31
0.0
  0
SOLID
  5
75
330
70
100
AcDbEntity
  8
0
 62
     7
100
AcDbTrace
 10
646.7537208519518
 20
-623.22401630851
 30
0.0
 11
645.0870541852851
 21
-623.22401630851
 31
0.0
 12
645.9203875186184
 22
-618.22401630851
 32
0.0
 13
645.9203875186184
 23
-618.22401630851
 33
0.0
  0
SOLID
  5
76
330
70
100
AcDbEntity
  8
0
 62
     7
100
AcDbTrace
 10
645.0870541852851
 20
-628.2266312546548
 30
0.0
 11
646.7537208519518
 21
-628.2266312546548
 31
0.0
 12
645.9203875186184
 22
-633.2266312546548
 32
0.0
 13
645.9203875186184
 23
-633.2266312546548
 33
0.0
  0
MTEXT
  5
77
330
70
100
AcDbEntity
  8
0
 62
     7
100
AcDbMText
 10
645.9203875186184
 20
-625.7253237815823
 30
0.0
 40
3.0
 41
0.0
 71
     5
 72
     1
  1
\A1;3
  7
_TCW_TXTSTY_3
 73
     1
 44
1.0
  0
POINT
  5
78
330
70
100
AcDbEntity
  8
Defpoints
 62
     0
100
AcDbPoint
 10
651.567834839741
 20
-618.22401630851
 30
0.0
  0
POINT
  5
79
330
70
100
AcDbEntity
  8
Defpoints
 62
     0
100
AcDbPoint
 10
651.5797158649642
 20
-633.2266312546548
 30
0.0
  0
POINT
  5
7A
330
70
100
AcDbEntity
  8
Defpoints
 62
     0
100
AcDbPoint
 10
645.9203875186184
 20
-633.2266312546548
 30
0.0
  0
ENDBLK
  5
7C
330
70
100
AcDbEntity
  8
0
100
AcDbBlockEnd
  0
BLOCK
  5
A3
330
99
100
AcDbEntity
  8
0
100
AcDbBlockBegin
  2
*D4
 70
     1
 71
     0
 10
0.0
 20
0.0
 30
0.0
  3
*D4
  1

  0
LINE
  5
9A
330
99
100
AcDbEntity
  8
0
  6
Continuous
 62
     7
370
    -2
100
AcDbLine
 10
580.224709171814
 20
-777.4402959133687
 30
0.0
 11
580.224709171814
 21
-791.0016243526485
 31
0.0
  0
LINE
  5
9B
330
99
100
AcDbEntity
  8
0
  6
Continuous
 62
     7
370
    -2
100
AcDbLine
 10
676.2269673195121
 20
-777.440295913404
 30
0.0
 11
676.2269673195121
 21
-791.0016243526485
 31
0.0
  0
LINE
  5
9C
330
99
100
AcDbEntity
  8
0
  6
Continuous
 62
     7
370
    -2
100
AcDbLine
 10
585.224709171814
 20
-790.8766243526485
 30
0.0
 11
671.2269673195121
 21
-790.8766243526485
 31
0.0
  0
SOLID
  5
9D
330
99
100
AcDbEntity
  8
0
 62
     7
100
AcDbTrace
 10
585.224709171814
 20
-790.0432910193151
 30
0.0
 11
585.224709171814
 21
-791.7099576859819
 31
0.0
 12
580.224709171814
 22
-790.8766243526485
 32
0.0
 13
580.224709171814
 23
-790.8766243526485
 33
0.0
  0
SOLID
  5
9E
330
99
100
AcDbEntity
  8
0
 62
     7
100
AcDbTrace
 10
671.2269673195121
 20
-791.7099576859819
 30
0.0
 11
671.2269673195121
 21
-790.0432910193151
 31
0.0
 12
676.2269673195121
 22
-790.8766243526485
 32
0.0
 13
676.2269673195121
 23
-790.8766243526485
 33
0.0
  0
MTEXT
  5
9F
330
99
100
AcDbEntity
  8
0
 62
     7
100
AcDbMText
 10
628.225838245663
 20
-789.2840943226184
 30
0.0
 40
3.0
 41
0.0
 71
     5
 72
     1
  1
\A1;96
  7
_TCW_TXTSTY_4
 73
     1
 44
1.0
  0
POINT
  5
A0
330
99
100
AcDbEntity
  8
Defpoints
 62
     0
100
AcDbPoint
 10
580.224709171814
 20
-777.3777959133687
 30
0.0
  0
POINT
  5
A1
330
99
100
AcDbEntity
  8
Defpoints
 62
     0
100
AcDbPoint
 10
676.2269673195121
 20
-777.377795913404
 30
0.0
  0
POINT
  5
A2
330
99
100
AcDbEntity
  8
Defpoints
 62
     0
100
AcDbPoint
 10
676.2269673195121
 20
-790.8766243526485
 30
0.0
  0
ENDBLK
  5
A4
330
99
100
AcDbEntity
  8
0
100
AcDbBlockEnd
  0
BLOCK
  5
B1
330
A7
100
AcDbEntity
  8
0
100
AcDbBlockBegin
  2
*D5
 70
     1
 71
     0
 10
0.0
 20
0.0
 30
0.0
  3
*D5
  1

  0
LINE
  5
A8
330
A7
100
AcDbEntity
  8
0
  6
Continuous
 62
     7
370
    -2
100
AcDbLine
 10
582.723063151525
 20
-777.3535111717038
 30
0.0
 11
582.723063151525
 21
-785.412036564615
 31
0.0
  0
LINE
  5
A9
330
A7
100
AcDbEntity
  8
0
  6
Continuous
 62
     7
370
    -2
100
AcDbLine
 10
673.7270486152141
 20
-777.353511171522
 30
0.0
 11
673.7270486152141
 21
-785.412036564615
 31
0.0
  0
LINE
  5
AA
330
A7
100
AcDbEntity
  8
0
  6
Continuous
 62
     7
370
    -2
100
AcDbLine
 10
587.723063151525
 20
-785.287036564615
 30
0.0
 11
668.7270486152141
 21
-785.287036564615
 31
0.0
  0
SOLID
  5
AB
330
A7
100
AcDbEntity
  8
0
 62
     7
100
AcDbTrace
 10
587.723063151525
 20
-784.4537032312817
 30
0.0
 11
587.723063151525
 21
-786.1203698979484
 31
0.0
 12
582.723063151525
 22
-785.287036564615
 32
0.0
 13
582.723063151525
 23
-785.287036564615
 33
0.0
  0
SOLID
  5
AC
330
A7
100
AcDbEntity
  8
0
 62
     7
100
AcDbTrace
 10
668.7270486152141
 20
-786.1203698979484
 30
0.0
 11
668.7270486152141
 21
-784.4537032312817
 31
0.0
 12
673.7270486152141
 22
-785.287036564615
 32
0.0
 13
673.7270486152141
 23
-785.287036564615
 33
0.0
  0
MTEXT
  5
AD
330
A7
100
AcDbEntity
  8
0
 62
     7
100
AcDbMText
 10
628.2250558833696
 20
-783.694506534585
 30
0.0
 40
3.0
 41
0.0
 71
     5
 72
     1
  1
\A1;91
  7
_TCW_TXTSTY_5
 73
     1
 44
1.0
  0
POINT
  5
AE
330
A7
100
AcDbEntity
  8
Defpoints
 62
     0
100
AcDbPoint
 10
582.723063151525
 20
-777.2910111717038
 30
0.0
  0
POINT
  5
AF
330
A7
100
AcDbEntity
  8
Defpoints
 62
     0
100
AcDbPoint
 10
673.7270486152141
 20
-777.291011171522
 30
0.0
  0
POINT
  5
B0
330
A7
100
AcDbEntity
  8
Defpoints
 62
     0
100
AcDbPoint
 10
673.7270486152141
 20
-785.287036564615
 30
0.0
  0
ENDBLK
  5
B2
330
A7
100
AcDbEntity
  8
0
100
AcDbBlockEnd
  0
BLOCK
  5
BF
330
B5
100
AcDbEntity
  8
0
100
AcDbBlockBegin
  2
*D6
 70
     1
 71
     0
 10
0.0
 20
0.0
 30
0.0
  3
*D6
  1

  0
LINE
  5
B6
330
B5
100
AcDbEntity
  8
0
  6
Continuous
 62
     7
370
    -2
100
AcDbLine
 10
612.6098658414833
 20
-778.0272958574352
 30
0.0
 11
612.6098658414833
 21
-781.7744371281568
 31
0.0
  0
LINE
  5
B7
330
B5
100
AcDbEntity
  8
0
  6
Continuous
 62
     7
370
    -2
100
AcDbLine
 10
582.7233302794941
 20
-778.0280013181113
 30
0.0
 11
582.7233302794941
 21
-781.7744371281568
 31
0.0
  0
LINE
  5
B8
330
B5
100
AcDbEntity
  8
0
  6
Continuous
 62
     7
370
    -2
100
AcDbLine
 10
607.6098658414833
 20
-781.6494371281568
 30
0.0
 11
587.7233302794941
 21
-781.6494371281568
 31
0.0
  0
SOLID
  5
B9
330
B5
100
AcDbEntity
  8
0
 62
     7
100
AcDbTrace
 10
607.6098658414833
 20
-782.4827704614902
 30
0.0
 11
607.6098658414833
 21
-780.8161037948234
 31
0.0
 12
612.6098658414833
 22
-781.6494371281568
 32
0.0
 13
612.6098658414833
 23
-781.6494371281568
 33
0.0
  0
SOLID
  5
BA
330
B5
100
AcDbEntity
  8
0
 62
     7
100
AcDbTrace
 10
587.7233302794941
 20
-780.8161037948234
 30
0.0
 11
587.7233302794941
 21
-782.4827704614902
 31
0.0
 12
582.7233302794941
 22
-781.6494371281568
 32
0.0
 13
582.7233302794941
 23
-781.6494371281568
 33
0.0
  0
MTEXT
  5
BB
330
B5
100
AcDbEntity
  8
0
 62
     7
100
AcDbMText
 10
597.6665980604887
 20
-780.0614116026313
 30
0.0
 40
3.0
 41
0.0
 71
     5
 72
     1
  1
\A1;30
  7
_TCW_TXTSTY_6
 73
     1
 44
1.0
  0
POINT
  5
BC
330
B5
100
AcDbEntity
  8
Defpoints
 62
     0
100
AcDbPoint
 10
612.6098658414833
 20
-777.9647958574352
 30
0.0
  0
POINT
  5
BD
330
B5
100
AcDbEntity
  8
Defpoints
 62
     0
100
AcDbPoint
 10
582.7233302794941
 20
-777.9655013181113
 30
0.0
  0
POINT
  5
BE
330
B5
100
AcDbEntity
  8
Defpoints
 62
     0
100
AcDbPoint
 10
582.7233302794941
 20
-781.6494371281568
 30
0.0
  0
ENDBLK
  5
C0
330
B5
100
AcDbEntity
  8
0
100
AcDbBlockEnd
  0
BLOCK
  5
CE
330
C3
100
AcDbEntity
  8
0
100
AcDbBlockBegin
  2
*D7
 70
     1
 71
     0
 10
0.0
 20
0.0
 30
0.0
  3
*D7
  1

  0
LINE
  5
C4
330
C3
100
AcDbEntity
  8
0
  6
Continuous
 62
     7
370
    -2
100
AcDbLine
 10
615.5787028418941
 20
-774.9165952362316
 30
0.0
 11
622.7868080439623
 21
-774.6343942396417
 31
0.0
  0
LINE
  5
C5
330
C3
100
AcDbEntity
  8
0
  6
Continuous
 62
     7
370
    -2
100
AcDbLine
 10
614.128932023898
 20
-737.8858947735097
 30
0.0
 11
621.3370372259661
 21
-737.6036937769197
 31
0.0
  0
LINE
  5
C6
330
C3
100
AcDbEntity
  8
0
  6
Continuous
 62
     7
370
    -2
100
AcDbLine
 10
622.4663010292246
 20
-769.6431118139014
 30
0.0
 11
621.9993666858943
 21
-757.716464105871
 31
0.0
  0
LINE
  5
C7
330
C3
100
AcDbEntity
  8
0
  6
Continuous
 62
     7
370
    -2
100
AcDbLine
 10
621.4077356160387
 20
-742.6047563377803
 30
0.0
 11
621.874669959369
 21
-754.5314040458109
 31
0.0
  0
SOLID
  5
C8
330
C3
100
AcDbEntity
  8
0
 62
     7
100
AcDbTrace
 10
621.6336056136745
 20
-769.6757122643023
 30
0.0
 11
623.2989964447747
 21
-769.6105113635006
 31
0.0
 12
622.6619037316298
 22
-774.6392843072018
 32
0.0
 13
622.6619037316298
 23
-774.6392843072018
 33
0.0
  0
SOLID
  5
C9
330
C3
100
AcDbEntity
  8
0
 62
     7
100
AcDbTrace
 10
622.2404310315889
 20
-742.5721558873794
 30
0.0
 11
620.5750402004886
 21
-742.6373567881811
 31
0.0
 12
621.2121329136336
 22
-737.6085838444799
 32
0.0
 13
621.2121329136336
 23
-737.6085838444799
 33
0.0
  0
MTEXT
  5
CA
330
C3
100
AcDbEntity
  8
0
 62
     7
100
AcDbMText
 10
621.9370183226317
 20
-756.1239340758409
 30
0.0
 40
3.0
 41
0.0
 71
     5
 72
     1
  1
\A1;37
  7
_TCW_TXTSTY_7
 73
     1
 44
1.0
  0
POINT
  5
CB
330
C3
100
AcDbEntity
  8
Defpoints
 62
     0
100
AcDbPoint
 10
615.5162506857279
 20
-774.9190402700117
 30
0.0
  0
POINT
  5
CC
330
C3
100
AcDbEntity
  8
Defpoints
 62
     0
100
AcDbPoint
 10
614.0664798677317
 20
-737.8883398072898
 30
0.0
  0
POINT
  5
CD
330
C3
100
AcDbEntity
  8
Defpoints
 62
     0
100
AcDbPoint
 10
621.2121329136336
 20
-737.6085838444799
 30
0.0
  0
ENDBLK
  5
CF
330
C3
100
AcDbEntity
  8
0
100
AcDbBlockEnd
  0
BLOCK
  5
F1
330
E6
100
AcDbEntity
  8
0
100
AcDbBlockBegin
  2
*D8
 70
     1
 71
     0
 10
0.0
 20
0.0
 30
0.0
  3
*D8
  1

  0
LINE
  5
E7
330
E6
100
AcDbEntity
  8
0
  6
Continuous
 62
     7
370
    -2
100
AcDbLine
 10
665.0961816479322
 20
-666.0997182407411
 30
0.0
 11
677.416640358081
 21
-666.0997182407411
 31
0.0
  0
LINE
  5
E8
330
E6
100
AcDbEntity
  8
0
  6
Continuous
 62
     7
370
    -2
100
AcDbLine
 10
665.089370251853
 20
-693.0928611133307
 30
0.0
 11
677.416640358081
 21
-693.0928611133307
 31
0.0
  0
LINE
  5
E9
330
E6
100
AcDbEntity
  8
0
  6
Continuous
 62
     7
370
    -2
100
AcDbLine
 10
677.291640358081
 20
-671.0997182407411
 30
0.0
 11
677.291640358081
 21
-678.0037596470058
 31
0.0
  0
LINE
  5
EA
330
E6
100
AcDbEntity
  8
0
  6
Continuous
 62
     7
370
    -2
100
AcDbLine
 10
677.291640358081
 20
-688.0928611133307
 30
0.0
 11
677.291640358081
 21
-681.1888197070659
 31
0.0
  0
SOLID
  5
EB
330
E6
100
AcDbEntity
  8
0
 62
     7
100
AcDbTrace
 10
678.1249736914144
 20
-671.0997182407411
 30
0.0
 11
676.4583070247477
 21
-671.0997182407411
 31
0.0
 12
677.291640358081
 22
-666.0997182407411
 32
0.0
 13
677.291640358081
 23
-666.0997182407411
 33
0.0
  0
SOLID
  5
EC
330
E6
100
AcDbEntity
  8
0
 62
     7
100
AcDbTrace
 10
676.4583070247477
 20
-688.0928611133307
 30
0.0
 11
678.1249736914144
 21
-688.0928611133307
 31
0.0
 12
677.291640358081
 22
-693.0928611133307
 32
0.0
 13
677.291640358081
 23
-693.0928611133307
 33
0.0
  0
MTEXT
  5
ED
330
E6
100
AcDbEntity
  8
0
 62
     7
100
AcDbMText
 10
677.291640358081
 20
-679.5962896770359
 30
0.0
 40
3.0
 41
0.0
 71
     5
 72
     1
  1
\A1;27
  7
_TCW_TXTSTY_8
 73
     1
 44
1.0
  0
POINT
  5
EE
330
E6
100
AcDbEntity
  8
Defpoints
 62
     0
100
AcDbPoint
 10
665.0336816479322
 20
-666.0997182407411
 30
0.0
  0
POINT
  5
EF
330
E6
100
AcDbEntity
  8
Defpoints
 62
     0
100
AcDbPoint
 10
665.026870251853
 20
-693.0928611133307
 30
0.0
  0
POINT
  5
F0
330
E6
100
AcDbEntity
  8
Defpoints
 62
     0
100
AcDbPoint
 10
677.291640358081
 20
-693.0928611133307
 30
0.0
  0
ENDBLK
  5
F2
330
E6
100
AcDbEntity
  8
0
100
AcDbBlockEnd
  0
BLOCK
  5
100
330
F5
100
AcDbEntity
  8
0
100
AcDbBlockBegin
  2
*D9
 70
     1
 71
     0
 10
0.0
 20
0.0
 30
0.0
  3
*D9
  1

  0
LINE
  5
F6
330
F5
100
AcDbEntity
  8
0
  6
Continuous
 62
     7
370
    -2
100
AcDbLine
 10
665.1345830850776
 20
-668.5964589573567
 30
0.0
 11
670.9566769345992
 21
-668.5964589573567
 31
0.0
  0
LINE
  5
F7
330
F5
100
AcDbEntity
  8
0
  6
Continuous
 62
     7
370
    -2
100
AcDbLine
 10
665.1339010455259
 20
-690.5956642978852
 30
0.0
 11
670.9566769345992
 21
-690.5956642978852
 31
0.0
  0
LINE
  5
F8
330
F5
100
AcDbEntity
  8
0
  6
Continuous
 62
     7
370
    -2
100
AcDbLine
 10
670.8316769345992
 20
-673.5964589573567
 30
0.0
 11
670.8316769345992
 21
-678.0335616276209
 31
0.0
  0
LINE
  5
F9
330
F5
100
AcDbEntity
  8
0
  6
Continuous
 62
     7
370
    -2
100
AcDbLine
 10
670.8316769345992
 20
-685.5956642978852
 30
0.0
 11
670.8316769345992
 21
-681.1585616276209
 31
0.0
  0
SOLID
  5
FA
330
F5
100
AcDbEntity
  8
0
 62
     7
100
AcDbTrace
 10
671.6650102679325
 20
-673.5964589573567
 30
0.0
 11
669.9983436012658
 21
-673.5964589573567
 31
0.0
 12
670.8316769345992
 22
-668.5964589573567
 32
0.0
 13
670.8316769345992
 23
-668.5964589573567
 33
0.0
  0
SOLID
  5
FB
330
F5
100
AcDbEntity
  8
0
 62
     7
100
AcDbTrace
 10
669.9983436012658
 20
-685.5956642978852
 30
0.0
 11
671.6650102679325
 21
-685.5956642978852
 31
0.0
 12
670.8316769345992
 22
-690.5956642978852
 32
0.0
 13
670.8316769345992
 23
-690.5956642978852
 33
0.0
  0
MTEXT
  5
FC
330
F5
100
AcDbEntity
  8
0
 62
     7
100
AcDbMText
 10
670.8316769345992
 20
-679.5960616276209
 30
0.0
 40
3.0
 41
0.0
 71
     5
 72
     1
  1
\A1;22
  7
_TCW_TXTSTY_9
 73
     1
 44
1.0
  0
POINT
  5
FD
330
F5
100
AcDbEntity
  8
Defpoints
 62
     0
100
AcDbPoint
 10
665.0720830850776
 20
-668.5964589573567
 30
0.0
  0
POINT
  5
FE
330
F5
100
AcDbEntity
  8
Defpoints
 62
     0
100
AcDbPoint
 10
665.0714010455259
 20
-690.5956642978852
 30
0.0
  0
POINT
  5
FF
330
F5
100
AcDbEntity
  8
Defpoints
 62
     0
100
AcDbPoint
 10
670.8316769345992
 20
-690.5956642978852
 30
0.0
  0
ENDBLK
  5
101
330
F5
100
AcDbEntity
  8
0
100
AcDbBlockEnd
  0
BLOCK
  5
110
330
104
100
AcDbEntity
  8
0
100
AcDbBlockBegin
  2
*D10
 70
     1
 71
     0
 10
0.0
 20
0.0
 30
0.0
  3
*D10
  1

  0
LINE
  5
105
330
104
100
AcDbEntity
  8
0
  6
Continuous
 62
     7
370
    -2
100
AcDbLine
 10
664.3923064390425
 20
-665.6823243200556
 30
0.0
 11
664.3923064390425
 21
-661.7788529751192
 31
0.0
  0
LINE
  5
106
330
104
100
AcDbEntity
  8
0
  6
Continuous
 62
     7
370
    -2
100
AcDbLine
 10
660.3914929454083
 20
-665.6823243200557
 30
0.0
 11
660.3914929454083
 21
-661.7788529751192
 31
0.0
  0
LINE
  5
107
330
104
100
AcDbEntity
  8
0
  6
Continuous
 62
     7
370
    -2
100
AcDbLine
 10
664.3923064390425
 20
-661.9038529751192
 30
0.0
 11
660.3914929454083
 21
-661.9038529751192
 31
0.0
  0
LINE
  5
108
330
104
100
AcDbEntity
  8
0
  6
Continuous
 62
     7
370
    -2
100
AcDbLine
 10
669.3923064390425
 20
-661.9038529751192
 30
0.0
 11
674.3923064390425
 21
-661.9038529751192
 31
0.0
  0
LINE
  5
109
330
104
100
AcDbEntity
  8
0
  6
Continuous
 62
     7
370
    -2
100
AcDbLine
 10
655.3914929454083
 20
-661.9038529751192
 30
0.0
 11
650.3914929454083
 21
-661.9038529751192
 31
0.0
  0
SOLID
  5
10A
330
104
100
AcDbEntity
  8
0
 62
     7
100
AcDbTrace
 10
669.3923064390425
 20
-661.0705196417858
 30
0.0
 11
669.3923064390425
 21
-662.7371863084526
 31
0.0
 12
664.3923064390425
 22
-661.9038529751192
 32
0.0
 13
664.3923064390425
 23
-661.9038529751192
 33
0.0
  0
SOLID
  5
10B
330
104
100
AcDbEntity
  8
0
 62
     7
100
AcDbTrace
 10
655.3914929454083
 20
-662.7371863084526
 30
0.0
 11
655.3914929454083
 21
-661.0705196417858
 31
0.0
 12
660.3914929454083
 22
-661.9038529751192
 32
0.0
 13
660.3914929454083
 23
-661.9038529751192
 33
0.0
  0
MTEXT
  5
10C
330
104
100
AcDbEntity
  8
0
 62
     7
100
AcDbMText
 10
662.3918996922255
 20
-660.3413529751192
 30
0.0
 40
3.0
 41
0.0
 71
     5
 72
     1
  1
\A1;4
  7
_TCW_TXTSTY_A
 73
     1
 44
1.0
  0
POINT
  5
10D
330
104
100
AcDbEntity
  8
Defpoints
 62
     0
100
AcDbPoint
 10
664.3923064390425
 20
-665.7448243200556
 30
0.0
  0
POINT
  5
10E
330
104
100
AcDbEntity
  8
Defpoints
 62
     0
100
AcDbPoint
 10
660.3914929454083
 20
-665.7448243200557
 30
0.0
  0
POINT
  5
10F
330
104
100
AcDbEntity
  8
Defpoints
 62
     0
100
AcDbPoint
 10
660.3914929454083
 20
-661.9038529751192
 30
0.0
  0
ENDBLK
  5
111
330
104
100
AcDbEntity
  8
0
100
AcDbBlockEnd
  0
BLOCK
  5
121
330
114
100
AcDbEntity
  8
0
100
AcDbBlockBegin
  2
*D11
 70
     1
 71
     0
 10
0.0
 20
0.0
 30
0.0
  3
*D11
  1

  0
LINE
  5
115
330
114
100
AcDbEntity
  8
0
  6
Continuous
 62
     7
370
    -2
100
AcDbLine
 10
675.1144871115844
 20
-776.9191460418549
 30
0.0
 11
678.9549510765584
 21
-776.9191460418549
 31
0.0
  0
LINE
  5
116
330
114
100
AcDbEntity
  8
0
  6
Continuous
 62
     7
370
    -2
100
AcDbLine
 10
675.1149495306468
 20
-772.9195796151256
 30
0.0
 11
678.9549510765584
 21
-772.9195796151256
 31
0.0
  0
LINE
  5
117
330
114
100
AcDbEntity
  8
0
  6
Continuous
 62
     7
370
    -2
100
AcDbLine
 10
678.8299510765584
 20
-776.9191460418549
 30
0.0
 11
678.8299510765584
 21
-776.4818628284902
 31
0.0
  0
LINE
  5
118
330
114
100
AcDbEntity
  8
0
  6
Continuous
 62
     7
370
    -2
100
AcDbLine
 10
678.8299510765584
 20
-772.9195796151256
 30
0.0
 11
678.8299510765584
 21
-773.3568628284902
 31
0.0
  0
LINE
  5
119
330
114
100
AcDbEntity
  8
0
  6
Continuous
 62
     7
370
    -2
100
AcDbLine
 10
678.8299510765584
 20
-781.9191460418549
 30
0.0
 11
678.8299510765584
 21
-786.9191460418549
 31
0.0
  0
LINE
  5
11A
330
114
100
AcDbEntity
  8
0
  6
Continuous
 62
     7
370
    -2
100
AcDbLine
 10
678.8299510765584
 20
-767.9195796151256
 30
0.0
 11
678.8299510765584
 21
-762.9195796151256
 31
0.0
  0
SOLID
  5
11B
330
114
100
AcDbEntity
  8
0
 62
     7
100
AcDbTrace
 10
679.6632844098917
 20
-781.9191460418549
 30
0.0
 11
677.996617743225
 21
-781.9191460418549
 31
0.0
 12
678.8299510765584
 22
-776.9191460418549
 32
0.0
 13
678.8299510765584
 23
-776.9191460418549
 33
0.0
  0
SOLID
  5
11C
330
114
100
AcDbEntity
  8
0
 62
     7
100
AcDbTrace
 10
677.996617743225
 20
-767.9195796151256
 30
0.0
 11
679.6632844098917
 21
-767.9195796151256
 31
0.0
 12
678.8299510765584
 22
-772.9195796151256
 32
0.0
 13
678.8299510765584
 23
-772.9195796151256
 33
0.0
  0
MTEXT
  5
11D
330
114
100
AcDbEntity
  8
0
 62
     7
100
AcDbMText
 10
678.8299510765584
 20
-774.9193628284902
 30
0.0
 40
3.0
 41
0.0
 71
     5
 72
     1
  1
\A1;4
  7
_TCW_TXTSTY_B
 73
     1
 44
1.0
  0
POINT
  5
11E
330
114
100
AcDbEntity
  8
Defpoints
 62
     0
100
AcDbPoint
 10
675.0519871115844
 20
-776.9191460418549
 30
0.0
  0
POINT
  5
11F
330
114
100
AcDbEntity
  8
Defpoints
 62
     0
100
AcDbPoint
 10
675.0524495306468
 20
-772.9195796151256
 30
0.0
  0
POINT
  5
120
330
114
100
AcDbEntity
  8
Defpoints
 62
     0
100
AcDbPoint
 10
678.8299510765584
 20
-772.9195796151256
 30
0.0
  0
ENDBLK
  5
122
330
114
100
AcDbEntity
  8
0
100
AcDbBlockEnd
  0
BLOCK
  5
145
330
13A
100
AcDbEntity
  8
0
100
AcDbBlockBegin
  2
*D12
 70
     1
 71
     0
 10
0.0
 20
0.0
 30
0.0
  3
*D12
  1

  0
LINE
  5
13B
330
13A
100
AcDbEntity
  8
0
  6
Continuous
 62
     7
370
    -2
100
AcDbLine
 10
659.9613374716025
 20
-755.3719269606308
 30
0.0
 11
649.7335925681828
 21
-755.3719269606308
 31
0.0
  0
LINE
  5
13C
330
13A
100
AcDbEntity
  8
0
  6
Continuous
 62
     7
370
    -2
100
AcDbLine
 10
660.5367286925508
 20
-727.3747461442604
 30
0.0
 11
649.7335925681828
 21
-727.3747461442604
 31
0.0
  0
LINE
  5
13D
330
13A
100
AcDbEntity
  8
0
  6
Continuous
 62
     7
370
    -2
100
AcDbLine
 10
649.8585925681828
 20
-750.3719269606308
 30
0.0
 11
649.8585925681828
 21
-742.9613620779711
 31
0.0
  0
LINE
  5
13E
330
13A
100
AcDbEntity
  8
0
  6
Continuous
 62
     7
370
    -2
100
AcDbLine
 10
649.8585925681828
 20
-732.3747461442604
 30
0.0
 11
649.8585925681828
 21
-739.7853110269201
 31
0.0
  0
SOLID
  5
13F
330
13A
100
AcDbEntity
  8
0
 62
     7
100
AcDbTrace
 10
649.0252592348494
 20
-750.3719269606308
 30
0.0
 11
650.6919259015161
 21
-750.3719269606308
 31
0.0
 12
649.8585925681828
 22
-755.3719269606308
 32
0.0
 13
649.8585925681828
 23
-755.3719269606308
 33
0.0
  0
SOLID
  5
140
330
13A
100
AcDbEntity
  8
0
 62
     7
100
AcDbTrace
 10
650.6919259015161
 20
-732.3747461442604
 30
0.0
 11
649.0252592348494
 21
-732.3747461442604
 31
0.0
 12
649.8585925681828
 22
-727.3747461442604
 32
0.0
 13
649.8585925681828
 23
-727.3747461442604
 33
0.0
  0
MTEXT
  5
141
330
13A
100
AcDbEntity
  8
0
 62
     7
100
AcDbMText
 10
649.8585925681828
 20
-741.3733365524456
 30
0.0
 40
3.0
 41
0.0
 71
     5
 72
     1
  1
\A1;28
  7
_TCW_TXTSTY_C
 73
     1
 44
1.0
  0
POINT
  5
142
330
13A
100
AcDbEntity
  8
Defpoints
 62
     0
100
AcDbPoint
 10
660.0238374716025
 20
-755.3719269606308
 30
0.0
  0
POINT
  5
143
330
13A
100
AcDbEntity
  8
Defpoints
 62
     0
100
AcDbPoint
 10
660.5992286925508
 20
-727.3747461442604
 30
0.0
  0
POINT
  5
144
330
13A
100
AcDbEntity
  8
Defpoints
 62
     0
100
AcDbPoint
 10
649.8585925681828
 20
-727.3747461442604
 30
0.0
  0
ENDBLK
  5
146
330
13A
100
AcDbEntity
  8
0
100
AcDbBlockEnd
  0
BLOCK
  5
155
330
149
100
AcDbEntity
  8
0
100
AcDbBlockBegin
  2
*D13
 70
     1
 71
     0
 10
0.0
 20
0.0
 30
0.0
  3
*D13
  1

  0
LINE
  5
14A
330
149
100
AcDbEntity
  8
0
  6
Continuous
 62
     7
370
    -2
100
AcDbLine
 10
661.1921101686621
 20
-755.6320541193345
 30
0.0
 11
661.1921101686621
 21
-757.4731985476686
 31
0.0
  0
LINE
  5
14B
330
149
100
AcDbEntity
  8
0
  6
Continuous
 62
     7
370
    -2
100
AcDbLine
 10
665.2105290623059
 20
-755.5661783997665
 30
0.0
 11
665.2105290623059
 21
-757.4731985476686
 31
0.0
  0
LINE
  5
14C
330
149
100
AcDbEntity
  8
0
  6
Continuous
 62
     7
370
    -2
100
AcDbLine
 10
661.1921101686621
 20
-757.3481985476686
 30
0.0
 11
665.2105290623059
 21
-757.3481985476686
 31
0.0
  0
LINE
  5
14D
330
149
100
AcDbEntity
  8
0
  6
Continuous
 62
     7
370
    -2
100
AcDbLine
 10
656.1921101686621
 20
-757.3481985476686
 30
0.0
 11
651.1921101686621
 21
-757.3481985476686
 31
0.0
  0
LINE
  5
14E
330
149
100
AcDbEntity
  8
0
  6
Continuous
 62
     7
370
    -2
100
AcDbLine
 10
670.2105290623059
 20
-757.3481985476686
 30
0.0
 11
675.2105290623059
 21
-757.3481985476686
 31
0.0
  0
SOLID
  5
14F
330
149
100
AcDbEntity
  8
0
 62
     7
100
AcDbTrace
 10
656.1921101686621
 20
-758.181531881002
 30
0.0
 11
656.1921101686621
 21
-756.5148652143353
 31
0.0
 12
661.1921101686621
 22
-757.3481985476686
 32
0.0
 13
661.1921101686621
 23
-757.3481985476686
 33
0.0
  0
SOLID
  5
150
330
149
100
AcDbEntity
  8
0
 62
     7
100
AcDbTrace
 10
670.2105290623059
 20
-756.5148652143353
 30
0.0
 11
670.2105290623059
 21
-758.181531881002
 31
0.0
 12
665.2105290623059
 22
-757.3481985476686
 32
0.0
 13
665.2105290623059
 23
-757.3481985476686
 33
0.0
  0
MTEXT
  5
151
330
149
100
AcDbEntity
  8
0
 62
     7
100
AcDbMText
 10
663.201319615484
 20
-755.7856985476686
 30
0.0
 40
3.0
 41
0.0
 71
     5
 72
     1
  1
\A1;4
  7
_TCW_TXTSTY_D
 73
     1
 44
1.0
  0
POINT
  5
152
330
149
100
AcDbEntity
  8
Defpoints
 62
     0
100
AcDbPoint
 10
661.1921101686621
 20
-755.5695541193345
 30
0.0
  0
POINT
  5
153
330
149
100
AcDbEntity
  8
Defpoints
 62
     0
100
AcDbPoint
 10
665.2105290623059
 20
-755.5036783997665
 30
0.0
  0
POINT
  5
154
330
149
100
AcDbEntity
  8
Defpoints
 62
     0
100
AcDbPoint
 10
665.2105290623059
 20
-757.3481985476686
 30
0.0
  0
ENDBLK
  5
156
330
149
100
AcDbEntity
  8
0
100
AcDbBlockEnd
  0
BLOCK
  5
164
330
159
100
AcDbEntity
  8
0
100
AcDbBlockBegin
  2
*D14
 70
     1
 71
     0
 10
0.0
 20
0.0
 30
0.0
  3
*D14
  1

  0
LINE
  5
15A
330
159
100
AcDbEntity
  8
0
  6
Continuous
 62
     7
370
    -2
100
AcDbLine
 10
661.1198326446756
 20
-727.3261803030562
 30
0.0
 11
654.5274382611235
 21
-719.1876972946166
 31
0.0
  0
LINE
  5
15B
330
159
100
AcDbEntity
  8
0
  6
Continuous
 62
     7
370
    -2
100
AcDbLine
 10
682.1424216512997
 20
-710.2973067953919
 30
0.0
 11
675.5500272677476
 21
-702.1588237869523
 31
0.0
  0
LINE
  5
15C
330
159
100
AcDbEntity
  8
0
  6
Continuous
 62
     7
370
    -2
100
AcDbLine
 10
658.491384875371
 20
-716.1376559441761
 30
0.0
 11
663.1513921837113
 21
-712.3629222530253
 31
0.0
  0
LINE
  5
15D
330
159
100
AcDbEntity
  8
0
  6
Continuous
 62
     7
370
    -2
100
AcDbLine
 10
671.7434393051328
 20
-705.4031285018144
 30
0.0
 11
667.0834319967925
 21
-709.1778621929652
 31
0.0
  0
SOLID
  5
15E
330
159
100
AcDbEntity
  8
0
 62
     7
100
AcDbTrace
 10
657.9668560365957
 20
-715.4901113961042
 30
0.0
 11
659.0159137141462
 21
-716.785200492248
 31
0.0
 12
654.6061175869398
 22
-719.2848289768274
 32
0.0
 13
654.6061175869398
 23
-719.2848289768274
 33
0.0
  0
SOLID
  5
15F
330
159
100
AcDbEntity
  8
0
 62
     7
100
AcDbTrace
 10
672.2679681439081
 20
-706.0506730498863
 30
0.0
 11
671.2189104663576
 21
-704.7555839537425
 31
0.0
 12
675.628706593564
 22
-702.2559554691632
 32
0.0
 13
675.628706593564
 23
-702.2559554691632
 33
0.0
  0
MTEXT
  5
160
330
159
100
AcDbEntity
  8
0
 62
     7
100
AcDbMText
 10
665.117412090252
 20
-710.7703922229953
 30
0.0
 40
3.0
 41
0.0
 71
     5
 72
     1
  1
\A1;27
  7
_TCW_TXTSTY_E
 73
     1
 44
1.0
  0
POINT
  5
161
330
159
100
AcDbEntity
  8
Defpoints
 62
     0
100
AcDbPoint
 10
661.1591723075837
 20
-727.3747461441616
 30
0.0
  0
POINT
  5
162
330
159
100
AcDbEntity
  8
Defpoints
 62
     0
100
AcDbPoint
 10
682.1817613142078
 20
-710.3458726364973
 30
0.0
  0
POINT
  5
163
330
159
100
AcDbEntity
  8
Defpoints
 62
     0
100
AcDbPoint
 10
675.628706593564
 20
-702.2559554691632
 30
0.0
  0
ENDBLK
  5
165
330
159
100
AcDbEntity
  8
0
100
AcDbBlockEnd
  0
BLOCK
  5
175
330
168
100
AcDbEntity
  8
0
100
AcDbBlockBegin
  2
*D15
 70
     1
 71
     0
 10
0.0
 20
0.0
 30
0.0
  3
*D15
  1

  0
LINE
  5
169
330
168
100
AcDbEntity
  8
0
  6
Continuous
 62
     7
370
    -2
100
AcDbLine
 10
607.0432734029114
 20
-706.7351516340514
 30
0.0
 11
617.0374002511431
 21
-706.7351516340514
 31
0.0
  0
LINE
  5
16A
330
168
100
AcDbEntity
  8
0
  6
Continuous
 62
     7
370
    -2
100
AcDbLine
 10
607.0432734029114
 20
-711.7363561492382
 30
0.0
 11
617.0374002511431
 21
-711.7363561492382
 31
0.0
  0
LINE
  5
16B
330
168
100
AcDbEntity
  8
0
  6
Continuous
 62
     7
370
    -2
100
AcDbLine
 10
616.9124002511431
 20
-706.7351516340514
 30
0.0
 11
616.9124002511431
 21
-707.6477283661193
 31
0.0
  0
LINE
  5
16C
330
168
100
AcDbEntity
  8
0
  6
Continuous
 62
     7
370
    -2
100
AcDbLine
 10
616.9124002511431
 20
-711.7363561492382
 30
0.0
 11
616.9124002511431
 21
-710.8237794171703
 31
0.0
  0
LINE
  5
16D
330
168
100
AcDbEntity
  8
0
  6
Continuous
 62
     7
370
    -2
100
AcDbLine
 10
616.9124002511431
 20
-701.7351516340514
 30
0.0
 11
616.9124002511431
 21
-696.7351516340514
 31
0.0
  0
LINE
  5
16E
330
168
100
AcDbEntity
  8
0
  6
Continuous
 62
     7
370
    -2
100
AcDbLine
 10
616.9124002511431
 20
-716.7363561492382
 30
0.0
 11
616.9124002511431
 21
-721.7363561492382
 31
0.0
  0
SOLID
  5
16F
330
168
100
AcDbEntity
  8
0
 62
     7
100
AcDbTrace
 10
616.0790669178098
 20
-701.7351516340514
 30
0.0
 11
617.7457335844765
 21
-701.7351516340514
 31
0.0
 12
616.9124002511431
 22
-706.7351516340514
 32
0.0
 13
616.9124002511431
 23
-706.7351516340514
 33
0.0
  0
SOLID
  5
170
330
168
100
AcDbEntity
  8
0
 62
     7
100
AcDbTrace
 10
617.7457335844765
 20
-716.7363561492382
 30
0.0
 11
616.0790669178098
 21
-716.7363561492382
 31
0.0
 12
616.9124002511431
 22
-711.7363561492382
 32
0.0
 13
616.9124002511431
 23
-711.7363561492382
 33
0.0
  0
MTEXT
  5
171
330
168
100
AcDbEntity
  8
0
 62
     7
100
AcDbMText
 10
616.9124002511431
 20
-709.2357538916448
 30
0.0
 40
3.0
 41
0.0
 71
     5
 72
     1
  1
\A1;5
  7
_TCW_TXTSTY_F
 73
     1
 44
1.0
  0
POINT
  5
172
330
168
100
AcDbEntity
  8
Defpoints
 62
     0
100
AcDbPoint
 10
606.9807734029114
 20
-706.7351516340514
 30
0.0
  0
POINT
  5
173
330
168
100
AcDbEntity
  8
Defpoints
 62
     0
100
AcDbPoint
 10
606.9807734029114
 20
-711.7363561492382
 30
0.0
  0
POINT
  5
174
330
168
100
AcDbEntity
  8
Defpoints
 62
     0
100
AcDbPoint
 10
616.9124002511431
 20
-711.7363561492382
 30
0.0
  0
ENDBLK
  5
176
330
168
100
AcDbEntity
  8
0
100
AcDbBlockEnd
  0
BLOCK
  5
184
330
179
100
AcDbEntity
  8
0
100
AcDbBlockBegin
  2
*D16
 70
     1
 71
     0
 10
0.0
 20
0.0
 30
0.0
  3
*D16
  1

  0
LINE
  5
17A
330
179
100
AcDbEntity
  8
0
  6
Continuous
 62
     7
370
    -2
100
AcDbLine
 10
607.1886573886904
 20
-711.7363561487435
 30
0.0
 11
619.1006095951055
 21
-711.7363561487435
 31
0.0
  0
LINE
  5
17B
330
179
100
AcDbEntity
  8
0
  6
Continuous
 62
     7
370
    -2
100
AcDbLine
 10
606.865473911355
 20
-646.7399752285255
 30
0.0
 11
619.1006095951055
 21
-646.7399752285255
 31
0.0
  0
LINE
  5
17C
330
179
100
AcDbEntity
  8
0
  6
Continuous
 62
     7
370
    -2
100
AcDbLine
 10
618.9756095951055
 20
-706.7363561487435
 30
0.0
 11
618.9756095951055
 21
-680.8261912141601
 31
0.0
  0
LINE
  5
17D
330
179
100
AcDbEntity
  8
0
  6
Continuous
 62
     7
370
    -2
100
AcDbLine
 10
618.9756095951055
 20
-651.7399752285255
 30
0.0
 11
618.9756095951055
 21
-677.6501401631091
 31
0.0
  0
SOLID
  5
17E
330
179
100
AcDbEntity
  8
0
 62
     7
100
AcDbTrace
 10
618.1422762617722
 20
-706.7363561487435
 30
0.0
 11
619.8089429284389
 21
-706.7363561487435
 31
0.0
 12
618.9756095951055
 22
-711.7363561487435
 32
0.0
 13
618.9756095951055
 23
-711.7363561487435
 33
0.0
  0
SOLID
  5
17F
330
179
100
AcDbEntity
  8
0
 62
     7
100
AcDbTrace
 10
619.8089429284389
 20
-651.7399752285255
 30
0.0
 11
618.1422762617722
 21
-651.7399752285255
 31
0.0
 12
618.9756095951055
 22
-646.7399752285255
 32
0.0
 13
618.9756095951055
 23
-646.7399752285255
 33
0.0
  0
MTEXT
  5
180
330
179
100
AcDbEntity
  8
0
 62
     7
100
AcDbMText
 10
618.9756095951055
 20
-679.2381656886346
 30
0.0
 40
3.0
 41
0.0
 71
     5
 72
     1
  1
\A1;65
  7
_TCW_TXTSTY_10
 73
     1
 44
1.0
  0
POINT
  5
181
330
179
100
AcDbEntity
  8
Defpoints
 62
     0
100
AcDbPoint
 10
607.1261573886904
 20
-711.7363561487435
 30
0.0
  0
POINT
  5
182
330
179
100
AcDbEntity
  8
Defpoints
 62
     0
100
AcDbPoint
 10
606.802973911355
 20
-646.7399752285255
 30
0.0
  0
POINT
  5
183
330
179
100
AcDbEntity
  8
Defpoints
 62
     0
100
AcDbPoint
 10
618.9756095951055
 20
-646.7399752285255
 30
0.0
  0
ENDBLK
  5
185
330
179
100
AcDbEntity
  8
0
100
AcDbBlockEnd
  0
BLOCK
  5
193
330
188
100
AcDbEntity
  8
0
100
AcDbBlockBegin
  2
*D17
 70
     1
 71
     0
 10
0.0
 20
0.0
 30
0.0
  3
*D17
  1

  0
LINE
  5
189
330
188
100
AcDbEntity
  8
0
  6
Continuous
 62
     7
370
    -2
100
AcDbLine
 10
606.2285750311584
 20
-712.8842564762931
 30
0.0
 11
606.2285750311584
 21
-717.2427827839861
 31
0.0
  0
LINE
  5
18A
330
188
100
AcDbEntity
  8
0
  6
Continuous
 62
     7
370
    -2
100
AcDbLine
 10
594.2235259824449
 20
-712.8842564762929
 30
0.0
 11
594.2235259824449
 21
-717.2427827839861
 31
0.0
  0
LINE
  5
18B
330
188
100
AcDbEntity
  8
0
  6
Continuous
 62
     7
370
    -2
100
AcDbLine
 10
601.2285750311584
 20
-717.1177827839861
 30
0.0
 11
599.2235259824449
 21
-717.1177827839861
 31
0.0
  0
LINE
  5
18C
330
188
100
AcDbEntity
  8
0
  6
Continuous
 62
     7
370
    -2
100
AcDbLine
 10
594.2235259824449
 20
-717.1177827839861
 30
0.0
 11
589.2235259824449
 21
-717.1177827839861
 31
0.0
  0
SOLID
  5
18D
330
188
100
AcDbEntity
  8
0
 62
     7
100
AcDbTrace
 10
601.2285750311584
 20
-717.9511161173194
 30
0.0
 11
601.2285750311584
 21
-716.2844494506527
 31
0.0
 12
606.2285750311584
 22
-717.1177827839861
 32
0.0
 13
606.2285750311584
 23
-717.1177827839861
 33
0.0
  0
SOLID
  5
18E
330
188
100
AcDbEntity
  8
0
 62
     7
100
AcDbTrace
 10
599.2235259824449
 20
-716.2844494506527
 30
0.0
 11
599.2235259824449
 21
-717.9511161173194
 31
0.0
 12
594.2235259824449
 22
-717.1177827839861
 32
0.0
 13
594.2235259824449
 23
-717.1177827839861
 33
0.0
  0
MTEXT
  5
18F
330
188
100
AcDbEntity
  8
0
 62
     7
100
AcDbMText
 10
587.29616111758
 20
-715.5552827839861
 30
0.0
 40
3.0
 41
0.0
 71
     5
 72
     1
  1
\A1;12
  7
_TCW_TXTSTY_11
 73
     1
 44
1.0
  0
POINT
  5
190
330
188
100
AcDbEntity
  8
Defpoints
 62
     0
100
AcDbPoint
 10
606.2285750311584
 20
-712.8217564762931
 30
0.0
  0
POINT
  5
191
330
188
100
AcDbEntity
  8
Defpoints
 62
     0
100
AcDbPoint
 10
594.2235259824449
 20
-712.8217564762929
 30
0.0
  0
POINT
  5
192
330
188
100
AcDbEntity
  8
Defpoints
 62
     0
100
AcDbPoint
 10
594.2235259824449
 20
-717.1177827839861
 30
0.0
  0
ENDBLK
  5
194
330
188
100
AcDbEntity
  8
0
100
AcDbBlockEnd
  0
BLOCK
  5
1A3
330
197
100
AcDbEntity
  8
0
100
AcDbBlockBegin
  2
*D18
 70
     1
 71
     0
 10
0.0
 20
0.0
 30
0.0
  3
*D18
  1

  0
LINE
  5
198
330
197
100
AcDbEntity
  8
0
  6
Continuous
 62
     7
370
    -2
100
AcDbLine
 10
593.7608576846587
 20
-646.7139530566715
 30
0.0
 11
583.053880861466
 21
-646.7139530566715
 31
0.0
  0
LINE
  5
199
330
197
100
AcDbEntity
  8
0
  6
Continuous
 62
     7
370
    -2
100
AcDbLine
 10
597.2823387389479
 20
-633.8285337443857
 30
0.0
 11
583.053880861466
 21
-633.8285337443857
 31
0.0
  0
LINE
  5
19A
330
197
100
AcDbEntity
  8
0
  6
Continuous
 62
     7
370
    -2
100
AcDbLine
 10
583.178880861466
 20
-628.8285337443857
 30
0.0
 11
579.5728373179224
 21
-628.8285337443857
 31
0.0
  0
LINE
  5
19B
330
197
100
AcDbEntity
  8
0
  6
Continuous
 62
     7
370
    -2
100
AcDbLine
 10
583.178880861466
 20
-641.7139530566715
 30
0.0
 11
583.178880861466
 21
-638.8285337443857
 31
0.0
  0
LINE
  5
19C
330
197
100
AcDbEntity
  8
0
  6
Continuous
 62
     7
370
    -2
100
AcDbLine
 10
583.178880861466
 20
-633.8285337443857
 30
0.0
 11
583.178880861466
 21
-628.8285337443857
 31
0.0
  0
SOLID
  5
19D
330
197
100
AcDbEntity
  8
0
 62
     7
100
AcDbTrace
 10
582.3455475281327
 20
-641.7139530566715
 30
0.0
 11
584.0122141947994
 21
-641.7139530566715
 31
0.0
 12
583.178880861466
 22
-646.7139530566715
 32
0.0
 13
583.178880861466
 23
-646.7139530566715
 33
0.0
  0
SOLID
  5
19E
330
197
100
AcDbEntity
  8
0
 62
     7
100
AcDbTrace
 10
584.0122141947994
 20
-638.8285337443857
 30
0.0
 11
582.3455475281327
 21
-638.8285337443857
 31
0.0
 12
583.178880861466
 22
-633.8285337443857
 32
0.0
 13
583.178880861466
 23
-633.8285337443857
 33
0.0
  0
MTEXT
  5
19F
330
197
100
AcDbEntity
  8
0
 62
     7
100
AcDbMText
 10
581.3446090896942
 20
-627.2405082188602
 30
0.0
 40
3.0
 41
0.0
 71
     5
 72
     1
  1
\A1;13
  7
_TCW_TXTSTY_12
 73
     1
 44
1.0
  0
POINT
  5
1A0
330
197
100
AcDbEntity
  8
Defpoints
 62
     0
100
AcDbPoint
 10
593.8233576846587
 20
-646.7139530566715
 30
0.0
  0
POINT
  5
1A1
330
197
100
AcDbEntity
  8
Defpoints
 62
     0
100
AcDbPoint
 10
597.3448387389479
 20
-633.8285337443857
 30
0.0
  0
POINT
  5
1A2
330
197
100
AcDbEntity
  8
Defpoints
 62
     0
100
AcDbPoint
 10
583.178880861466
 20
-633.8285337443857
 30
0.0
  0
ENDBLK
  5
1A4
330
197
100
AcDbEntity
  8
0
100
AcDbBlockEnd
  0
BLOCK
  5
1EF
330
1E4
100
AcDbEntity
  8
0
100
AcDbBlockBegin
  2
*D19
 70
     1
 71
     0
 10
0.0
 20
0.0
 30
0.0
  3
*D19
  1

  0
LINE
  5
1E5
330
1E4
100
AcDbEntity
  8
0
  6
Continuous
 62
     7
370
    -2
100
AcDbLine
 10
660.3838712356632
 20
-755.3538912927224
 30
0.0
 11
654.8362706334382
 21
-755.3538912927224
 31
0.0
  0
LINE
  5
1E6
330
1E4
100
AcDbEntity
  8
0
  6
Continuous
 62
     7
370
    -2
100
AcDbLine
 10
660.3838712356632
 20
-740.3538912927224
 30
0.0
 11
654.8362706334382
 21
-740.3538912927224
 31
0.0
  0
LINE
  5
1E7
330
1E4
100
AcDbEntity
  8
0
  6
Continuous
 62
     7
370
    -2
100
AcDbLine
 10
654.9612706334382
 20
-750.3538912927224
 30
0.0
 11
654.9612706334382
 21
-749.4419168182479
 31
0.0
  0
LINE
  5
1E8
330
1E4
100
AcDbEntity
  8
0
  6
Continuous
 62
     7
370
    -2
100
AcDbLine
 10
654.9612706334382
 20
-745.3538912927224
 30
0.0
 11
654.9612706334382
 21
-746.2658657671969
 31
0.0
  0
SOLID
  5
1E9
330
1E4
100
AcDbEntity
  8
0
 62
     7
100
AcDbTrace
 10
654.1279373001048
 20
-750.3538912927224
 30
0.0
 11
655.7946039667715
 21
-750.3538912927224
 31
0.0
 12
654.9612706334382
 22
-755.3538912927224
 32
0.0
 13
654.9612706334382
 23
-755.3538912927224
 33
0.0
  0
SOLID
  5
1EA
330
1E4
100
AcDbEntity
  8
0
 62
     7
100
AcDbTrace
 10
655.7946039667715
 20
-745.3538912927224
 30
0.0
 11
654.1279373001048
 21
-745.3538912927224
 31
0.0
 12
654.9612706334382
 22
-740.3538912927224
 32
0.0
 13
654.9612706334382
 23
-740.3538912927224
 33
0.0
  0
MTEXT
  5
1EB
330
1E4
100
AcDbEntity
  8
0
 62
     7
100
AcDbMText
 10
654.9612706334382
 20
-747.8538912927224
 30
0.0
 40
3.0
 41
0.0
 71
     5
 72
     1
  1
\A1;15
  7
_TCW_TXTSTY_18
 73
     1
 44
1.0
  0
POINT
  5
1EC
330
1E4
100
AcDbEntity
  8
Defpoints
 62
     0
100
AcDbPoint
 10
660.4463712356632
 20
-755.3538912927224
 30
0.0
  0
POINT
  5
1ED
330
1E4
100
AcDbEntity
  8
Defpoints
 62
     0
100
AcDbPoint
 10
660.4463712356632
 20
-740.3538912927224
 30
0.0
  0
POINT
  5
1EE
330
1E4
100
AcDbEntity
  8
Defpoints
 62
     0
100
AcDbPoint
 10
654.9612706334382
 20
-740.3538912927224
 30
0.0
  0
ENDBLK
  5
1F0
330
1E4
100
AcDbEntity
  8
0
100
AcDbBlockEnd
  0
BLOCK
  5
201
330
1F4
100
AcDbEntity
  8
0
100
AcDbBlockBegin
  2
*D20
 70
     1
 71
     0
 10
0.0
 20
0.0
 30
0.0
  3
*D20
  1

  0
LINE
  5
1F5
330
1F4
100
AcDbEntity
  8
0
  6
Continuous
 62
     5
370
    -2
100
AcDbLine
 10
610.7692532704509
 20
-737.8269535046549
 30
0.0
 11
610.6816712988485
 21
-736.1571783733265
 31
0.0
  0
LINE
  5
1F6
330
1F4
100
AcDbEntity
  8
0
  6
Continuous
 62
     5
370
    -2
100
AcDbLine
 10
580.1937359113355
 20
-774.9185036065562
 30
0.0
 11
573.9001477865186
 21
-774.9185036065562
 31
0.0
  0
ARC
  5
1F7
330
1F4
100
AcDbEntity
  8
0
  6
Continuous
 62
     7
370
    -2
100
AcDbCircle
 10
612.7147554082927
 20
-774.9185036065562
 30
0.0
 40
38.68960762177414
100
AcDbArc
 50
100.4121963113141
 51
133.1554632907689
  0
ARC
  5
1F8
330
1F4
100
AcDbEntity
  8
0
  6
Continuous
 62
     7
370
    -2
100
AcDbCircle
 10
612.7147554082927
 20
-774.9185036065562
 30
0.0
 40
38.68960762177414
100
AcDbArc
 50
139.6708950963747
 51
172.590293666074
  0
SOLID
  5
1F9
330
1F4
100
AcDbEntity
  8
0
 62
     7
100
AcDbTrace
 10
605.8197719608785
 20
-737.693626635885
 30
0.0
 11
605.625108589339
 21
-736.0383671548493
 31
0.0
 12
610.6882187182159
 22
-736.2820067807489
 32
0.0
 13
610.6882187182159
 23
-736.2820067807489
 33
0.0
  0
SOLID
  5
1FA
330
1F4
100
AcDbEntity
  8
0
 62
     7
100
AcDbTrace
 10
573.5166401720937
 20
-769.8751055010606
 30
0.0
 11
575.1798237530343
 21
-769.982800226409
 31
0.0
 12
574.0251477865186
 22
-774.9185036065562
 32
0.0
 13
574.0251477865186
 23
-774.9185036065562
 33
0.0
  0
MTEXT
  5
1FB
330
1F4
100
AcDbEntity
  8
0
 62
     7
100
AcDbMText
 10
584.6497269271291
 20
-748.2869449912907
 30
0.0
 40
3.0
 41
0.0
 71
     5
 72
     1
  1
\A1;87.00%%d
  7
_TCW_TXTSTY_19
 73
     1
 44
1.0
  0
POINT
  5
1FC
330
1F4
100
AcDbEntity
  8
Defpoints
 62
     0
100
AcDbPoint
 10
592.2114364157558
 20
-742.1084495344106
 30
0.0
  0
POINT
  5
1FD
330
1F4
100
AcDbEntity
  8
Defpoints
 62
     0
100
AcDbPoint
 10
612.7147558123677
 20
-774.9185113103608
 30
0.0
  0
POINT
  5
1FE
330
1F4
100
AcDbEntity
  8
Defpoints
 62
     0
100
AcDbPoint
 10
580.2562359113355
 20
-774.9185036065562
 30
0.0
  0
POINT
  5
1FF
330
1F4
100
AcDbEntity
  8
Defpoints
 62
     0
100
AcDbPoint
 10
676.2252166070793
 20
-774.9185036065562
 30
0.0
  0
POINT
  5
200
330
1F4
100
AcDbEntity
  8
Defpoints
 62
     0
100
AcDbPoint
 10
610.7725269801346
 20
-737.8893677083661
 30
0.0
  0
ENDBLK
  5
202
330
1F4
100
AcDbEntity
  8
0
100
AcDbBlockEnd
  0
BLOCK
  5
22F
330
225
100
AcDbEntity
  8
0
100
AcDbBlockBegin
  2
*D21
 70
     1
 71
     0
 10
0.0
 20
0.0
 30
0.0
  3
*D21
  1

  0
LINE
  5
226
330
225
100
AcDbEntity
  8
0
  6
Continuous
 62
     7
370
    -2
100
AcDbLine
 10
717.2731629475413
 20
-669.3630734909258
 30
0.0
 11
717.2731629475413
 21
-665.3072315343402
 31
0.0
  0
LINE
  5
227
330
225
100
AcDbEntity
  8
0
  6
Continuous
 62
     7
370
    -2
100
AcDbLine
 10
741.2726804620087
 20
-669.5210335821841
 30
0.0
 11
741.2726804620087
 21
-665.3072315343402
 31
0.0
  0
LINE
  5
228
330
225
100
AcDbEntity
  8
0
  6
Continuous
 62
     7
370
    -2
100
AcDbLine
 10
722.2731629475413
 20
-665.4322315343402
 30
0.0
 11
736.2726804620087
 21
-665.4322315343402
 31
0.0
  0
SOLID
  5
229
330
225
100
AcDbEntity
  8
0
 62
     7
100
AcDbTrace
 10
722.2731629475413
 20
-664.5988982010068
 30
0.0
 11
722.2731629475413
 21
-666.2655648676736
 31
0.0
 12
717.2731629475413
 22
-665.4322315343402
 32
0.0
 13
717.2731629475413
 23
-665.4322315343402
 33
0.0
  0
SOLID
  5
22A
330
225
100
AcDbEntity
  8
0
 62
     7
100
AcDbTrace
 10
736.2726804620087
 20
-666.2655648676736
 30
0.0
 11
736.2726804620087
 21
-664.5988982010068
 31
0.0
 12
741.2726804620087
 22
-665.4322315343402
 32
0.0
 13
741.2726804620087
 23
-665.4322315343402
 33
0.0
  0
MTEXT
  5
22B
330
225
100
AcDbEntity
  8
0
 62
     7
100
AcDbMText
 10
729.272921704775
 20
-663.8697315343402
 30
0.0
 40
3.0
 41
0.0
 71
     5
 72
     1
  1
\A1;12
  7
_TCW_TXTSTY_1F
 73
     1
 44
1.0
  0
POINT
  5
22C
330
225
100
AcDbEntity
  8
Defpoints
 62
     0
100
AcDbPoint
 10
717.2731629475413
 20
-669.4255734909258
 30
0.0
  0
POINT
  5
22D
330
225
100
AcDbEntity
  8
Defpoints
 62
     0
100
AcDbPoint
 10
741.2726804620087
 20
-669.5835335821841
 30
0.0
  0
POINT
  5
22E
330
225
100
AcDbEntity
  8
Defpoints
 62
     0
100
AcDbPoint
 10
741.2726804620087
 20
-665.4322315343402
 30
0.0
  0
ENDBLK
  5
230
330
225
100
AcDbEntity
  8
0
100
AcDbBlockEnd
  0
BLOCK
  5
240
330
235
100
AcDbEntity
  8
0
100
AcDbBlockBegin
  2
*D22
 70
     1
 71
     0
 10
0.0
 20
0.0
 30
0.0
  3
*D22
  1

  0
LINE
  5
236
330
235
100
AcDbEntity
  8
0
  6
Continuous
 62
     7
370
    -2
100
AcDbLine
 10
711.9335565326545
 20
-688.9388935822853
 30
0.0
 11
702.1222813353385
 21
-688.9388935822853
 31
0.0
  0
LINE
  5
237
330
235
100
AcDbEntity
  8
0
  6
Continuous
 62
     7
370
    -2
100
AcDbLine
 10
711.8450142633635
 20
-670.9103056356287
 30
0.0
 11
702.1222813353385
 21
-670.9103056356287
 31
0.0
  0
LINE
  5
238
330
235
100
AcDbEntity
  8
0
  6
Continuous
 62
     7
370
    -2
100
AcDbLine
 10
702.2472813353385
 20
-683.9388935822853
 30
0.0
 11
702.2472813353385
 21
-681.5171296389871
 31
0.0
  0
LINE
  5
239
330
235
100
AcDbEntity
  8
0
  6
Continuous
 62
     7
370
    -2
100
AcDbLine
 10
702.2472813353385
 20
-675.9103056356287
 30
0.0
 11
702.2472813353385
 21
-678.332069578927
 31
0.0
  0
SOLID
  5
23A
330
235
100
AcDbEntity
  8
0
 62
     7
100
AcDbTrace
 10
701.4139480020051
 20
-683.9388935822853
 30
0.0
 11
703.0806146686718
 21
-683.9388935822853
 31
0.0
 12
702.2472813353385
 22
-688.9388935822853
 32
0.0
 13
702.2472813353385
 23
-688.9388935822853
 33
0.0
  0
SOLID
  5
23B
330
235
100
AcDbEntity
  8
0
 62
     7
100
AcDbTrace
 10
703.0806146686718
 20
-675.9103056356287
 30
0.0
 11
701.4139480020051
 21
-675.9103056356287
 31
0.0
 12
702.2472813353385
 22
-670.9103056356287
 32
0.0
 13
702.2472813353385
 23
-670.9103056356287
 33
0.0
  0
MTEXT
  5
23C
330
235
100
AcDbEntity
  8
0
 62
     7
100
AcDbMText
 10
702.2472813353385
 20
-679.924599608957
 30
0.0
 40
3.0
 41
0.0
 71
     5
 72
     1
  1
\A1;9
  7
_TCW_TXTSTY_20
 73
     1
 44
1.0
  0
POINT
  5
23D
330
235
100
AcDbEntity
  8
Defpoints
 62
     0
100
AcDbPoint
 10
711.9960565326545
 20
-688.9388935822853
 30
0.0
  0
POINT
  5
23E
330
235
100
AcDbEntity
  8
Defpoints
 62
     0
100
AcDbPoint
 10
711.9075142633635
 20
-670.9103056356287
 30
0.0
  0
POINT
  5
23F
330
235
100
AcDbEntity
  8
Defpoints
 62
     0
100
AcDbPoint
 10
702.2472813353385
 20
-670.9103056356287
 30
0.0
  0
ENDBLK
  5
241
330
235
100
AcDbEntity
  8
0
100
AcDbBlockEnd
  0
BLOCK
  5
24E
330
244
100
AcDbEntity
  8
0
100
AcDbBlockBegin
  2
*D23
 70
     1
 71
     0
 10
0.0
 20
0.0
 30
0.0
  3
*D23
  1

  0
LINE
  5
245
330
244
100
AcDbEntity
  8
0
  6
Continuous
 62
     7
370
    -2
100
AcDbLine
 10
713.6731455633713
 20
-669.0294484676087
 30
0.0
 11
713.6731455633713
 21
-660.174231777216
 31
0.0
  0
LINE
  5
246
330
244
100
AcDbEntity
  8
0
  6
Continuous
 62
     7
370
    -2
100
AcDbLine
 10
744.2733044986462
 20
-669.3750265586739
 30
0.0
 11
744.2733044986462
 21
-660.174231777216
 31
0.0
  0
LINE
  5
247
330
244
100
AcDbEntity
  8
0
  6
Continuous
 62
     7
370
    -2
100
AcDbLine
 10
718.6731455633713
 20
-660.299231777216
 30
0.0
 11
739.2733044986462
 21
-660.299231777216
 31
0.0
  0
SOLID
  5
248
330
244
100
AcDbEntity
  8
0
 62
     7
100
AcDbTrace
 10
718.6731455633713
 20
-659.4658984438827
 30
0.0
 11
718.6731455633713
 21
-661.1325651105494
 31
0.0
 12
713.6731455633713
 22
-660.299231777216
 32
0.0
 13
713.6731455633713
 23
-660.299231777216
 33
0.0
  0
SOLID
  5
249
330
244
100
AcDbEntity
  8
0
 62
     7
100
AcDbTrace
 10
739.2733044986462
 20
-661.1325651105494
 30
0.0
 11
739.2733044986462
 21
-659.4658984438827
 31
0.0
 12
744.2733044986462
 22
-660.299231777216
 32
0.0
 13
744.2733044986462
 23
-660.299231777216
 33
0.0
  0
MTEXT
  5
24A
330
244
100
AcDbEntity
  8
0
 62
     7
100
AcDbMText
 10
728.9732250310087
 20
-658.2232182637025
 30
0.0
 40
3.0
 41
0.0
 71
     5
 72
     1
  1
\A1;(15,3)
  7
_TCW_TXTSTY_21
 73
     1
 44
1.0
  0
POINT
  5
24B
330
244
100
AcDbEntity
  8
Defpoints
 62
     0
100
AcDbPoint
 10
713.6731455633713
 20
-669.0919484676087
 30
0.0
  0
POINT
  5
24C
330
244
100
AcDbEntity
  8
Defpoints
 62
     0
100
AcDbPoint
 10
744.2733044986462
 20
-669.4375265586739
 30
0.0
  0
POINT
  5
24D
330
244
100
AcDbEntity
  8
Defpoints
 62
     0
100
AcDbPoint
 10
744.2733044986462
 20
-660.299231777216
 30
0.0
  0
ENDBLK
  5
24F
330
244
100
AcDbEntity
  8
0
100
AcDbBlockEnd
  0
BLOCK
  5
25E
330
254
100
AcDbEntity
  8
0
100
AcDbBlockBegin
  2
*D24
 70
     1
 71
     0
 10
0.0
 20
0.0
 30
0.0
  3
*D24
  1

  0
LINE
  5
255
330
254
100
AcDbEntity
  8
0
  6
Continuous
 62
     7
370
    -2
100
AcDbLine
 10
705.9282133674999
 20
-697.3073823835433
 30
0.0
 11
710.5432659200524
 21
-697.3073823835433
 31
0.0
  0
LINE
  5
256
330
254
100
AcDbEntity
  8
0
  6
Continuous
 62
     7
370
    -2
100
AcDbLine
 10
710.5432659200524
 20
-697.3073823835433
 30
0.0
 11
712.6788314730921
 21
-692.7863913673311
 31
0.0
  0
LINE
  5
257
330
254
100
AcDbEntity
  8
0
  6
Continuous
 62
     7
370
    -2
100
AcDbLine
 10
718.6584150216032
 20
-680.1276165219374
 30
0.0
 11
720.7939805746429
 21
-675.6066255057253
 31
0.0
  0
MTEXT
  5
258
330
254
100
AcDbEntity
  8
0
 62
     7
100
AcDbMText
 10
708.2044896437761
 20
-695.7448823835433
 30
0.0
 40
3.0
 41
0.0
 71
     5
 72
     1
  1
\A1;R1
  7
_TCW_TXTSTY_22
 73
     1
 44
1.0
  0
SOLID
  5
259
330
254
100
AcDbEntity
  8
0
 62
     7
100
AcDbTrace
 10
713.4323299757941
 20
-693.1423189595045
 30
0.0
 11
711.9253329703902
 21
-692.4304637751578
 31
0.0
 12
714.8143970261318
 22
-688.2654003511191
 32
0.0
 13
714.8143970261318
 23
-688.2654003511191
 33
0.0
  0
SOLID
  5
25A
330
254
100
AcDbEntity
  8
0
 62
     7
100
AcDbTrace
 10
717.9049165189012
 20
-679.7716889297641
 30
0.0
 11
719.4119135243052
 21
-680.4835441141107
 31
0.0
 12
716.5228494685635
 22
-684.6486075381495
 32
0.0
 13
716.5228494685635
 23
-684.6486075381495
 33
0.0
  0
LINE
  5
25B
330
254
100
AcDbEntity
  8
0
  6
Continuous
 62
     7
370
    -2
100
AcDbLine
 10
716.5228494685635
 20
-684.6486075381495
 30
0.0
 11
714.8143970261318
 21
-688.2654003511191
 31
0.0
  0
POINT
  5
25C
330
254
100
AcDbEntity
  8
Defpoints
 62
     0
100
AcDbPoint
 10
714.8143970261318
 20
-688.2654003511191
 30
0.0
  0
POINT
  5
25D
330
254
100
AcDbEntity
  8
Defpoints
 62
     0
100
AcDbPoint
 10
716.5228494685635
 20
-684.6486075381495
 30
0.0
  0
ENDBLK
  5
25F
330
254
100
AcDbEntity
  8
0
100
AcDbBlockEnd
  0
BLOCK
  5
26C
330
262
100
AcDbEntity
  8
0
100
AcDbBlockBegin
  2
*D25
 70
     1
 71
     0
 10
0.0
 20
0.0
 30
0.0
  3
*D25
  1

  0
LINE
  5
263
330
262
100
AcDbEntity
  8
0
  6
Continuous
 62
     7
370
    -2
100
AcDbLine
 10
754.7056490868383
 20
-691.8087362859337
 30
0.0
 11
746.5170229607122
 21
-691.8087362859337
 31
0.0
  0
LINE
  5
264
330
262
100
AcDbEntity
  8
0
  6
Continuous
 62
     7
370
    -2
100
AcDbLine
 10
746.5170229607122
 20
-691.8087362859337
 30
0.0
 11
744.5001471525086
 21
-687.2335628494088
 31
0.0
  0
LINE
  5
265
330
262
100
AcDbEntity
  8
0
  6
Continuous
 62
     7
370
    -2
100
AcDbLine
 10
738.046144566257
 20
-672.5930078525291
 30
0.0
 11
736.0292687580534
 21
-668.0178344160042
 31
0.0
  0
MTEXT
  5
266
330
262
100
AcDbEntity
  8
0
 62
     7
100
AcDbMText
 10
750.6425860237753
 20
-689.8768669165644
 30
0.0
 40
3.0
 41
0.0
 71
     5
 72
     1
  1
\A1;R1,5
  7
_TCW_TXTSTY_23
 73
     1
 44
1.0
  0
SOLID
  5
267
330
262
100
AcDbEntity
  8
0
 62
     7
100
AcDbTrace
 10
745.2626760585961
 20
-686.8974168813749
 30
0.0
 11
743.7376182464211
 21
-687.5697088174428
 31
0.0
 12
742.483271344305
 22
-682.6583894128839
 32
0.0
 13
742.483271344305
 23
-682.6583894128839
 33
0.0
  0
SOLID
  5
268
330
262
100
AcDbEntity
  8
0
 62
     7
100
AcDbTrace
 10
737.2836156601695
 20
-672.9291538205631
 30
0.0
 11
738.8086734723445
 21
-672.2568618844952
 31
0.0
 12
740.0630203744606
 22
-677.168181289054
 32
0.0
 13
740.0630203744606
 23
-677.168181289054
 33
0.0
  0
LINE
  5
269
330
262
100
AcDbEntity
  8
0
  6
Continuous
 62
     7
370
    -2
100
AcDbLine
 10
740.0630203744606
 20
-677.168181289054
 30
0.0
 11
742.483271344305
 21
-682.6583894128839
 31
0.0
  0
POINT
  5
26A
330
262
100
AcDbEntity
  8
Defpoints
 62
     0
100
AcDbPoint
 10
742.483271344305
 20
-682.6583894128839
 30
0.0
  0
POINT
  5
26B
330
262
100
AcDbEntity
  8
Defpoints
 62
     0
100
AcDbPoint
 10
740.0630203744606
 20
-677.168181289054
 30
0.0
  0
ENDBLK
  5
26D
330
262
100
AcDbEntity
  8
0
100
AcDbBlockEnd
  0
BLOCK
  5
27A
330
270
100
AcDbEntity
  8
0
100
AcDbBlockBegin
  2
*D26
 70
     1
 71
     0
 10
0.0
 20
0.0
 30
0.0
  3
*D26
  1

  0
LINE
  5
271
330
270
100
AcDbEntity
  8
0
  6
Continuous
 62
     7
370
    -2
100
AcDbLine
 10
753.9467206872063
 20
-672.1248009950887
 30
0.0
 11
748.7550915580772
 21
-672.1248009950887
 31
0.0
  0
LINE
  5
272
330
270
100
AcDbEntity
  8
0
  6
Continuous
 62
     7
370
    -2
100
AcDbLine
 10
748.7550915580772
 20
-672.1248009950887
 30
0.0
 11
745.2912278086816
 21
-675.7305807894778
 31
0.0
  0
LINE
  5
273
330
270
100
AcDbEntity
  8
0
  6
Continuous
 62
     7
370
    -2
100
AcDbLine
 10
737.255063910084
 20
-684.0959899124601
 30
0.0
 11
733.7912001606885
 21
-687.7017697068491
 31
0.0
  0
MTEXT
  5
274
330
270
100
AcDbEntity
  8
0
 62
     7
100
AcDbMText
 10
751.3821561226417
 20
-670.1929316257193
 30
0.0
 40
3.0
 41
0.0
 71
     5
 72
     1
  1
\A1;0,8
  7
_TCW_TXTSTY_24
 73
     1
 44
1.0
  0
SOLID
  5
275
330
270
100
AcDbEntity
  8
0
 62
     7
100
AcDbTrace
 10
744.6902645096168
 20
-675.1532701645784
 30
0.0
 11
745.8921911077464
 21
-676.307891414377
 31
0.0
 12
741.8273640592861
 22
-679.3363605838667
 32
0.0
 13
741.8273640592861
 23
-679.3363605838667
 33
0.0
  0
SOLID
  5
276
330
270
100
AcDbEntity
  8
0
 62
     7
100
AcDbTrace
 10
737.8560272091488
 20
-684.6733005373594
 30
0.0
 11
736.6541006110192
 21
-683.5186792875609
 31
0.0
 12
740.7189276594795
 22
-680.4902101180712
 32
0.0
 13
740.7189276594795
 23
-680.4902101180712
 33
0.0
  0
LINE
  5
277
330
270
100
AcDbEntity
  8
0
  6
Continuous
 62
     7
370
    -2
100
AcDbLine
 10
740.7189276594795
 20
-680.4902101180712
 30
0.0
 11
741.8273640592861
 21
-679.3363605838667
 31
0.0
  0
POINT
  5
278
330
270
100
AcDbEntity
  8
Defpoints
 62
     0
100
AcDbPoint
 10
741.8273640592861
 20
-679.3363605838667
 30
0.0
  0
POINT
  5
279
330
270
100
AcDbEntity
  8
Defpoints
 62
     0
100
AcDbPoint
 10
740.7189276594795
 20
-680.4902101180712
 30
0.0
  0
ENDBLK
  5
27B
330
270
100
AcDbEntity
  8
0
100
AcDbBlockEnd
  0
BLOCK
  5
288
330
27E
100
AcDbEntity
  8
0
100
AcDbBlockBegin
  2
*D27
 70
     1
 71
     0
 10
0.0
 20
0.0
 30
0.0
  3
*D27
  1

  0
LINE
  5
27F
330
27E
100
AcDbEntity
  8
0
  6
Continuous
 62
     7
370
    -2
100
AcDbLine
 10
734.539139209968
 20
-670.6304126722325
 30
0.0
 11
727.2123749457037
 21
-670.6304126722325
 31
0.0
  0
LINE
  5
280
330
27E
100
AcDbEntity
  8
0
  6
Continuous
 62
     7
370
    -2
100
AcDbLine
 10
727.2123749457037
 20
-670.6304126722325
 30
0.0
 11
723.5582466051445
 21
-674.0432335100033
 31
0.0
  0
LINE
  5
281
330
27E
100
AcDbEntity
  8
0
  6
Continuous
 62
     7
370
    -2
100
AcDbLine
 10
710.9880451136211
 20
-685.7833371919347
 30
0.0
 11
707.3339167730619
 21
-689.1961580297055
 31
0.0
  0
MTEXT
  5
282
330
27E
100
AcDbEntity
  8
0
 62
     7
100
AcDbMText
 10
730.9070070778358
 20
-668.6595042638241
 30
0.0
 40
3.0
 41
0.0
 71
     5
 72
     1
  1
\A1;3,6*
  7
_TCW_TXTSTY_25
 73
     1
 44
1.0
  0
SOLID
  5
283
330
27E
100
AcDbEntity
  8
0
 62
     7
100
AcDbTrace
 10
722.9894431321827
 20
-673.4342121199101
 30
0.0
 11
724.1270500781063
 21
-674.6522549000964
 31
0.0
 12
719.9041182645853
 22
-677.456054347774
 32
0.0
 13
719.9041182645853
 23
-677.456054347774
 33
0.0
  0
SOLID
  5
284
330
27E
100
AcDbEntity
  8
0
 62
     7
100
AcDbTrace
 10
711.5568485865829
 20
-686.3923585820279
 30
0.0
 11
710.4192416406593
 21
-685.1743158018415
 31
0.0
 12
714.6421734541802
 22
-682.3705163541639
 32
0.0
 13
714.6421734541802
 23
-682.3705163541639
 33
0.0
  0
LINE
  5
285
330
27E
100
AcDbEntity
  8
0
  6
Continuous
 62
     7
370
    -2
100
AcDbLine
 10
714.6421734541802
 20
-682.3705163541639
 30
0.0
 11
719.9041182645853
 21
-677.456054347774
 31
0.0
  0
POINT
  5
286
330
27E
100
AcDbEntity
  8
Defpoints
 62
     0
100
AcDbPoint
 10
719.9041182645853
 20
-677.456054347774
 30
0.0
  0
POINT
  5
287
330
27E
100
AcDbEntity
  8
Defpoints
 62
     0
100
AcDbPoint
 10
714.6421734541802
 20
-682.3705163541639
 30
0.0
  0
ENDBLK
  5
289
330
27E
100
AcDbEntity
  8
0
100
AcDbBlockEnd
  0
ENDSEC
  0
SECTION
  2
ENTITIES
  0
LWPOLYLINE
  5
39
330
1F
100
AcDbEntity
  8
0
  6
Continuous
 62
     7
370
     0
100
AcDbPolyline
 90
        4
 70
   129
 43
0.0
 10
568.0884644117976
 20
-604.3439193153341
 10
848.0884644117976
 20
-604.3439193153341
 10
848.0884644117976
 20
-797.3439193153342
 10
568.0884644117976
 20
-797.3439193153342
1001
TCAD
1000
TCW_CUSTOM_DATA
1002
{
1000
#$AUX@_ToolInfo Properties
1070
     8
1000
CMD_RECTANGLE@
1002
}
  0
MTEXT
  5
3A
330
1F
100
AcDbEntity
  8
0
  6
Continuous
 62
     7
100
AcDbMText
 10
785.1224686238965
 20
-760.294147543354
 30
0.0
 40
3.522528076171875
 41
60.20518770813942
 71
     1
 72
     1
  1
{SPRINGER    OSZTБLYЪ \PTOLУHAJУ R/C Modellje\PM1:1\PSRY MODELL 2008\Pfile.: walrus10.tcw\PA/4 -ben nyomtathatу}
  7
_TCW_TXTSTY_1
 73
     1
 44
1.0
1001
TCAD
1000
TCW40_TEXT
1002
{
1000
Times New Roman
1070
     0
1070
   257
1002
}
1000
TCW_CUSTOM_DATA
1002
{
1000
#$AUX@_ToolInfo Properties
1070
     8
1000
CMD_TEXT@
1002
}
  0
LWPOLYLINE
  5
3B
330
1F
100
AcDbEntity
  8
0
  6
Continuous
 62
     7
370
     0
100
AcDbPolyline
 90
        4
 70
   129
 43
0.0
 10
783.3251878546281
 20
-758.1042788980687
 10
845.8483256159826
 20
-758.1042788980687
 10
845.8483256159826
 20
-794.7644319629593
 10
783.3251878546281
 20
-794.7644319629593
1001
TCAD
1000
TCW_CUSTOM_DATA
1002
{
1000
#$AUX@_ToolInfo Properties
1070
     8
1000
CMD_RECTANGLE@
1002
}
  0
LINE
  5
3C
330
1F
100
AcDbEntity
  8
0
  6
Continuous
 62
     7
370
     0
100
AcDbLine
 10
785.3339633650331
 20
-764.7583477762852
 30
0.0
 11
843.8395501055776
 21
-764.7583477762852
 31
0.0
1001
TCAD
1000
TCW_CUSTOM_DATA
1002
{
1000
#$AUX@_ToolInfo Properties
1070
     8
1000
CMD_LINE@
1002
}
  0
LINE
  5
3D
330
1F
100
AcDbEntity
  8
0
  6
Continuous
 62
     7
370
     0
100
AcDbLine
 10
676.8147788934926
 20
-625.7266843960682
 30
0.0
 11
651.8147788934926
 21
-625.7266843960682
 31
0.0
1001
TCAD
1000
TCW_CUSTOM_DATA
1002
{
1000
#$AUX@_ToolInfo Properties
1070
     8
1000
CMD_LINE@
1002
}
  0
LINE
  5
3E
330
1F
100
AcDbEntity
  8
0
  6
Continuous
 62
     7
370
     0
100
AcDbLine
 10
651.8147828861357
 20
-619.2203289949609
 30
0.0
 11
651.8147828861357
 21
-632.195025138183
 31
0.0
1001
TCAD
1000
TCW_CUSTOM_DATA
1002
{
1000
#$AUX@_ToolInfo Properties
1070
     8
1000
CMD_LINE@
1002
}
  0
LINE
  5
3F
330
1F
100
AcDbEntity
  8
0
  6
Continuous
 62
     7
370
     0
100
AcDbLine
 10
676.814676401557
 20
-619.2203289949609
 30
0.0
 11
676.814676401557
 21
-632.244867278466
 31
0.0
1001
TCAD
1000
TCW_CUSTOM_DATA
1002
{
1000
#$AUX@_ToolInfo Properties
1070
     8
1000
CMD_LINE@
1002
}
  0
LINE
  5
40
330
1F
100
AcDbEntity
  8
0
  6
Continuous
 62
     7
370
     0
100
AcDbLine
 10
651.8147885110944
 20
-620.7266690985776
 30
0.0
 11
651.8147885110944
 21
-620.7266690985776
 31
0.0
1001
TCAD
1000
TCW_CUSTOM_DATA
1002
{
1000
#$AUX@_ToolInfo Properties
1070
     8
1000
CMD_LINE@
1002
}
  0
LINE
  5
41
330
1F
100
AcDbEntity
  8
0
  6
Continuous
 62
     7
370
     0
100
AcDbLine
 10
651.8147738489541
 20
-620.7266760852864
 30
0.0
 11
676.8147738489541
 21
-620.7266760852864
 31
0.0
1001
TCAD
1000
TCW_CUSTOM_DATA
1002
{
1000
#$AUX@_ToolInfo Properties
1070
     8
1000
CMD_LINE@
1002
}
  0
LINE
  5
42
330
1F
100
AcDbEntity
  8
0
  6
Continuous
 62
     7
370
     0
100
AcDbLine
 10
652.8152829682393
 20
-633.2266463609799
 30
0.0
 11
652.8152829682393
 21
-625.7457636967573
 31
0.0
1001
TCAD
1000
TCW_CUSTOM_DATA
1002
{
1000
#$AUX@_ToolInfo Properties
1070
     8
1000
CMD_LINE@
1002
}
  0
LINE
  5
43
330
1F
100
AcDbEntity
  8
0
  6
Continuous
 62
     7
370
     0
100
AcDbLine
 10
652.8147894473137
 20
-633.226493261968
 30
0.0
 11
651.8167732199232
 21
-632.2266254274755
 31
0.0
1001
TCAD
1000
TCW_CUSTOM_DATA
1002
{
1000
#$AUX@_ToolInfo Properties
1070
     8
1000
CMD_LINE@
1002
}
  0
LINE
  5
44
330
1F
100
AcDbEntity
  8
0
  6
Continuous
 62
     7
370
     0
100
AcDbLine
 10
652.8152799227145
 20
-618.2266920048406
 30
0.0
 11
651.8253304290535
 21
-619.2166414985016
 31
0.0
1001
TCAD
1000
TCW_CUSTOM_DATA
1002
{
1000
#$AUX@_ToolInfo Properties
1070
     8
1000
CMD_LINE@
1002
}
  0
LINE
  5
45
330
1F
100
AcDbEntity
  8
0
  6
Continuous
 62
     7
370
     0
100
AcDbLine
 10
675.8147773856377
 20
-625.7988989784471
 30
0.0
 11
675.8147773856377
 21
-633.2292495462938
 31
0.0
1001
TCAD
1000
TCW_CUSTOM_DATA
1002
{
1000
#$AUX@_ToolInfo Properties
1070
     8
1000
CMD_LINE@
1002
}
  0
LINE
  5
46
330
1F
100
AcDbEntity
  8
0
  6
Continuous
 62
     7
370
     0
100
AcDbLine
 10
675.8147906224032
 20
-633.2266978873165
 30
0.0
 11
676.8047401160653
 21
-632.2367483936555
 31
0.0
1001
TCAD
1000
TCW_CUSTOM_DATA
1002
{
1000
#$AUX@_ToolInfo Properties
1070
     8
1000
CMD_LINE@
1002
}
  0
LINE
  5
47
330
1F
100
AcDbEntity
  8
0
  6
Continuous
 62
     7
370
     0
100
AcDbLine
 10
675.8147429895361
 20
-618.2266975012036
 30
0.0
 11
676.8046924831971
 21
-619.2166469948646
 31
0.0
1001
TCAD
1000
TCW_CUSTOM_DATA
1002
{
1000
#$AUX@_ToolInfo Properties
1070
     8
1000
CMD_LINE@
1002
}
  0
LINE
  5
48
330
1F
100
AcDbEntity
  8
0
  6
Continuous
 62
     7
370
     0
100
AcDbLine
 10
675.8141157421643
 20
-633.2261344125263
 30
0.0
 11
652.7369169570399
 21
-633.2261344125263
 31
0.0
1001
TCAD
1000
TCW_CUSTOM_DATA
1002
{
1000
#$AUX@_ToolInfo Properties
1070
     8
1000
CMD_LINE@
1002
}
  0
LINE
  5
49
330
1F
100
AcDbEntity
  8
0
  6
Continuous
 62
     7
370
     0
100
AcDbLine
 10
675.8279749172176
 20
-618.2263203047567
 30
0.0
 11
652.8107580456436
 21
-618.2263203047567
 31
0.0
1001
TCAD
1000
TCW_CUSTOM_DATA
1002
{
1000
#$AUX@_ToolInfo Properties
1070
     8
1000
CMD_LINE@
1002
}
  0
LINE
  5
4A
330
1F
100
AcDbEntity
  8
0
  6
Continuous
 62
     7
370
     0
100
AcDbLine
 10
651.8558303462761
 20
-619.1861009968435
 30
0.0
 11
651.8092267527699
 21
-619.2327045903497
 31
0.0
1001
TCAD
1000
TCW_CUSTOM_DATA
1002
{
1000
#$AUX@_ToolInfo Properties
1070
     8
1000
CMD_LINE@
1002
}
  0
LINE
  5
4B
330
1F
100
AcDbEntity
  8
0
  6
Continuous
 62
     7
370
     0
100
AcDbLine
 10
676.7852710879505
 20
-619.1972860819332
 30
0.0
 11
676.8244661617622
 21
-619.2363309830487
 31
0.0
1001
TCAD
1000
TCW_CUSTOM_DATA
1002
{
1000
#$AUX@_ToolInfo Properties
1070
     8
1000
CMD_LINE@
1002
}
  0
LWPOLYLINE
  5
4C
102
{ACAD_REACTORS
330
4D
330
4D
102
}
330
1F
100
AcDbEntity
  8
0
  6
Continuous
 62
     7
370
     0
100
AcDbPolyline
 90
        6
 70
   129
 43
0.0
 10
651.8147696334723
 20
-620.7266785366895
 10
651.8147926190887
 20
-619.227127542429
 10
652.815647670675
 20
-618.226333785826
 10
675.8143816221037
 20
-618.226303138421
 10
676.8147156663828
 20
-619.2267597725735
 10
676.8147156663828
 20
-620.7267704791471
1001
TCAD
1000
TCW_CUSTOM_DATA
1002
{
1000
#$AUX@_ToolInfo Properties
1070
     8
1000
CMD_POLYLINE@
1002
}
  0
HATCH
  5
4D
330
1F
100
AcDbEntity
  8
0
  6
Continuous
 62
     7
100
AcDbHatch
 10
0.0
 20
0.0
 30
0.0
210
0.0
220
0.0
230
1.0
  2
ANSI31
 70
     0
 71
     1
 91
        1
 92
        3
 72
     0
 73
     1
 93
        6
 10
651.8147696334723
 20
-620.7266785366895
 10
651.8147926190887
 20
-619.227127542429
 10
652.815647670675
 20
-618.226333785826
 10
675.8143816221037
 20
-618.226303138421
 10
676.8147156663828
 20
-619.2267597725735
 10
676.8147156663828
 20
-620.7267704791471
 97
        1
330
4C
 75
     0
 76
     1
 52
0.0
 41
1.0
 77
     0
 78
     1
 53
45.0
 43
0.0
 44
0.0
 45
-0.0883883476483184
 46
0.0883883476483184
 79
     0
 98
        0
1001
TCAD
1000
TCW_CUSTOM_DATA
1002
{
1000
#$AUX@_ToolInfo Properties
1070
     8
1000
CMD_POLYLINE@
1002
}
  0
MTEXT
  5
4E
330
1F
100
AcDbEntity
  8
0
  6
Continuous
 62
     5
420
      255
100
AcDbMText
 10
640.56795457155
 20
-636.4602100031249
 30
0.0
 40
3.522528076171875
 41
36.95959837734699
 71
     1
 72
     1
  1
{Rйz siklуcsapбgy\P4 db.         M 5:1}
  7
_TCW_TXTSTY_1
 73
     1
 44
1.0
1001
TCAD
1000
TCW40_TEXT
1002
{
1000
Times New Roman
1070
     0
1070
   257
1002
}
1000
TCW_CUSTOM_DATA
1002
{
1000
#$AUX@_ToolInfo Properties
1070
     8
1000
CMD_TEXT@
1002
}
  0
DIMENSION
  5
4F
330
1F
100
AcDbEntity
  8
0
  6
Continuous
 62
     7
100
AcDbDimension
  2
*D1
 10
676.8167689976184
 20
-611.5797382864721
 30
0.0
 11
664.3156966240083
 21
-609.9917127609466
 31
0.0
 70
    32
  1
5
 71
     5
 42
25.00214474722009
  3
Standard
100
AcDbAlignedDimension
 13
651.8146242503983
 23
-617.2459138040679
 33
0.0
 14
676.8167689976184
 24
-617.2529263975327
 34
0.0
100
AcDbRotatedDimension
1001
TCAD
1000
TCW_CUSTOM_DATA
1002
{
1000
#$AUX@_ToolInfo Properties
1070
     8
1000
CMD_ORTHOGONALDIM@
1002
}
1001
ACAD
1000
DSTYLE
1002
{
1070
   148
1040
0.01
1002
}
  0
DIMENSION
  5
5E
330
1F
100
AcDbEntity
  8
0
  6
Continuous
 62
     7
100
AcDbDimension
  2
*D2
 10
681.6701633116544
 20
-630.7305806480559
 30
0.0
 11
681.6701633116544
 21
-625.7305806480559
 31
0.0
 70
    32
  1
2
 71
     5
 42
10.0
  3
Standard
100
AcDbAlignedDimension
 13
677.6510884089698
 23
-620.7305806480559
 33
0.0
 14
677.6510884089698
 24
-630.7305806480559
 34
0.0
 50
90.0
100
AcDbRotatedDimension
1001
TCAD
1000
TCW_CUSTOM_DATA
1002
{
1000
#$AUX@_ToolInfo Properties
1070
     8
1000
CMD_ORTHOGONALDIM@
1002
}
1001
ACAD
1000
DSTYLE
1002
{
1070
   148
1040
0.01
1070
   340
1005
5D
1002
}
  0
DIMENSION
  5
6F
330
1F
100
AcDbEntity
  8
0
  6
Continuous
 62
     7
100
AcDbDimension
  2
*D3
 10
645.9203875186184
 20
-633.2266312546548
 30
0.0
 11
645.9203875186184
 21
-625.7253237815823
 31
0.0
 70
    32
  1
3
 71
     5
 42
15.00261494614472
  3
Standard
100
AcDbAlignedDimension
 13
651.567834839741
 23
-618.22401630851
 33
0.0
 14
651.5797158649642
 24
-633.2266312546548
 34
0.0
 50
90.0
100
AcDbRotatedDimension
1001
TCAD
1000
TCW_CUSTOM_DATA
1002
{
1000
#$AUX@_ToolInfo Properties
1070
     8
1000
CMD_ORTHOGONALDIM@
1002
}
1001
ACAD
1000
DSTYLE
1002
{
1070
   148
1040
0.01
1070
   340
1005
6E
1002
}
  0
LINE
  5
7D
330
1F
100
AcDbEntity
  8
0
  6
Continuous
 62
     7
370
     0
100
AcDbLine
 10
612.7689524492458
 20
-737.783926616139
 30
0.0
 11
608.776729103513
 21
-737.9931501760907
 31
0.0
1001
TCAD
1000
TCW_CUSTOM_DATA
1002
{
1000
#$AUX@_ToolInfo Properties
1070
     8
1000
CMD_LINE@
1002
}
  0
LWPOLYLINE
  5
7E
330
1F
100
AcDbEntity
  8
0
  6
Continuous
 62
     7
370
     0
100
AcDbPolyline
 90
        3
 70
   128
 43
0.0
 10
610.611549610575
 20
-772.9283389210408
 10
612.7154945351418
 20
-774.9189442301117
 10
614.6110835215301
 20
-772.9338814031012
1001
TCAD
1000
TCW_CUSTOM_DATA
1002
{
1000
#$AUX@_ToolInfo Properties
1070
     8
1000
CMD_POLYLINE@
1002
}
  0
LINE
  5
7F
330
1F
100
AcDbEntity
  8
0
  6
Continuous
 62
     7
370
     0
100
AcDbLine
 10
608.7767349088223
 20
-737.9932609479889
 30
0.0
 11
610.6076481730421
 21
-772.9194049368617
 31
0.0
1001
TCAD
1000
TCW_CUSTOM_DATA
1002
{
1000
#$AUX@_ToolInfo Properties
1070
     8
1000
CMD_LINE@
1002
}
  0
LINE
  5
80
330
1F
100
AcDbEntity
  8
0
  6
Continuous
 62
     7
370
     0
100
AcDbLine
 10
614.6131037871324
 20
-772.9192516144542
 30
0.0
 11
612.771187274764
 21
-737.7831531418996
 31
0.0
1001
TCAD
1000
TCW_CUSTOM_DATA
1002
{
1000
#$AUX@_ToolInfo Properties
1070
     8
1000
CMD_LINE@
1002
}
  0
LINE
  5
81
330
1F
100
AcDbEntity
  8
0
  6
Continuous
 62
     7
370
     0
100
AcDbLine
 10
673.72480941116
 20
-772.9197443680297
 30
0.0
 11
614.6133408262693
 21
-772.920170745884
 31
0.0
1001
TCAD
1000
TCW_CUSTOM_DATA
1002
{
1000
#$AUX@_ToolInfo Properties
1070
     8
1000
CMD_LINE@
1002
}
  0
LINE
  5
82
330
1F
100
AcDbEntity
  8
0
  6
Continuous
 62
     7
370
     0
100
AcDbLine
 10
610.6139335135249
 20
-772.9187884620271
 30
0.0
 11
582.72417310757
 21
-772.9191405169241
 31
0.0
1001
TCAD
1000
TCW_CUSTOM_DATA
1002
{
1000
#$AUX@_ToolInfo Properties
1070
     8
1000
CMD_LINE@
1002
}
  0
LINE
  5
83
330
1F
100
AcDbEntity
  8
0
  6
Continuous
 62
     7
370
     0
100
AcDbLine
 10
582.7241855620315
 20
-776.9191732614677
 30
0.0
 11
673.7313258924727
 21
-776.91960276081
 31
0.0
1001
TCAD
1000
TCW_CUSTOM_DATA
1002
{
1000
#$AUX@_ToolInfo Properties
1070
     8
1000
CMD_LINE@
1002
}
  0
LINE
  5
84
330
1F
100
AcDbEntity
  8
0
  6
Continuous
 62
     5
420
      255
370
     0
100
AcDbLine
 10
580.2562359113355
 20
-774.9185036065562
 30
0.0
 11
676.2252166070793
 21
-774.9185036065562
 31
0.0
1001
TCAD
1000
TCW_CUSTOM_DATA
1002
{
1000
#$AUX@_ToolInfo Properties
1070
     8
1000
CMD_LINE@
1002
}
  0
LINE
  5
85
330
1F
100
AcDbEntity
  8
0
  6
Continuous
 62
     7
370
     0
100
AcDbLine
 10
580.224445511731
 20
-773.6161477360015
 30
0.0
 11
580.224445511731
 21
-776.2110869646459
 31
0.0
1001
TCAD
1000
TCW_CUSTOM_DATA
1002
{
1000
#$AUX@_ToolInfo Properties
1070
     8
1000
CMD_LINE@
1002
}
  0
LINE
  5
86
330
1F
100
AcDbEntity
  8
0
  6
Continuous
 62
     7
370
     0
100
AcDbLine
 10
580.2244466367227
 20
-773.9174157567248
 30
0.0
 11
580.2244466367227
 21
-773.9174157567248
 31
0.0
1001
TCAD
1000
TCW_CUSTOM_DATA
1002
{
1000
#$AUX@_ToolInfo Properties
1070
     8
1000
CMD_LINE@
1002
}
  0
LINE
  5
87
330
1F
100
AcDbEntity
  8
0
  6
Continuous
 62
     7
370
     0
100
AcDbLine
 10
580.424545528152
 20
-776.4174112092053
 30
0.0
 11
580.424545528152
 21
-773.422002190182
 31
0.0
1001
TCAD
1000
TCW_CUSTOM_DATA
1002
{
1000
#$AUX@_ToolInfo Properties
1070
     8
1000
CMD_LINE@
1002
}
  0
LINE
  5
88
330
1F
100
AcDbEntity
  8
0
  6
Continuous
 62
     7
370
     0
100
AcDbLine
 10
580.4244468239668
 20
-776.4173805894029
 30
0.0
 11
580.2248435784885
 21
-776.2174070225044
 31
0.0
1001
TCAD
1000
TCW_CUSTOM_DATA
1002
{
1000
#$AUX@_ToolInfo Properties
1070
     8
1000
CMD_LINE@
1002
}
  0
LINE
  5
89
330
1F
100
AcDbEntity
  8
0
  6
Continuous
 62
     7
370
     0
100
AcDbLine
 10
580.424544919047
 20
-773.4174203379774
 30
0.0
 11
580.2265550203148
 21
-773.6154102367096
 31
0.0
1001
TCAD
1000
TCW_CUSTOM_DATA
1002
{
1000
#$AUX@_ToolInfo Properties
1070
     8
1000
CMD_LINE@
1002
}
  0
LINE
  5
8A
330
1F
100
AcDbEntity
  8
0
  6
Continuous
 62
     7
370
     0
100
AcDbLine
 10
582.7240977263847
 20
-776.4173088195146
 30
0.0
 11
580.4088723259118
 21
-776.4173088195146
 31
0.0
1001
TCAD
1000
TCW_CUSTOM_DATA
1002
{
1000
#$AUX@_ToolInfo Properties
1070
     8
1000
CMD_LINE@
1002
}
  0
LINE
  5
8B
330
1F
100
AcDbEntity
  8
0
  6
Continuous
 62
     7
370
     0
100
AcDbLine
 10
582.7267679640746
 20
-773.4173459979606
 30
0.0
 11
580.4236405436326
 21
-773.4173459979606
 31
0.0
1001
TCAD
1000
TCW_CUSTOM_DATA
1002
{
1000
#$AUX@_ToolInfo Properties
1070
     8
1000
CMD_LINE@
1002
}
  0
LINE
  5
8C
330
1F
100
AcDbEntity
  8
0
  6
Continuous
 62
     7
370
     0
100
AcDbLine
 10
580.2326550037593
 20
-773.609302136378
 30
0.0
 11
580.2233342850581
 21
-773.6186228550793
 31
0.0
1001
TCAD
1000
TCW_CUSTOM_DATA
1002
{
1000
#$AUX@_ToolInfo Properties
1070
     8
1000
CMD_LINE@
1002
}
  0
LINE
  5
8D
330
1F
100
AcDbEntity
  8
0
  6
Continuous
 62
     7
370
     0
100
AcDbLine
 10
676.2265442982717
 20
-773.6161477359717
 30
0.0
 11
676.2265442982717
 21
-776.2210553926727
 31
0.0
1001
TCAD
1000
TCW_CUSTOM_DATA
1002
{
1000
#$AUX@_ToolInfo Properties
1070
     8
1000
CMD_LINE@
1002
}
  0
LINE
  5
8E
330
1F
100
AcDbEntity
  8
0
  6
Continuous
 62
     7
370
     0
100
AcDbLine
 10
676.0265644950879
 20
-773.4220021901522
 30
0.0
 11
676.0265644950879
 21
-776.4179318462383
 31
0.0
1001
TCAD
1000
TCW_CUSTOM_DATA
1002
{
1000
#$AUX@_ToolInfo Properties
1070
     8
1000
CMD_LINE@
1002
}
  0
LINE
  5
8F
330
1F
100
AcDbEntity
  8
0
  6
Continuous
 62
     7
370
     0
100
AcDbLine
 10
676.0265671424412
 20
-776.4174215144428
 30
0.0
 11
676.2245570411732
 21
-776.2194316157106
 31
0.0
1001
TCAD
1000
TCW_CUSTOM_DATA
1002
{
1000
#$AUX@_ToolInfo Properties
1070
     8
1000
CMD_LINE@
1002
}
  0
LINE
  5
90
330
1F
100
AcDbEntity
  8
0
  6
Continuous
 62
     7
370
     0
100
AcDbLine
 10
676.0265576158675
 20
-773.4174214372202
 30
0.0
 11
676.2245475145997
 21
-773.6154113359524
 31
0.0
1001
TCAD
1000
TCW_CUSTOM_DATA
1002
{
1000
#$AUX@_ToolInfo Properties
1070
     8
1000
CMD_LINE@
1002
}
  0
LINE
  5
91
330
1F
100
AcDbEntity
  8
0
  6
Continuous
 62
     7
370
     0
100
AcDbLine
 10
676.026432166393
 20
-776.4173088194848
 30
0.0
 11
673.7279262926578
 21
-776.4173088194848
 31
0.0
1001
TCAD
1000
TCW_CUSTOM_DATA
1002
{
1000
#$AUX@_ToolInfo Properties
1070
     8
1000
CMD_LINE@
1002
}
  0
LINE
  5
92
330
1F
100
AcDbEntity
  8
0
  6
Continuous
 62
     7
370
     0
100
AcDbLine
 10
676.0292040014041
 20
-773.4173459979309
 30
0.0
 11
673.7279262926578
 21
-773.4173459979309
 31
0.0
1001
TCAD
1000
TCW_CUSTOM_DATA
1002
{
1000
#$AUX@_ToolInfo Properties
1070
     8
1000
CMD_LINE@
1002
}
  0
LINE
  5
93
330
1F
100
AcDbEntity
  8
0
  6
Continuous
 62
     7
370
     0
100
AcDbLine
 10
676.2206632355504
 20
-773.6115391533662
 30
0.0
 11
676.2285022503128
 21
-773.6193481335893
 31
0.0
1001
TCAD
1000
TCW_CUSTOM_DATA
1002
{
1000
#$AUX@_ToolInfo Properties
1070
     8
1000
CMD_LINE@
1002
}
  0
LINE
  5
94
330
1F
100
AcDbEntity
  8
0
  6
Continuous
 62
     7
370
     0
100
AcDbLine
 10
582.7242205222761
 20
-776.9191870711371
 30
0.0
 11
582.7242205222761
 21
-772.9191870711371
 31
0.0
1001
TCAD
1000
TCW_CUSTOM_DATA
1002
{
1000
#$AUX@_ToolInfo Properties
1070
     8
1000
CMD_LINE@
1002
}
  0
LINE
  5
95
330
1F
100
AcDbEntity
  8
0
  6
Continuous
 62
     7
370
     0
100
AcDbLine
 10
673.7271768279655
 20
-776.9195924096884
 30
0.0
 11
673.7271768279655
 21
-772.9195924096884
 31
0.0
1001
TCAD
1000
TCW_CUSTOM_DATA
1002
{
1000
#$AUX@_ToolInfo Properties
1070
     8
1000
CMD_LINE@
1002
}
  0
LINE
  5
96
330
1F
100
AcDbEntity
  8
0
  6
Continuous
 62
     5
420
      255
370
     0
100
AcDbLine
 10
612.7147558123677
 20
-774.9185113103608
 30
0.0
 11
610.7725269801346
 21
-737.8893677083661
 31
0.0
1001
TCAD
1000
TCW_CUSTOM_DATA
1002
{
1000
#$AUX@_ToolInfo Properties
1070
     8
1000
CMD_LINE@
1002
}
  0
DIMENSION
  5
98
330
1F
100
AcDbEntity
  8
0
  6
Continuous
 62
     7
100
AcDbDimension
  2
*D4
 10
676.2269673195121
 20
-790.8766243526485
 30
0.0
 11
628.225838245663
 21
-789.2840943226184
 31
0.0
 70
    32
  1
96
 71
     5
 42
96.00225814769819
  3
Standard
100
AcDbAlignedDimension
 13
580.224709171814
 23
-777.3777959133687
 33
0.0
 14
676.2269673195121
 24
-777.377795913404
 34
0.0
100
AcDbRotatedDimension
1001
TCAD
1000
TCW_CUSTOM_DATA
1002
{
1000
#$AUX@_ToolInfo Properties
1070
     8
1000
CMD_ORTHOGONALDIM@
1002
}
1001
ACAD
1000
DSTYLE
1002
{
1070
   148
1040
0.01
1070
   340
1005
97
1002
}
  0
DIMENSION
  5
A6
330
1F
100
AcDbEntity
  8
0
  6
Continuous
 62
     7
100
AcDbDimension
  2
*D5
 10
673.7270486152141
 20
-785.287036564615
 30
0.0
 11
628.2250558833696
 21
-783.694506534585
 31
0.0
 70
    32
  1
91
 71
     5
 42
91.0039854636891
  3
Standard
100
AcDbAlignedDimension
 13
582.723063151525
 23
-777.2910111717038
 33
0.0
 14
673.7270486152141
 24
-777.291011171522
 34
0.0
100
AcDbRotatedDimension
1001
TCAD
1000
TCW_CUSTOM_DATA
1002
{
1000
#$AUX@_ToolInfo Properties
1070
     8
1000
CMD_ORTHOGONALDIM@
1002
}
1001
ACAD
1000
DSTYLE
1002
{
1070
   148
1040
0.01
1070
   340
1005
A5
1002
}
  0
DIMENSION
  5
B4
330
1F
100
AcDbEntity
  8
0
  6
Continuous
 62
     7
100
AcDbDimension
  2
*D6
 10
582.7233302794941
 20
-781.6494371281568
 30
0.0
 11
597.6665980604887
 21
-780.0614116026313
 31
0.0
 70
    32
  1
30
 71
     5
 42
29.88653556198915
  3
Standard
100
AcDbAlignedDimension
 13
612.6098658414833
 23
-777.9647958574352
 33
0.0
 14
582.7233302794941
 24
-777.9655013181113
 34
0.0
100
AcDbRotatedDimension
1001
TCAD
1000
TCW_CUSTOM_DATA
1002
{
1000
#$AUX@_ToolInfo Properties
1070
     8
1000
CMD_ORTHOGONALDIM@
1002
}
1001
ACAD
1000
DSTYLE
1002
{
1070
   148
1040
0.01
1070
   340
1005
B3
1002
}
  0
DIMENSION
  5
C2
330
1F
100
AcDbEntity
  8
0
  6
Continuous
 62
     7
100
AcDbDimension
  2
*D7
 10
621.2121329136336
 20
-737.6085838444799
 30
0.0
 11
621.9370183226317
 21
-756.1239340758409
 31
0.0
 70
    33
  1
37
 71
     5
 42
37.05906922987338
  3
Standard
100
AcDbAlignedDimension
 13
615.5162506857279
 23
-774.9190402700117
 33
0.0
 14
614.0664798677317
 24
-737.8883398072898
 34
0.0
1001
TCAD
1000
TCW_CUSTOM_DATA
1002
{
1000
#$AUX@_ToolInfo Properties
1070
     8
1000
CMD_PARALLELDIM@
1002
}
1001
ACAD
1000
DSTYLE
1002
{
1070
   148
1040
0.01
1070
   340
1005
C1
1002
}
  0
LINE
  5
D0
330
1F
100
AcDbEntity
  8
0
  6
Continuous
 62
     5
420
      255
370
     0
100
AcDbLine
 10
662.3918034888594
 20
-666.0997093691293
 30
0.0
 11
662.3918034888594
 21
-693.124904042431
 31
0.0
1001
TCAD
1000
TCW_CUSTOM_DATA
1002
{
1000
#$AUX@_ToolInfo Properties
1070
     8
1000
CMD_POLYLINE@
1002
}
  0
LINE
  5
D1
330
1F
100
AcDbEntity
  8
0
  6
Continuous
 62
     7
370
     0
100
AcDbLine
 10
660.3917964982232
 20
-690.5969152549715
 30
0.0
 11
660.3917964982232
 21
-668.5967260509408
 31
0.0
1001
TCAD
1000
TCW_CUSTOM_DATA
1002
{
1000
#$AUX@_ToolInfo Properties
1070
     8
1000
CMD_LINE@
1002
}
  0
LINE
  5
D2
330
1F
100
AcDbEntity
  8
0
  6
Continuous
 62
     7
370
     0
100
AcDbLine
 10
664.3918135016228
 20
-690.5969152549715
 30
0.0
 11
664.3918135016228
 21
-668.5964589573567
 31
0.0
1001
TCAD
1000
TCW_CUSTOM_DATA
1002
{
1000
#$AUX@_ToolInfo Properties
1070
     8
1000
CMD_LINE@
1002
}
  0
LINE
  5
D3
330
1F
100
AcDbEntity
  8
0
  6
Continuous
 62
     7
370
     0
100
AcDbLine
 10
663.6926648735863
 20
-666.0997749421354
 30
0.0
 11
661.097725644942
 21
-666.0997749421354
 31
0.0
1001
TCAD
1000
TCW_CUSTOM_DATA
1002
{
1000
#$AUX@_ToolInfo Properties
1070
     8
1000
CMD_LINE@
1002
}
  0
LINE
  5
D4
330
1F
100
AcDbEntity
  8
0
  6
Continuous
 62
     7
370
     0
100
AcDbLine
 10
663.3913968528631
 20
-666.0997760671271
 30
0.0
 11
663.3913968528631
 21
-666.0997760671271
 31
0.0
1001
TCAD
1000
TCW_CUSTOM_DATA
1002
{
1000
#$AUX@_ToolInfo Properties
1070
     8
1000
CMD_LINE@
1002
}
  0
LINE
  5
D5
330
1F
100
AcDbEntity
  8
0
  6
Continuous
 62
     7
370
     0
100
AcDbLine
 10
660.8914014003825
 20
-666.2998749585563
 30
0.0
 11
663.8868104194058
 21
-666.2998749585563
 31
0.0
1001
TCAD
1000
TCW_CUSTOM_DATA
1002
{
1000
#$AUX@_ToolInfo Properties
1070
     8
1000
CMD_LINE@
1002
}
  0
LINE
  5
D6
330
1F
100
AcDbEntity
  8
0
  6
Continuous
 62
     7
370
     0
100
AcDbLine
 10
660.8914320201849
 20
-666.2997762543712
 30
0.0
 11
661.0914055870834
 21
-666.1001730088929
 31
0.0
1001
TCAD
1000
TCW_CUSTOM_DATA
1002
{
1000
#$AUX@_ToolInfo Properties
1070
     8
1000
CMD_LINE@
1002
}
  0
LINE
  5
D7
330
1F
100
AcDbEntity
  8
0
  6
Continuous
 62
     7
370
     0
100
AcDbLine
 10
663.8913922716105
 20
-666.2998743494513
 30
0.0
 11
663.6934023728783
 21
-666.1018844507191
 31
0.0
1001
TCAD
1000
TCW_CUSTOM_DATA
1002
{
1000
#$AUX@_ToolInfo Properties
1070
     8
1000
CMD_LINE@
1002
}
  0
LINE
  5
D8
330
1F
100
AcDbEntity
  8
0
  6
Continuous
 62
     7
370
     0
100
AcDbLine
 10
660.8915037900732
 20
-668.6189394671991
 30
0.0
 11
660.8915037900732
 21
-666.2842017563162
 31
0.0
1001
TCAD
1000
TCW_CUSTOM_DATA
1002
{
1000
#$AUX@_ToolInfo Properties
1070
     8
1000
CMD_LINE@
1002
}
  0
LINE
  5
D9
330
1F
100
AcDbEntity
  8
0
  6
Continuous
 62
     7
370
     0
100
AcDbLine
 10
663.8914666116272
 20
-668.5967260509408
 30
0.0
 11
663.8914666116272
 21
-666.2989699740369
 31
0.0
1001
TCAD
1000
TCW_CUSTOM_DATA
1002
{
1000
#$AUX@_ToolInfo Properties
1070
     8
1000
CMD_LINE@
1002
}
  0
LINE
  5
DA
330
1F
100
AcDbEntity
  8
0
  6
Continuous
 62
     7
370
     0
100
AcDbLine
 10
663.6995104732099
 20
-666.1079844341637
 30
0.0
 11
663.6901897545087
 21
-666.0986637154624
 31
0.0
1001
TCAD
1000
TCW_CUSTOM_DATA
1002
{
1000
#$AUX@_ToolInfo Properties
1070
     8
1000
CMD_LINE@
1002
}
  0
LINE
  5
DB
330
1F
100
AcDbEntity
  8
0
  6
Continuous
 62
     7
370
     0
100
AcDbLine
 10
663.6955686682071
 20
-693.0930941119495
 30
0.0
 11
661.0906610115061
 21
-693.0930941119495
 31
0.0
1001
TCAD
1000
TCW_CUSTOM_DATA
1002
{
1000
#$AUX@_ToolInfo Properties
1070
     8
1000
CMD_LINE@
1002
}
  0
LINE
  5
DC
330
1F
100
AcDbEntity
  8
0
  6
Continuous
 62
     7
370
     0
100
AcDbLine
 10
663.8897142140266
 20
-692.8931143087657
 30
0.0
 11
660.8937845579406
 21
-692.8931143087657
 31
0.0
1001
TCAD
1000
TCW_CUSTOM_DATA
1002
{
1000
#$AUX@_ToolInfo Properties
1070
     8
1000
CMD_LINE@
1002
}
  0
LINE
  5
DD
330
1F
100
AcDbEntity
  8
0
  6
Continuous
 62
     7
370
     0
100
AcDbLine
 10
660.894294889736
 20
-692.893116956119
 30
0.0
 11
661.0922847884682
 21
-693.091106854851
 31
0.0
1001
TCAD
1000
TCW_CUSTOM_DATA
1002
{
1000
#$AUX@_ToolInfo Properties
1070
     8
1000
CMD_LINE@
1002
}
  0
LINE
  5
DE
330
1F
100
AcDbEntity
  8
0
  6
Continuous
 62
     7
370
     0
100
AcDbLine
 10
663.8942949669587
 20
-692.8931074295454
 30
0.0
 11
663.6963050682265
 21
-693.0910973282776
 31
0.0
1001
TCAD
1000
TCW_CUSTOM_DATA
1002
{
1000
#$AUX@_ToolInfo Properties
1070
     8
1000
CMD_LINE@
1002
}
  0
LINE
  5
DF
330
1F
100
AcDbEntity
  8
0
  6
Continuous
 62
     7
370
     0
100
AcDbLine
 10
660.894407584694
 20
-692.8929819800708
 30
0.0
 11
660.894407584694
 21
-690.5969152549715
 31
0.0
1001
TCAD
1000
TCW_CUSTOM_DATA
1002
{
1000
#$AUX@_ToolInfo Properties
1070
     8
1000
CMD_LINE@
1002
}
  0
LINE
  5
E0
330
1F
100
AcDbEntity
  8
0
  6
Continuous
 62
     7
370
     0
100
AcDbLine
 10
663.894370406248
 20
-692.8957538150819
 30
0.0
 11
663.894370406248
 21
-690.6182312529178
 31
0.0
1001
TCAD
1000
TCW_CUSTOM_DATA
1002
{
1000
#$AUX@_ToolInfo Properties
1070
     8
1000
CMD_LINE@
1002
}
  0
LINE
  5
E1
330
1F
100
AcDbEntity
  8
0
  6
Continuous
 62
     7
370
     0
100
AcDbLine
 10
663.7001772508128
 20
-693.0872130492282
 30
0.0
 11
663.6923682705896
 21
-693.0950520639906
 31
0.0
1001
TCAD
1000
TCW_CUSTOM_DATA
1002
{
1000
#$AUX@_ToolInfo Properties
1070
     8
1000
CMD_LINE@
1002
}
  0
LINE
  5
E2
330
1F
100
AcDbEntity
  8
0
  6
Continuous
 62
     7
370
     0
100
AcDbLine
 10
660.3917987678577
 20
-668.5953919433101
 30
0.0
 11
664.3917987678577
 21
-668.5953919433101
 31
0.0
1001
TCAD
1000
TCW_CUSTOM_DATA
1002
{
1000
#$AUX@_ToolInfo Properties
1070
     8
1000
CMD_LINE@
1002
}
  0
LINE
  5
E3
330
1F
100
AcDbEntity
  8
0
  6
Continuous
 62
     7
370
     0
100
AcDbLine
 10
664.3918153775354
 20
-690.5955725958538
 30
0.0
 11
660.3918153775354
 21
-690.5955725958538
 31
0.0
1001
TCAD
1000
TCW_CUSTOM_DATA
1002
{
1000
#$AUX@_ToolInfo Properties
1070
     8
1000
CMD_LINE@
1002
}
  0
DIMENSION
  5
E5
330
1F
100
AcDbEntity
  8
0
  6
Continuous
 62
     7
100
AcDbDimension
  2
*D8
 10
677.291640358081
 20
-693.0928611133307
 30
0.0
 11
677.291640358081
 21
-679.5962896770359
 31
0.0
 70
    32
  1
27
 71
     5
 42
26.9931428725896
  3
Standard
100
AcDbAlignedDimension
 13
665.0336816479322
 23
-666.0997182407411
 33
0.0
 14
665.026870251853
 24
-693.0928611133307
 34
0.0
 50
90.0
100
AcDbRotatedDimension
1001
TCAD
1000
TCW_CUSTOM_DATA
1002
{
1000
#$AUX@_ToolInfo Properties
1070
     8
1000
CMD_ORTHOGONALDIM@
1002
}
1001
ACAD
1000
DSTYLE
1002
{
1070
   148
1040
0.01
1070
   340
1005
E4
1002
}
  0
DIMENSION
  5
F4
330
1F
100
AcDbEntity
  8
0
  6
Continuous
 62
     7
100
AcDbDimension
  2
*D9
 10
670.8316769345992
 20
-690.5956642978852
 30
0.0
 11
670.8316769345992
 21
-679.5960616276209
 31
0.0
 70
    32
  1
22
 71
     5
 42
21.99920534052842
  3
Standard
100
AcDbAlignedDimension
 13
665.0720830850776
 23
-668.5964589573567
 33
0.0
 14
665.0714010455259
 24
-690.5956642978852
 34
0.0
 50
90.0
100
AcDbRotatedDimension
1001
TCAD
1000
TCW_CUSTOM_DATA
1002
{
1000
#$AUX@_ToolInfo Properties
1070
     8
1000
CMD_ORTHOGONALDIM@
1002
}
1001
ACAD
1000
DSTYLE
1002
{
1070
   148
1040
0.01
1070
   340
1005
F3
1002
}
  0
DIMENSION
  5
103
330
1F
100
AcDbEntity
  8
0
  6
Continuous
 62
     7
100
AcDbDimension
  2
*D10
 10
660.3914929454083
 20
-661.9038529751192
 30
0.0
 11
662.3918996922255
 21
-660.3413529751192
 31
0.0
 70
    32
  1
4
 71
     5
 42
4.000813493634155
  3
Standard
100
AcDbAlignedDimension
 13
664.3923064390425
 23
-665.7448243200556
 33
0.0
 14
660.3914929454083
 24
-665.7448243200557
 34
0.0
100
AcDbRotatedDimension
1001
TCAD
1000
TCW_CUSTOM_DATA
1002
{
1000
#$AUX@_ToolInfo Properties
1070
     8
1000
CMD_ORTHOGONALDIM@
1002
}
1001
ACAD
1000
DSTYLE
1002
{
1070
   148
1040
0.01
1070
   340
1005
102
1002
}
  0
DIMENSION
  5
113
330
1F
100
AcDbEntity
  8
0
  6
Continuous
 62
     7
100
AcDbDimension
  2
*D11
 10
678.8299510765584
 20
-772.9195796151256
 30
0.0
 11
678.8299510765584
 21
-774.9193628284902
 31
0.0
 70
    32
  1
4
 71
     5
 42
3.999566426729302
  3
Standard
100
AcDbAlignedDimension
 13
675.0519871115844
 23
-776.9191460418549
 33
0.0
 14
675.0524495306468
 24
-772.9195796151256
 34
0.0
 50
90.0
100
AcDbRotatedDimension
1001
TCAD
1000
TCW_CUSTOM_DATA
1002
{
1000
#$AUX@_ToolInfo Properties
1070
     8
1000
CMD_ORTHOGONALDIM@
1002
}
1001
ACAD
1000
DSTYLE
1002
{
1070
   148
1040
0.01
1070
   340
1005
112
1002
}
  0
LINE
  5
123
330
1F
100
AcDbEntity
  8
0
  6
Continuous
 62
     5
420
      255
370
     0
100
AcDbLine
 10
594.2189180710925
 20
-706.7400615474498
 30
0.0
 11
606.2245213078628
 21
-706.7400615474498
 31
0.0
1001
TCAD
1000
TCW_CUSTOM_DATA
1002
{
1000
#$AUX@_ToolInfo Properties
1070
     8
1000
CMD_LINE@
1002
}
  0
LINE
  5
124
330
1F
100
AcDbEntity
  8
0
  6
Continuous
 62
     5
420
      255
370
     0
100
AcDbLine
 10
619.2241546809396
 20
-621.939606678512
 30
0.0
 11
619.2241546809396
 21
-616.7455504926339
 31
0.0
1001
TCAD
1000
TCW_CUSTOM_DATA
1002
{
1000
#$AUX@_ToolInfo Properties
1070
     8
1000
CMD_LINE@
1002
}
  0
LINE
  5
125
330
1F
100
AcDbEntity
  8
0
  6
Continuous
 62
     7
370
     0
100
AcDbLine
 10
594.2254087544147
 20
-646.7400642479139
 30
0.0
 11
594.2254087544147
 21
-711.7397051659675
 31
0.0
1001
TCAD
1000
TCW_CUSTOM_DATA
1002
{
1000
#$AUX@_ToolInfo Properties
1070
     8
1000
CMD_LINE@
1002
}
  0
LINE
  5
126
330
1F
100
AcDbEntity
  8
0
  6
Continuous
 62
     7
370
     0
100
AcDbLine
 10
594.2254148152506
 20
-646.74006828843
 30
0.0
 11
606.2254148152506
 21
-646.74006828843
 31
0.0
1001
TCAD
1000
TCW_CUSTOM_DATA
1002
{
1000
#$AUX@_ToolInfo Properties
1070
     8
1000
CMD_LINE@
1002
}
  0
LINE
  5
127
330
1F
100
AcDbEntity
  8
0
  6
Continuous
 62
     7
370
     0
100
AcDbLine
 10
606.2254114302311
 20
-646.7400736289159
 30
0.0
 11
606.2254114302311
 21
-711.7408016761051
 31
0.0
1001
TCAD
1000
TCW_CUSTOM_DATA
1002
{
1000
#$AUX@_ToolInfo Properties
1070
     8
1000
CMD_LINE@
1002
}
  0
LINE
  5
128
330
1F
100
AcDbEntity
  8
0
  6
Continuous
 62
     5
420
      255
370
     0
100
AcDbLine
 10
598.2262695169975
 20
-646.7404766989558
 30
0.0
 11
598.2262695169975
 21
-633.740289016468
 31
0.0
1001
TCAD
1000
TCW_CUSTOM_DATA
1002
{
1000
#$AUX@_ToolInfo Properties
1070
     8
1000
CMD_LINE@
1002
}
  0
LINE
  5
129
330
1F
100
AcDbEntity
  8
0
  6
Continuous
 62
     5
420
      255
370
     0
100
AcDbLine
 10
602.2255556763614
 20
-646.7399035516365
 30
0.0
 11
602.2255556763614
 21
-635.6489038230546
 31
0.0
1001
TCAD
1000
TCW_CUSTOM_DATA
1002
{
1000
#$AUX@_ToolInfo Properties
1070
     8
1000
CMD_LINE@
1002
}
  0
LINE
  5
12A
330
1F
100
AcDbEntity
  8
0
  6
Continuous
 62
     5
420
      255
370
     0
100
AcDbLine
 10
598.2262652356233
 20
-633.740362144914
 30
0.0
 11
602.2255021262597
 21
-635.6487882329235
 31
0.0
1001
TCAD
1000
TCW_CUSTOM_DATA
1002
{
1000
#$AUX@_ToolInfo Properties
1070
     8
1000
CMD_LINE@
1002
}
  0
LINE
  5
12B
330
1F
100
AcDbEntity
  8
0
  6
Continuous
 62
     5
420
      255
370
     0
100
AcDbLine
 10
598.2259968995918
 20
-633.7406263496763
 30
0.0
 11
619.2239845146848
 21
-616.7419416785625
 31
0.0
1001
TCAD
1000
TCW_CUSTOM_DATA
1002
{
1000
#$AUX@_ToolInfo Properties
1070
     8
1000
CMD_LINE@
1002
}
  0
LINE
  5
12C
330
1F
100
AcDbEntity
  8
0
  6
Continuous
 62
     5
420
      255
370
     0
100
AcDbLine
 10
619.2239845146848
 20
-621.8880143125749
 30
0.0
 11
602.2255021262597
 21
-635.6489038230546
 31
0.0
1001
TCAD
1000
TCW_CUSTOM_DATA
1002
{
1000
#$AUX@_ToolInfo Properties
1070
     8
1000
CMD_LINE@
1002
}
  0
LINE
  5
12D
330
1F
100
AcDbEntity
  8
0
  6
Continuous
 62
     7
370
     0
100
AcDbLine
 10
594.225405719528
 20
-711.7400611856533
 30
0.0
 11
606.2270623459453
 21
-711.7400611856533
 31
0.0
1001
TCAD
1000
TCW_CUSTOM_DATA
1002
{
1000
#$AUX@_ToolInfo Properties
1070
     8
1000
CMD_LINE@
1002
}
  0
LINE
  5
12E
330
1F
100
AcDbEntity
  8
0
  6
Continuous
 62
     5
420
      255
370
     0
100
AcDbLine
 10
600.2254054866539
 20
-646.7032095842388
 30
0.0
 11
600.2254054866539
 21
-711.7787814901518
 31
0.0
1001
TCAD
1000
TCW_CUSTOM_DATA
1002
{
1000
#$AUX@_ToolInfo Properties
1070
     8
1000
CMD_LINE@
1002
}
  0
LINE
  5
12F
330
1F
100
AcDbEntity
  8
0
  6
Continuous
 62
     7
370
     0
100
AcDbLine
 10
682.1973356348922
 20
-715.5523874025065
 30
0.0
 11
682.1973356348922
 21
-710.3583312166285
 31
0.0
1001
TCAD
1000
TCW_CUSTOM_DATA
1002
{
1000
#$AUX@_ToolInfo Properties
1070
     8
1000
CMD_LINE@
1002
}
  0
LINE
  5
130
330
1F
100
AcDbEntity
  8
0
  6
Continuous
 62
     7
370
     0
100
AcDbLine
 10
661.1994504709501
 20
-755.3538924023647
 30
0.0
 11
661.1994504709501
 21
-727.3530697404624
 31
0.0
1001
TCAD
1000
TCW_CUSTOM_DATA
1002
{
1000
#$AUX@_ToolInfo Properties
1070
     8
1000
CMD_LINE@
1002
}
  0
LINE
  5
131
330
1F
100
AcDbEntity
  8
0
  6
Continuous
 62
     7
370
     0
100
AcDbLine
 10
665.198736630314
 20
-755.3141314171115
 30
0.0
 11
665.198736630314
 21
-729.261684547049
 31
0.0
1001
TCAD
1000
TCW_CUSTOM_DATA
1002
{
1000
#$AUX@_ToolInfo Properties
1070
     8
1000
CMD_LINE@
1002
}
  0
LINE
  5
132
330
1F
100
AcDbEntity
  8
0
  6
Continuous
 62
     7
370
     0
100
AcDbLine
 10
661.1994461895758
 20
-727.3531428689085
 30
0.0
 11
665.1986830802123
 21
-729.261568956918
 31
0.0
1001
TCAD
1000
TCW_CUSTOM_DATA
1002
{
1000
#$AUX@_ToolInfo Properties
1070
     8
1000
CMD_LINE@
1002
}
  0
LINE
  5
133
330
1F
100
AcDbEntity
  8
0
  6
Continuous
 62
     7
370
     0
100
AcDbLine
 10
661.1991778535444
 20
-727.3534070736708
 30
0.0
 11
682.1971654686374
 21
-710.3547224025571
 31
0.0
1001
TCAD
1000
TCW_CUSTOM_DATA
1002
{
1000
#$AUX@_ToolInfo Properties
1070
     8
1000
CMD_LINE@
1002
}
  0
LINE
  5
134
330
1F
100
AcDbEntity
  8
0
  6
Continuous
 62
     7
370
     0
100
AcDbLine
 10
682.1971654686374
 20
-715.5007950365695
 30
0.0
 11
665.1986830802123
 21
-729.2616845470492
 31
0.0
1001
TCAD
1000
TCW_CUSTOM_DATA
1002
{
1000
#$AUX@_ToolInfo Properties
1070
     8
1000
CMD_LINE@
1002
}
  0
LINE
  5
135
330
1F
100
AcDbEntity
  8
0
  6
Continuous
 62
     5
420
      255
370
     0
100
AcDbLine
 10
663.1985864406065
 20
-728.307093317285
 30
0.0
 11
663.1985864406065
 21
-755.3438808495384
 31
0.0
1001
TCAD
1000
TCW_CUSTOM_DATA
1002
{
1000
#$AUX@_ToolInfo Properties
1070
     8
1000
CMD_LINE@
1002
}
  0
LINE
  5
136
330
1F
100
AcDbEntity
  8
0
  6
Continuous
 62
     7
370
     0
100
AcDbLine
 10
661.1994508902166
 20
-755.3538924023649
 30
0.0
 11
665.1994508902166
 21
-755.3538924023649
 31
0.0
1001
TCAD
1000
TCW_CUSTOM_DATA
1002
{
1000
#$AUX@_ToolInfo Properties
1070
     8
1000
CMD_LINE@
1002
}
  0
LINE
  5
137
330
1F
100
AcDbEntity
  8
0
  6
Continuous
 62
     5
420
      255
370
     0
100
AcDbLine
 10
663.1985865434996
 20
-728.3071284290487
 30
0.0
 11
682.1992901192301
 21
-712.7418573415825
 31
0.0
1001
TCAD
1000
TCW_CUSTOM_DATA
1002
{
1000
#$AUX@_ToolInfo Properties
1070
     8
1000
CMD_LINE@
1002
}
  0
DIMENSION
  5
139
330
1F
100
AcDbEntity
  8
0
  6
Continuous
 62
     7
100
AcDbDimension
  2
*D12
 10
649.8585925681828
 20
-727.3747461442604
 30
0.0
 11
649.8585925681828
 21
-741.3733365524456
 31
0.0
 70
    32
  1
28
 71
     5
 42
27.99718081637047
  3
Standard
100
AcDbAlignedDimension
 13
660.0238374716025
 23
-755.3719269606308
 33
0.0
 14
660.5992286925508
 24
-727.3747461442604
 34
0.0
 50
90.0
100
AcDbRotatedDimension
1001
TCAD
1000
TCW_CUSTOM_DATA
1002
{
1000
#$AUX@_ToolInfo Properties
1070
     8
1000
CMD_ORTHOGONALDIM@
1002
}
1001
ACAD
1000
DSTYLE
1002
{
1070
   148
1040
0.01
1070
   340
1005
138
1002
}
  0
DIMENSION
  5
148
330
1F
100
AcDbEntity
  8
0
  6
Continuous
 62
     7
100
AcDbDimension
  2
*D13
 10
665.2105290623059
 20
-757.3481985476686
 30
0.0
 11
663.201319615484
 21
-755.7856985476686
 31
0.0
 70
    32
  1
4
 71
     5
 42
4.018418893643798
  3
Standard
100
AcDbAlignedDimension
 13
661.1921101686621
 23
-755.5695541193345
 33
0.0
 14
665.2105290623059
 24
-755.5036783997665
 34
0.0
100
AcDbRotatedDimension
1001
TCAD
1000
TCW_CUSTOM_DATA
1002
{
1000
#$AUX@_ToolInfo Properties
1070
     8
1000
CMD_ORTHOGONALDIM@
1002
}
1001
ACAD
1000
DSTYLE
1002
{
1070
   148
1040
0.01
1070
   340
1005
147
1002
}
  0
DIMENSION
  5
158
330
1F
100
AcDbEntity
  8
0
  6
Continuous
 62
     7
100
AcDbDimension
  2
*D14
 10
675.628706593564
 20
-702.2559554691632
 30
0.0
 11
665.117412090252
 21
-710.7703922229953
 31
0.0
 70
    33
  1
27
 71
     5
 42
27.05423777306361
  3
Standard
100
AcDbAlignedDimension
 13
661.1591723075837
 23
-727.3747461441616
 33
0.0
 14
682.1817613142078
 24
-710.3458726364973
 34
0.0
1001
TCAD
1000
TCW_CUSTOM_DATA
1002
{
1000
#$AUX@_ToolInfo Properties
1070
     8
1000
CMD_PARALLELDIM@
1002
}
1001
ACAD
1000
DSTYLE
1002
{
1070
   148
1040
0.01
1070
   340
1005
157
1002
}
  0
DIMENSION
  5
167
330
1F
100
AcDbEntity
  8
0
  6
Continuous
 62
     7
100
AcDbDimension
  2
*D15
 10
616.9124002511431
 20
-711.7363561492382
 30
0.0
 11
616.9124002511431
 21
-709.2357538916448
 31
0.0
 70
    32
  1
5
 71
     5
 42
5.001204515186828
  3
Standard
100
AcDbAlignedDimension
 13
606.9807734029114
 23
-706.7351516340514
 33
0.0
 14
606.9807734029114
 24
-711.7363561492382
 34
0.0
 50
90.0
100
AcDbRotatedDimension
1001
TCAD
1000
TCW_CUSTOM_DATA
1002
{
1000
#$AUX@_ToolInfo Properties
1070
     8
1000
CMD_ORTHOGONALDIM@
1002
}
1001
ACAD
1000
DSTYLE
1002
{
1070
   148
1040
0.01
1070
   340
1005
166
1002
}
  0
DIMENSION
  5
178
330
1F
100
AcDbEntity
  8
0
  6
Continuous
 62
     7
100
AcDbDimension
  2
*D16
 10
618.9756095951055
 20
-646.7399752285255
 30
0.0
 11
618.9756095951055
 21
-679.2381656886346
 31
0.0
 70
    32
  1
65
 71
     5
 42
64.99638092021803
  3
Standard
100
AcDbAlignedDimension
 13
607.1261573886904
 23
-711.7363561487435
 33
0.0
 14
606.802973911355
 24
-646.7399752285255
 34
0.0
 50
-90.0
100
AcDbRotatedDimension
1001
TCAD
1000
TCW_CUSTOM_DATA
1002
{
1000
#$AUX@_ToolInfo Properties
1070
     8
1000
CMD_ORTHOGONALDIM@
1002
}
1001
ACAD
1000
DSTYLE
1002
{
1070
   148
1040
0.01
1070
   340
1005
177
1002
}
  0
DIMENSION
  5
187
330
1F
100
AcDbEntity
  8
0
  6
Continuous
 62
     7
100
AcDbDimension
  2
*D17
 10
594.2235259824449
 20
-717.1177827839861
 30
0.0
 11
587.29616111758
 21
-715.5552827839861
 31
0.0
 70
    32
  1
12
 71
     5
 42
12.00504904871343
  3
Standard
100
AcDbAlignedDimension
 13
606.2285750311584
 23
-712.8217564762931
 33
0.0
 14
594.2235259824449
 24
-712.8217564762929
 34
0.0
100
AcDbRotatedDimension
1001
TCAD
1000
TCW_CUSTOM_DATA
1002
{
1000
#$AUX@_ToolInfo Properties
1070
     8
1000
CMD_ORTHOGONALDIM@
1002
}
1001
ACAD
1000
DSTYLE
1002
{
1070
   148
1040
0.01
1070
   340
1005
186
1002
}
  0
DIMENSION
  5
196
330
1F
100
AcDbEntity
  8
0
  6
Continuous
 62
     7
100
AcDbDimension
  2
*D18
 10
583.178880861466
 20
-633.8285337443857
 30
0.0
 11
581.3446090896942
 21
-627.2405082188602
 31
0.0
 70
    32
  1
13
 71
     5
 42
12.88541931228576
  3
Standard
100
AcDbAlignedDimension
 13
593.8233576846587
 23
-646.7139530566715
 33
0.0
 14
597.3448387389479
 24
-633.8285337443857
 34
0.0
 50
90.0
100
AcDbRotatedDimension
1001
TCAD
1000
TCW_CUSTOM_DATA
1002
{
1000
#$AUX@_ToolInfo Properties
1070
     8
1000
CMD_ORTHOGONALDIM@
1002
}
1001
ACAD
1000
DSTYLE
1002
{
1070
   148
1040
0.01
1070
   340
1005
195
1002
}
  0
LINE
  5
1A5
330
1F
100
AcDbEntity
  8
0
  6
Continuous
 62
     7
370
     0
100
AcDbLine
 10
833.1895924551859
 20
-637.7023769434513
 30
0.0
 11
798.1815660940127
 21
-637.7023769434513
 31
0.0
1001
TCAD
1000
TCW_CUSTOM_DATA
1002
{
1000
#$AUX@_ToolInfo Properties
1070
     8
1000
CMD_LINE@
1002
}
  0
ARC
  5
1A6
330
1F
100
AcDbEntity
  8
0
  6
Continuous
 62
     7
370
     0
100
AcDbCircle
 10
802.1883421409813
 20
-631.7046449355674
 30
0.0
 40
4.000000000000014
100
AcDbArc
 50
89.82539559988572
 51
180.1086725443821
1001
TCAD
1000
TCW_CUSTOM_DATA
1002
{
1000
#$AUX@_ToolInfo Properties
1070
     8
1000
CMD_CENTERPTCIRCLE@
1002
}
  0
LINE
  5
1A7
330
1F
100
AcDbEntity
  8
0
  6
Continuous
 62
     7
370
     0
100
AcDbLine
 10
798.1890809596501
 20
-637.7023753846909
 30
0.0
 11
798.1890809596501
 21
-631.4775533791499
 31
0.0
1001
TCAD
1000
TCW_CUSTOM_DATA
1002
{
1000
#$AUX@_ToolInfo Properties
1070
     8
1000
CMD_LINE@
1002
}
  0
LINE
  5
1A8
330
1F
100
AcDbEntity
  8
0
  6
Continuous
 62
     7
370
     0
100
AcDbLine
 10
833.1890825699143
 20
-627.6998105227143
 30
0.0
 11
833.1890825699143
 21
-637.70236539311
 31
0.0
1001
TCAD
1000
TCW_CUSTOM_DATA
1002
{
1000
#$AUX@_ToolInfo Properties
1070
     8
1000
CMD_LINE@
1002
}
  0
LINE
  5
1A9
330
1F
100
AcDbEntity
  8
0
  6
Continuous
 62
     7
370
     0
100
AcDbLine
 10
801.9841984767899
 20
-627.7023929080277
 30
0.0
 11
833.1911789548112
 21
-627.7023929080277
 31
0.0
1001
TCAD
1000
TCW_CUSTOM_DATA
1002
{
1000
#$AUX@_ToolInfo Properties
1070
     8
1000
CMD_LINE@
1002
}
  0
LINE
  5
1AA
330
1F
100
AcDbEntity
  8
0
  6
Continuous
 62
     7
370
     0
100
AcDbLine
 10
819.1274397229404
 20
-620.8375995424448
 30
0.0
 11
833.1121841766258
 21
-620.8375995424448
 31
0.0
1001
TCAD
1000
TCW_CUSTOM_DATA
1002
{
1000
#$AUX@_ToolInfo Properties
1070
     8
1000
CMD_LINE@
1002
}
  0
LINE
  5
1AB
330
1F
100
AcDbEntity
  8
0
  6
Continuous
 62
     7
370
     0
100
AcDbLine
 10
819.1312736663917
 20
-620.8380885386777
 30
0.0
 11
819.1312736663917
 21
-614.6335111737735
 31
0.0
1001
TCAD
1000
TCW_CUSTOM_DATA
1002
{
1000
#$AUX@_ToolInfo Properties
1070
     8
1000
CMD_LINE@
1002
}
  0
LINE
  5
1AC
330
1F
100
AcDbEntity
  8
0
  6
Continuous
 62
     7
370
     0
100
AcDbLine
 10
833.1312621027073
 20
-610.841876448702
 30
0.0
 11
833.1312621027073
 21
-620.8375802834407
 31
0.0
1001
TCAD
1000
TCW_CUSTOM_DATA
1002
{
1000
#$AUX@_ToolInfo Properties
1070
     8
1000
CMD_LINE@
1002
}
  0
LINE
  5
1AD
330
1F
100
AcDbEntity
  8
0
  6
Continuous
 62
     7
370
     0
100
AcDbLine
 10
833.1121841766258
 20
-610.8375867056546
 30
0.0
 11
822.9257155893251
 21
-610.8375867056546
 31
0.0
1001
TCAD
1000
TCW_CUSTOM_DATA
1002
{
1000
#$AUX@_ToolInfo Properties
1070
     8
1000
CMD_LINE@
1002
}
  0
ARC
  5
1AE
330
1F
100
AcDbEntity
  8
0
  6
Continuous
 62
     7
370
     0
100
AcDbCircle
 10
823.1291495324435
 20
-614.8380247448646
 30
0.0
 40
4.0
100
AcDbArc
 50
89.74631005209577
 51
180.0
1001
TCAD
1000
TCW_CUSTOM_DATA
1002
{
1000
#$AUX@_ToolInfo Properties
1070
     8
1000
CMD_CENTERPTCIRCLE@
1002
}
  0
LINE
  5
1AF
330
1F
100
AcDbEntity
  8
0
  6
Continuous
 62
     7
370
     0
100
AcDbLine
 10
833.1309716548458
 20
-620.8314855457263
 30
0.0
 11
833.1309716548458
 21
-611.1314705283211
 31
0.0
1001
TCAD
1000
TCW_CUSTOM_DATA
1002
{
1000
#$AUX@_ToolInfo Properties
1070
     8
1000
CMD_LINE@
1002
}
  0
LINE
  5
1B0
330
1F
100
AcDbEntity
  8
0
  6
Continuous
 62
     7
370
     0
100
AcDbLine
 10
833.2209795706623
 20
-674.5508527149093
 30
0.0
 11
798.2129532094891
 21
-674.5508527149093
 31
0.0
1001
TCAD
1000
TCW_CUSTOM_DATA
1002
{
1000
#$AUX@_ToolInfo Properties
1070
     8
1000
CMD_LINE@
1002
}
  0
ARC
  5
1B1
330
1F
100
AcDbEntity
  8
0
  6
Continuous
 62
     7
370
     0
100
AcDbCircle
 10
802.2197292564576
 20
-668.5531207070254
 30
0.0
 40
4.000000000000014
100
AcDbArc
 50
89.82539559988572
 51
180.1086725443821
1001
TCAD
1000
TCW_CUSTOM_DATA
1002
{
1000
#$AUX@_ToolInfo Properties
1070
     8
1000
CMD_CENTERPTCIRCLE@
1002
}
  0
LINE
  5
1B2
330
1F
100
AcDbEntity
  8
0
  6
Continuous
 62
     7
370
     0
100
AcDbLine
 10
798.2204680751265
 20
-674.5508511561488
 30
0.0
 11
798.2204680751265
 21
-668.3260291506078
 31
0.0
1001
TCAD
1000
TCW_CUSTOM_DATA
1002
{
1000
#$AUX@_ToolInfo Properties
1070
     8
1000
CMD_LINE@
1002
}
  0
LINE
  5
1B3
330
1F
100
AcDbEntity
  8
0
  6
Continuous
 62
     7
370
     0
100
AcDbLine
 10
833.2204696853906
 20
-664.5482862941723
 30
0.0
 11
833.2204696853906
 21
-674.5508411645679
 31
0.0
1001
TCAD
1000
TCW_CUSTOM_DATA
1002
{
1000
#$AUX@_ToolInfo Properties
1070
     8
1000
CMD_LINE@
1002
}
  0
LINE
  5
1B4
330
1F
100
AcDbEntity
  8
0
  6
Continuous
 62
     7
370
     0
100
AcDbLine
 10
802.0155855922662
 20
-664.5508686794857
 30
0.0
 11
833.2225660702876
 21
-664.5508686794857
 31
0.0
1001
TCAD
1000
TCW_CUSTOM_DATA
1002
{
1000
#$AUX@_ToolInfo Properties
1070
     8
1000
CMD_LINE@
1002
}
  0
LINE
  5
1B5
330
1F
100
AcDbEntity
  8
0
  6
Continuous
 62
     7
370
     0
100
AcDbLine
 10
818.8763427841398
 20
-655.3634286324641
 30
0.0
 11
832.8610872378251
 21
-655.3634286324641
 31
0.0
1001
TCAD
1000
TCW_CUSTOM_DATA
1002
{
1000
#$AUX@_ToolInfo Properties
1070
     8
1000
CMD_LINE@
1002
}
  0
LINE
  5
1B6
330
1F
100
AcDbEntity
  8
0
  6
Continuous
 62
     7
370
     0
100
AcDbLine
 10
818.8801767275911
 20
-655.363917628697
 30
0.0
 11
818.8801767275911
 21
-649.1593402637928
 31
0.0
1001
TCAD
1000
TCW_CUSTOM_DATA
1002
{
1000
#$AUX@_ToolInfo Properties
1070
     8
1000
CMD_LINE@
1002
}
  0
LINE
  5
1B7
330
1F
100
AcDbEntity
  8
0
  6
Continuous
 62
     7
370
     0
100
AcDbLine
 10
832.8801651639067
 20
-645.3677055387213
 30
0.0
 11
832.8801651639067
 21
-655.3634093734601
 31
0.0
1001
TCAD
1000
TCW_CUSTOM_DATA
1002
{
1000
#$AUX@_ToolInfo Properties
1070
     8
1000
CMD_LINE@
1002
}
  0
LINE
  5
1B8
330
1F
100
AcDbEntity
  8
0
  6
Continuous
 62
     7
370
     0
100
AcDbLine
 10
832.8610872378251
 20
-645.363415795674
 30
0.0
 11
822.6746186505245
 21
-645.363415795674
 31
0.0
1001
TCAD
1000
TCW_CUSTOM_DATA
1002
{
1000
#$AUX@_ToolInfo Properties
1070
     8
1000
CMD_LINE@
1002
}
  0
ARC
  5
1B9
330
1F
100
AcDbEntity
  8
0
  6
Continuous
 62
     7
370
     0
100
AcDbCircle
 10
822.8780525936429
 20
-649.3638538348839
 30
0.0
 40
4.0
100
AcDbArc
 50
89.74631005209577
 51
180.0
1001
TCAD
1000
TCW_CUSTOM_DATA
1002
{
1000
#$AUX@_ToolInfo Properties
1070
     8
1000
CMD_CENTERPTCIRCLE@
1002
}
  0
LINE
  5
1BA
330
1F
100
AcDbEntity
  8
0
  6
Continuous
 62
     7
370
     0
100
AcDbLine
 10
832.8798747160452
 20
-655.3573146357456
 30
0.0
 11
832.8798747160452
 21
-645.6572996183404
 31
0.0
1001
TCAD
1000
TCW_CUSTOM_DATA
1002
{
1000
#$AUX@_ToolInfo Properties
1070
     8
1000
CMD_LINE@
1002
}
  0
TEXT
  5
1BC
330
1F
100
AcDbEntity
  8
0
  6
Continuous
 62
     5
420
      255
100
AcDbText
 10
805.6296290108096
 20
-618.1376609574759
 30
0.0
 40
5.012131690979004
  1
39.
  7
_TCW_TXTSTY_13
 11
805.6296290108096
 21
-613.1255292664969
 31
0.0
100
AcDbText
 73
     3
1001
TCAD
1000
TCW40_TEXT
1002
{
1000
Times New Roman
1070
     0
1070
   257
1002
}
1000
TCW_CUSTOM_DATA
1002
{
1000
#$AUX@_ToolInfo Properties
1070
     8
1000
CMD_TEXT@
1002
}
  0
CIRCLE
  5
1BD
330
1F
100
AcDbEntity
  8
0
  6
Continuous
 62
     5
420
      255
370
     0
100
AcDbCircle
 10
809.9279734456296
 20
-615.7195827943892
 30
0.0
 40
5.862654945854388
1001
TCAD
1000
TCW_CUSTOM_DATA
1002
{
1000
#$AUX@_ToolInfo Properties
1070
     8
1000
CMD_CENTERPTCIRCLE@
1002
}
  0
TEXT
  5
1BF
330
1F
100
AcDbEntity
  8
0
  6
Continuous
 62
     5
420
      255
100
AcDbText
 10
786.992579954737
 20
-635.5526084361011
 30
0.0
 40
5.012131690979004
  1
38.
  7
_TCW_TXTSTY_14
 11
786.992579954737
 21
-630.5404767451221
 31
0.0
100
AcDbText
 73
     3
1001
TCAD
1000
TCW40_TEXT
1002
{
1000
Times New Roman
1070
     0
1070
   257
1002
}
1000
TCW_CUSTOM_DATA
1002
{
1000
#$AUX@_ToolInfo Properties
1070
     8
1000
CMD_TEXT@
1002
}
  0
CIRCLE
  5
1C0
330
1F
100
AcDbEntity
  8
0
  6
Continuous
 62
     5
420
      255
370
     0
100
AcDbCircle
 10
791.2909243895571
 20
-633.1345302730144
 30
0.0
 40
5.862654945854388
1001
TCAD
1000
TCW_CUSTOM_DATA
1002
{
1000
#$AUX@_ToolInfo Properties
1070
     8
1000
CMD_CENTERPTCIRCLE@
1002
}
  0
TEXT
  5
1C2
330
1F
100
AcDbEntity
  8
0
  6
Continuous
 62
     5
420
      255
100
AcDbText
 10
786.6870545603751
 20
-672.5211811538845
 30
0.0
 40
5.012131690979004
  1
38.
  7
_TCW_TXTSTY_15
 11
786.6870545603751
 21
-667.5090494629055
 31
0.0
100
AcDbText
 73
     3
1001
TCAD
1000
TCW40_TEXT
1002
{
1000
Times New Roman
1070
     0
1070
   257
1002
}
1000
TCW_CUSTOM_DATA
1002
{
1000
#$AUX@_ToolInfo Properties
1070
     8
1000
CMD_TEXT@
1002
}
  0
CIRCLE
  5
1C3
330
1F
100
AcDbEntity
  8
0
  6
Continuous
 62
     5
420
      255
370
     0
100
AcDbCircle
 10
790.9853989951952
 20
-670.1031029907979
 30
0.0
 40
5.862654945854388
1001
TCAD
1000
TCW_CUSTOM_DATA
1002
{
1000
#$AUX@_ToolInfo Properties
1070
     8
1000
CMD_CENTERPTCIRCLE@
1002
}
  0
TEXT
  5
1C5
330
1F
100
AcDbEntity
  8
0
  6
Continuous
 62
     5
420
      255
100
AcDbText
 10
806.851730588257
 20
-652.9675559147263
 30
0.0
 40
5.012131690979004
  1
39.
  7
_TCW_TXTSTY_16
 11
806.851730588257
 21
-647.9554242237473
 31
0.0
100
AcDbText
 73
     3
1001
TCAD
1000
TCW40_TEXT
1002
{
1000
Times New Roman
1070
     0
1070
   257
1002
}
1000
TCW_CUSTOM_DATA
1002
{
1000
#$AUX@_ToolInfo Properties
1070
     8
1000
CMD_TEXT@
1002
}
  0
CIRCLE
  5
1C6
330
1F
100
AcDbEntity
  8
0
  6
Continuous
 62
     5
420
      255
370
     0
100
AcDbCircle
 10
811.1500750230771
 20
-650.5494777516396
 30
0.0
 40
5.862654945854388
1001
TCAD
1000
TCW_CUSTOM_DATA
1002
{
1000
#$AUX@_ToolInfo Properties
1070
     8
1000
CMD_CENTERPTCIRCLE@
1002
}
  0
LWPOLYLINE
  5
1C7
330
1F
100
AcDbEntity
  8
0
  6
Continuous
 62
     5
420
      255
370
     0
100
AcDbPolyline
 90
        4
 70
   128
 43
0.0
 10
833.5561050996226
 20
-642.1806685961225
 10
818.7682054572357
 20
-642.1806685961225
 10
824.0922920815389
 20
-640.5867632454461
 10
802.1760935097378
 20
-640.5867632454461
1001
TCAD
1000
TCW_CUSTOM_DATA
1002
{
1000
#$AUX@_ToolInfo Properties
1070
     8
1000
CMD_POLYLINE@
1002
}
  0
LWPOLYLINE
  5
1C8
330
1F
100
AcDbEntity
  8
0
  6
Continuous
 62
     5
420
      255
370
     0
100
AcDbPolyline
 90
        3
 70
   128
 43
0.0
 10
833.5671738883376
 20
-641.3837159207843
 10
823.5167151493498
 20
-641.3837159207843
 10
826.084673769884
 20
-640.5424880968161
1001
TCAD
1000
TCW_CUSTOM_DATA
1002
{
1000
#$AUX@_ToolInfo Properties
1070
     8
1000
CMD_POLYLINE@
1002
}
  0
LWPOLYLINE
  5
1C9
330
1F
100
AcDbEntity
  8
0
  6
Continuous
 62
     5
420
      255
370
     0
100
AcDbPolyline
 90
        3
 70
   128
 43
0.0
 10
802.5302946987769
 20
-642.2249437447525
 10
816.4769665171958
 20
-642.2249437447525
 10
820.7716559342963
 20
-640.8524141372255
1001
TCAD
1000
TCW_CUSTOM_DATA
1002
{
1000
#$AUX@_ToolInfo Properties
1070
     8
1000
CMD_POLYLINE@
1002
}
  0
LINE
  5
1CA
330
1F
100
AcDbEntity
  8
0
  6
Continuous
 62
     5
420
      255
370
     0
100
AcDbLine
 10
826.0465348287322
 20
-640.561651962987
 30
0.0
 11
833.4745642426843
 21
-640.561651962987
 31
0.0
1001
TCAD
1000
TCW_CUSTOM_DATA
1002
{
1000
#$AUX@_ToolInfo Properties
1070
     8
1000
CMD_LINE@
1002
}
  0
LWPOLYLINE
  5
1CB
330
1F
100
AcDbEntity
  8
0
  6
Continuous
 62
     5
420
      255
370
     0
100
AcDbPolyline
 90
        4
 70
   128
 43
0.0
 10
833.2505797052607
 20
-678.843715919544
 10
818.4626800628738
 20
-678.843715919544
 10
823.786766687177
 20
-677.2498105688677
 10
801.8705681153759
 20
-677.2498105688677
1001
TCAD
1000
TCW_CUSTOM_DATA
1002
{
1000
#$AUX@_ToolInfo Properties
1070
     8
1000
CMD_POLYLINE@
1002
}
  0
LWPOLYLINE
  5
1CC
330
1F
100
AcDbEntity
  8
0
  6
Continuous
 62
     5
420
      255
370
     0
100
AcDbPolyline
 90
        3
 70
   128
 43
0.0
 10
833.2616484939757
 20
-678.0467632442059
 10
823.2111897549879
 20
-678.0467632442059
 10
825.7791483755221
 20
-677.2055354202377
1001
TCAD
1000
TCW_CUSTOM_DATA
1002
{
1000
#$AUX@_ToolInfo Properties
1070
     8
1000
CMD_POLYLINE@
1002
}
  0
LWPOLYLINE
  5
1CD
330
1F
100
AcDbEntity
  8
0
  6
Continuous
 62
     5
420
      255
370
     0
100
AcDbPolyline
 90
        3
 70
   128
 43
0.0
 10
802.224769304415
 20
-678.8879910681741
 10
816.1714411228339
 20
-678.8879910681741
 10
820.4661305399344
 20
-677.5154614606471
1001
TCAD
1000
TCW_CUSTOM_DATA
1002
{
1000
#$AUX@_ToolInfo Properties
1070
     8
1000
CMD_POLYLINE@
1002
}
  0
LINE
  5
1CE
330
1F
100
AcDbEntity
  8
0
  6
Continuous
 62
     5
420
      255
370
     0
100
AcDbLine
 10
825.7410094343703
 20
-677.2246992864085
 30
0.0
 11
833.1690388483224
 21
-677.2246992864085
 31
0.0
1001
TCAD
1000
TCW_CUSTOM_DATA
1002
{
1000
#$AUX@_ToolInfo Properties
1070
     8
1000
CMD_LINE@
1002
}
  0
LINE
  5
1CF
330
1F
100
AcDbEntity
  8
0
  6
Continuous
 62
     5
420
      255
370
     0
100
AcDbLine
 10
754.7926470384909
 20
-621.7213043650349
 30
0.0
 11
754.7926470384909
 21
-625.7730797773834
 31
0.0
1001
TCAD
1000
TCW_CUSTOM_DATA
1002
{
1000
#$AUX@_ToolInfo Properties
1070
     8
1000
CMD_LINE@
1002
}
  0
LINE
  5
1D0
330
1F
100
AcDbEntity
  8
0
  6
Continuous
 62
     5
420
      255
370
     0
100
AcDbLine
 10
753.3060293711492
 20
-624.2590994554915
 30
0.0
 11
756.7290810143513
 21
-624.2590994554915
 31
0.0
1001
TCAD
1000
TCW_CUSTOM_DATA
1002
{
1000
#$AUX@_ToolInfo Properties
1070
     8
1000
CMD_LINE@
1002
}
  0
CIRCLE
  5
1D1
330
1F
100
AcDbEntity
  8
0
  6
Continuous
 62
     7
370
     0
100
AcDbCircle
 10
754.7926552511399
 20
-624.2590994517873
 30
0.0
 40
10.5
1001
TCAD
1000
TCW_CUSTOM_DATA
1002
{
1000
#$AUX@_ToolInfo Properties
1070
     8
1000
CMD_CENTERPTCIRCLE@
1002
}
  0
CIRCLE
  5
1D2
330
1F
100
AcDbEntity
  8
0
  6
Continuous
 62
     7
370
     0
100
AcDbCircle
 10
754.7924950437034
 20
-624.2593529934488
 30
0.0
 40
18.0
1001
TCAD
1000
TCW_CUSTOM_DATA
1002
{
1000
#$AUX@_ToolInfo Properties
1070
     8
1000
CMD_CENTERPTCIRCLE@
1002
}
  0
LWPOLYLINE
  5
1D3
330
1F
100
AcDbEntity
  8
0
  6
Continuous
 62
     5
420
      255
370
     0
100
AcDbPolyline
 90
       59
 70
   129
 43
0.0
 10
743.7954858326821
 20
-610.0092569067345
 10
749.1746917639966
 20
-615.388462838049
 10
749.1713297093804
 20
-615.3905684846911
 10
749.1676768196037
 20
-615.3928951660778
 10
749.1603012396133
 20
-615.397595062481
 10
749.1421531247984
 20
-615.4091354021582
 10
749.1217713958522
 20
-615.4221648179229
 10
749.1090444486783
 20
-615.4303547363988
 10
749.0837301551926
 20
-615.4466415061047
 10
749.0393370743413
 20
-615.4755854225557
 10
748.9950370607417
 20
-615.504994675278
 10
748.9352878827463
 20
-615.544641326101
 10
748.8708853419666
 20
-615.5881968016571
 10
748.7522245913487
 20
-615.6717711970953
 10
748.5005707325802
 20
-615.8534384797566
 10
748.2474277977242
 20
-616.0499965232918
 10
748.0151319280917
 20
-616.23910918639
 10
747.7843251346353
 20
-616.438645382027
 10
747.629461221547
 20
-616.5830857625036
 10
747.4611956236722
 20
-616.7439059799415
 10
747.2795283410107
 20
-616.9240841865154
 10
747.0632400394286
 20
-617.1534019038709
 10
746.8443458545826
 20
-617.3976103822024
 10
746.6165172132121
 20
-617.6701113061945
 10
746.4050684088031
 20
-617.9441013062738
 10
746.2435036533659
 20
-618.1629954910321
 10
746.0975741968018
 20
-618.3729552193538
 10
745.9695136532864
 20
-618.5680241868016
 10
745.92186321849
 20
-618.6409889150837
 10
740.542721270881
 20
-613.2618644175404
 10
740.544978151826
 20
-613.2589560658072
 10
740.5481482552148
 20
-613.2549076401955
 10
740.5509868065062
 20
-613.2512082167909
 10
740.5546222461724
 20
-613.2465083203905
 10
740.5588451728881
 20
-613.2410173523186
 10
740.575771779985
 20
-613.2193792154314
 10
740.5945713655881
 20
-613.1951817290113
 10
740.6154184308116
 20
-613.1683783594383
 10
740.6410584596829
 20
-613.1358048200395
 10
740.6684202327888
 20
-613.1009976664969
 10
740.6961542749164
 20
-613.0660043784433
 10
740.71904881976
 20
-613.037339663761
 10
740.7452472521641
 20
-613.0047661243623
 10
740.7778207915758
 20
-612.9640026664702
 10
740.805927102725
 20
-612.9291955129274
 10
740.9275194720526
 20
-612.7806601732691
 10
741.0689817003542
 20
-612.6123945753943
 10
741.2551162112777
 20
-612.3979676188105
 10
741.4896456949971
 20
-612.1314229992118
 10
741.6325969993864
 20
-611.9810263143856
 10
741.9534928961741
 20
-611.6444951186799
 10
742.1187803418741
 20
-611.4777185968925
 10
742.460895572885
 20
-611.1456546295071
 10
742.7244620403526
 20
-610.9044243033504
 10
743.0058974208689
 20
-610.6557485967567
 10
743.2970117959089
 20
-610.4085619662649
 10
743.5780749073369
 20
-610.1807333249237
 10
743.7880346356585
 20
-610.0154458792238
 10
743.7954800159816
 20
-610.009210373107
1001
TCAD
1000
TCW_CUSTOM_DATA
1002
{
1000
#$AUX@_ToolInfo Properties
1070
     8
1000
CMD_POLYLINE@
1002
}
  0
LWPOLYLINE
  5
1D4
330
1F
100
AcDbEntity
  8
0
  6
Continuous
 62
     5
420
      255
370
     0
100
AcDbPolyline
 90
       59
 70
   129
 43
0.0
 10
765.7697961952165
 20
-638.4885699807861
 10
760.3905902639019
 20
-633.1093640494717
 10
760.3939523185181
 20
-633.1072584028294
 10
760.3976052082949
 20
-633.1049317214429
 10
760.4049807882852
 20
-633.1002318250397
 10
760.4231289031002
 20
-633.0886914853625
 10
760.4435106320464
 20
-633.0756620695978
 10
760.4562375792202
 20
-633.0674721511217
 10
760.481551872706
 20
-633.051185381416
 10
760.5259449535572
 20
-633.022241464965
 10
760.5702449671569
 20
-632.9928322122427
 10
760.6299941451523
 20
-632.9531855614197
 10
760.6943966859319
 20
-632.9096300858636
 10
760.8130574365498
 20
-632.8260556904254
 10
761.0647112953184
 20
-632.644388407764
 10
761.3178542301744
 20
-632.4478303642288
 10
761.5501500998068
 20
-632.2587177011305
 10
761.7809568932632
 20
-632.0591815054936
 10
761.9358208063516
 20
-631.914741125017
 10
762.1040864042263
 20
-631.7539209075792
 10
762.2857536868878
 20
-631.5737427010052
 10
762.50204198847
 20
-631.3444249836498
 10
762.720936173316
 20
-631.1002165053181
 10
762.9487648146865
 20
-630.8277155813262
 10
763.1602136190954
 20
-630.5537255812469
 10
763.3217783745326
 20
-630.3348313964884
 10
763.4677078310967
 20
-630.1248716681669
 10
763.5957683746121
 20
-629.929802700719
 10
763.6434188094086
 20
-629.856837972437
 10
769.0225607570176
 20
-635.2359624699802
 10
769.0203038760726
 20
-635.2388708217135
 10
769.0171337726838
 20
-635.2429192473252
 10
769.0142952213923
 20
-635.2466186707297
 10
769.0106597817262
 20
-635.2513185671302
 10
769.0064368550104
 20
-635.2568095352019
 10
768.9895102479136
 20
-635.2784476720892
 10
768.9707106623105
 20
-635.3026451585093
 10
768.949863597087
 20
-635.3294485280823
 10
768.9242235682157
 20
-635.362022067481
 10
768.8968617951098
 20
-635.3968292210237
 10
768.8691277529822
 20
-635.4318225090774
 10
768.8462332081385
 20
-635.4604872237595
 10
768.8200347757345
 20
-635.4930607631583
 10
768.7874612363228
 20
-635.5338242210505
 10
768.7593549251735
 20
-635.5686313745932
 10
768.6377625558459
 20
-635.7171667142516
 10
768.4963003275443
 20
-635.8854323121263
 10
768.3101658166208
 20
-636.0998592687101
 10
768.0756363329015
 20
-636.3664038883088
 10
767.9326850285122
 20
-636.5168005731349
 10
767.6117891317244
 20
-636.8533317688407
 10
767.4465016860245
 20
-637.0201082906282
 10
767.1043864550136
 20
-637.3521722580134
 10
766.840819987546
 20
-637.5934025841702
 10
766.5593846070296
 20
-637.842078290764
 10
766.2682702319896
 20
-638.0892649212558
 10
765.9872071205616
 20
-638.3170935625969
 10
765.77724739224
 20
-638.4823810082969
 10
765.7698020119169
 20
-638.4886165144137
1001
TCAD
1000
TCW_CUSTOM_DATA
1002
{
1000
#$AUX@_ToolInfo Properties
1070
     8
1000
CMD_POLYLINE@
1002
}
  0
LWPOLYLINE
  5
1D5
330
1F
100
AcDbEntity
  8
0
  6
Continuous
 62
     5
420
      255
370
     0
100
AcDbPolyline
 90
       59
 70
   129
 43
0.0
 10
740.5681518997801
 20
-635.2597731457352
 10
745.9473578310947
 20
-629.8805672144206
 10
745.9494634777368
 20
-629.8839292690368
 10
745.9517901591234
 20
-629.8875821588135
 10
745.9564900555265
 20
-629.8949577388039
 10
745.9680303952039
 20
-629.9131058536188
 10
745.9810598109684
 20
-629.933487582565
 10
745.9892497294445
 20
-629.9462145297389
 10
746.0055364991504
 20
-629.9715288232246
 10
746.0344804156014
 20
-630.0159219040759
 10
746.0638896683236
 20
-630.0602219176756
 10
746.1035363191465
 20
-630.119971095671
 10
746.1470917947026
 20
-630.1843736364506
 10
746.2306661901409
 20
-630.3030343870685
 10
746.4123334728022
 20
-630.554688245837
 10
746.6088915163375
 20
-630.807831180693
 10
746.7980041794356
 20
-631.0401270503255
 10
746.9975403750725
 20
-631.2709338437819
 10
747.1419807555492
 20
-631.4257977568702
 10
747.3028009729871
 20
-631.594063354745
 10
747.482979179561
 20
-631.7757306374065
 10
747.7122968969165
 20
-631.9920189389886
 10
747.9565053752481
 20
-632.2109131238346
 10
748.2290062992402
 20
-632.4387417652051
 10
748.5029962993194
 20
-632.6501905696141
 10
748.7218904840777
 20
-632.8117553250513
 10
748.9318502123995
 20
-632.9576847816154
 10
749.1269191798472
 20
-633.0857453251308
 10
749.1998839081293
 20
-633.1333957599272
 10
743.8207594105861
 20
-638.5125377075362
 10
743.8178510588527
 20
-638.5102808265913
 10
743.813802633241
 20
-638.5071107232025
 10
743.8101032098366
 20
-638.504272171911
 10
743.805403313436
 20
-638.5006367322449
 10
743.7999123453642
 20
-638.4964138055291
 10
743.7782742084771
 20
-638.4794871984323
 10
743.7540767220569
 20
-638.4606876128291
 10
743.727273352484
 20
-638.4398405476056
 10
743.6946998130852
 20
-638.4142005187343
 10
743.6598926595425
 20
-638.3868387456284
 10
743.6248993714889
 20
-638.3591047035009
 10
743.5962346568067
 20
-638.3362101586572
 10
743.563661117408
 20
-638.3100117262532
 10
743.5228976595158
 20
-638.2774381868414
 10
743.4880905059731
 20
-638.2493318756922
 10
743.3395551663148
 20
-638.1277395063646
 10
743.17128956844
 20
-637.986277278063
 10
742.9568626118562
 20
-637.8001427671395
 10
742.6903179922574
 20
-637.5656132834201
 10
742.5399213074313
 20
-637.4226619790309
 10
742.2033901117254
 20
-637.1017660822431
 10
742.036613589938
 20
-636.9364786365431
 10
741.7045496225528
 20
-636.5943634055322
 10
741.4633192963961
 20
-636.3307969380646
 10
741.2146435898023
 20
-636.0493615575483
 10
740.9674569593105
 20
-635.7582471825083
 10
740.7396283179694
 20
-635.4771840710803
 10
740.5743408722694
 20
-635.2672243427587
 10
740.5681053661526
 20
-635.2597789624356
1001
TCAD
1000
TCW_CUSTOM_DATA
1002
{
1000
#$AUX@_ToolInfo Properties
1070
     8
1000
CMD_POLYLINE@
1002
}
  0
LWPOLYLINE
  5
1D6
330
1F
100
AcDbEntity
  8
0
  6
Continuous
 62
     5
420
      255
370
     0
100
AcDbPolyline
 90
       59
 70
   129
 43
0.0
 10
765.8174466300529
 20
-610.0104784153076
 10
760.4382406987384
 20
-615.389684346622
 10
760.4416027533546
 20
-615.3917899932642
 10
760.4452556431313
 20
-615.3941166746507
 10
760.4526312231217
 20
-615.398816571054
 10
760.4707793379366
 20
-615.4103569107313
 10
760.4911610668828
 20
-615.4233863264959
 10
760.5038880140567
 20
-615.4315762449719
 10
760.5292023075424
 20
-615.4478630146778
 10
760.5735953883936
 20
-615.4768069311287
 10
760.6178954019933
 20
-615.5062161838509
 10
760.6776445799887
 20
-615.545862834674
 10
760.7420471207683
 20
-615.5894183102301
 10
760.8607078713862
 20
-615.6729927056683
 10
761.1123617301548
 20
-615.8546599883297
 10
761.3655046650108
 20
-616.0512180318648
 10
761.5978005346433
 20
-616.2403306949631
 10
761.8286073280997
 20
-616.4398668906
 10
761.983471241188
 20
-616.5843072710766
 10
762.1517368390628
 20
-616.7451274885145
 10
762.3334041217242
 20
-616.9253056950884
 10
762.5496924233064
 20
-617.1546234124439
 10
762.7685866081524
 20
-617.3988318907755
 10
762.9964152495229
 20
-617.6713328147674
 10
763.2078640539319
 20
-617.9453228148468
 10
763.3694288093691
 20
-618.1642169996052
 10
763.5153582659332
 20
-618.3741767279269
 10
763.6434188094486
 20
-618.5692456953747
 10
763.691069244245
 20
-618.6422104236567
 10
769.070211191854
 20
-613.2630859261134
 10
769.067954310909
 20
-613.2601775743802
 10
769.0647842075202
 20
-613.2561291487685
 10
769.0619456562288
 20
-613.2524297253639
 10
769.0583102165626
 20
-613.2477298289635
 10
769.0540872898468
 20
-613.2422388608917
 10
769.03716068275
 20
-613.2206007240044
 10
769.0183610971469
 20
-613.1964032375844
 10
768.9975140319234
 20
-613.1695998680113
 10
768.9718740030521
 20
-613.1370263286126
 10
768.9445122299462
 20
-613.1022191750699
 10
768.9167781878186
 20
-613.0672258870163
 10
768.893883642975
 20
-613.0385611723341
 10
768.8676852105709
 20
-613.0059876329353
 10
768.8351116711592
 20
-612.9652241750431
 10
768.80700536001
 20
-612.9304170215005
 10
768.6854129906824
 20
-612.7818816818422
 10
768.5439507623807
 20
-612.6136160839674
 10
768.3578162514573
 20
-612.3991891273835
 10
768.1232867677379
 20
-612.1326445077849
 10
767.9803354633486
 20
-611.9822478229587
 10
767.6594395665609
 20
-611.6457166272529
 10
767.4941521208609
 20
-611.4789401054654
 10
767.15203688985
 20
-611.1468761380802
 10
766.8884704223824
 20
-610.9056458119235
 10
766.6070350418661
 20
-610.6569701053297
 10
766.3159206668261
 20
-610.4097834748379
 10
766.034857555398
 20
-610.1819548334968
 10
765.8248978270765
 20
-610.0166673877967
 10
765.8174524467534
 20
-610.01043188168
1001
TCAD
1000
TCW_CUSTOM_DATA
1002
{
1000
#$AUX@_ToolInfo Properties
1070
     8
1000
CMD_POLYLINE@
1002
}
  0
LINE
  5
1D7
330
1F
100
AcDbEntity
  8
0
  6
Continuous
 62
     5
420
      255
370
     0
100
AcDbLine
 10
712.5638838928693
 20
-621.4056013858781
 30
0.0
 11
712.5638838928693
 21
-625.4573767982265
 31
0.0
1001
TCAD
1000
TCW_CUSTOM_DATA
1002
{
1000
#$AUX@_ToolInfo Properties
1070
     8
1000
CMD_LINE@
1002
}
  0
LINE
  5
1D8
330
1F
100
AcDbEntity
  8
0
  6
Continuous
 62
     5
420
      255
370
     0
100
AcDbLine
 10
711.0772662255275
 20
-623.9433964763347
 30
0.0
 11
714.5003178687297
 21
-623.9433964763347
 31
0.0
1001
TCAD
1000
TCW_CUSTOM_DATA
1002
{
1000
#$AUX@_ToolInfo Properties
1070
     8
1000
CMD_LINE@
1002
}
  0
CIRCLE
  5
1D9
330
1F
100
AcDbEntity
  8
0
  6
Continuous
 62
     7
370
     0
100
AcDbCircle
 10
712.5638921055182
 20
-623.9433964726304
 30
0.0
 40
10.5
1001
TCAD
1000
TCW_CUSTOM_DATA
1002
{
1000
#$AUX@_ToolInfo Properties
1070
     8
1000
CMD_CENTERPTCIRCLE@
1002
}
  0
CIRCLE
  5
1DA
330
1F
100
AcDbEntity
  8
0
  6
Continuous
 62
     7
370
     0
100
AcDbCircle
 10
712.5637318980818
 20
-623.943650014292
 30
0.0
 40
18.0
1001
TCAD
1000
TCW_CUSTOM_DATA
1002
{
1000
#$AUX@_ToolInfo Properties
1070
     8
1000
CMD_CENTERPTCIRCLE@
1002
}
  0
LWPOLYLINE
  5
1DB
330
1F
100
AcDbEntity
  8
0
  6
Continuous
 62
     5
420
      255
370
     0
100
AcDbPolyline
 90
       59
 70
   129
 43
0.0
 10
701.5667226870604
 20
-609.6935539275777
 10
706.945928618375
 20
-615.0727598588921
 10
706.9425665637588
 20
-615.0748655055343
 10
706.938913673982
 20
-615.0771921869209
 10
706.9315380939917
 20
-615.0818920833241
 10
706.9133899791767
 20
-615.0934324230013
 10
706.8930082502305
 20
-615.106461838766
 10
706.8802813030567
 20
-615.114651757242
 10
706.8549670095709
 20
-615.1309385269478
 10
706.8105739287197
 20
-615.1598824433988
 10
706.76627391512
 20
-615.1892916961211
 10
706.7065247371246
 20
-615.2289383469441
 10
706.642122196345
 20
-615.2724938225002
 10
706.5234614457271
 20
-615.3560682179384
 10
706.2718075869585
 20
-615.5377355005998
 10
706.0186646521025
 20
-615.734293544135
 10
705.78636878247
 20
-615.9234062072331
 10
705.5555619890137
 20
-616.1229424028701
 10
705.4006980759253
 20
-616.2673827833468
 10
705.2324324780506
 20
-616.4282030007846
 10
705.0507651953891
 20
-616.6083812073585
 10
704.8344768938069
 20
-616.837698924714
 10
704.6155827089609
 20
-617.0819074030455
 10
704.3877540675904
 20
-617.3544083270376
 10
704.1763052631815
 20
-617.6283983271169
 10
704.0147405077442
 20
-617.8472925118753
 10
703.8688110511802
 20
-618.0572522401969
 10
703.7407505076648
 20
-618.2523212076447
 10
703.6931000728683
 20
-618.3252859359268
 10
698.3139581252593
 20
-612.9461614383836
 10
698.3162150062043
 20
-612.9432530866503
 10
698.3193851095931
 20
-612.9392046610386
 10
698.3222236608846
 20
-612.9355052376341
 10
698.3258591005507
 20
-612.9308053412336
 10
698.3300820272665
 20
-612.9253143731618
 10
698.3470086343633
 20
-612.9036762362746
 10
698.3658082199664
 20
-612.8794787498545
 10
698.3866552851899
 20
-612.8526753802814
 10
698.4122953140612
 20
-612.8201018408827
 10
698.4396570871671
 20
-612.7852946873401
 10
698.4673911292947
 20
-612.7503013992864
 10
698.4902856741384
 20
-612.7216366846042
 10
698.5164841065424
 20
-612.6890631452054
 10
698.5490576459541
 20
-612.6482996873133
 10
698.5771639571034
 20
-612.6134925337706
 10
698.698756326431
 20
-612.4649571941122
 10
698.8402185547326
 20
-612.2966915962375
 10
699.026353065656
 20
-612.0822646396537
 10
699.2608825493754
 20
-611.815720020055
 10
699.4038338537647
 20
-611.6653233352288
 10
699.7247297505525
 20
-611.328792139523
 10
699.8900171962524
 20
-611.1620156177356
 10
700.2321324272633
 20
-610.8299516503503
 10
700.4956988947309
 20
-610.5887213241936
 10
700.7771342752472
 20
-610.3400456175998
 10
701.0682486502873
 20
-610.092858987108
 10
701.3493117617153
 20
-609.8650303457669
 10
701.5592714900368
 20
-609.6997429000669
 10
701.56671687036
 20
-609.6935073939501
1001
TCAD
1000
TCW_CUSTOM_DATA
1002
{
1000
#$AUX@_ToolInfo Properties
1070
     8
1000
CMD_POLYLINE@
1002
}
  0
LWPOLYLINE
  5
1DC
330
1F
100
AcDbEntity
  8
0
  6
Continuous
 62
     5
420
      255
370
     0
100
AcDbPolyline
 90
       59
 70
   129
 43
0.0
 10
723.5410330495948
 20
-638.1728670016292
 10
718.1618271182803
 20
-632.7936610703148
 10
718.1651891728965
 20
-632.7915554236725
 10
718.1688420626732
 20
-632.789228742286
 10
718.1762176426636
 20
-632.7845288458828
 10
718.1943657574785
 20
-632.7729885062056
 10
718.2147474864247
 20
-632.7599590904409
 10
718.2274744335986
 20
-632.7517691719648
 10
718.2527887270843
 20
-632.7354824022591
 10
718.2971818079355
 20
-632.7065384858081
 10
718.3414818215352
 20
-632.6771292330858
 10
718.4012309995306
 20
-632.6374825822628
 10
718.4656335403103
 20
-632.5939271067067
 10
718.5842942909281
 20
-632.5103527112685
 10
718.8359481496967
 20
-632.3286854286072
 10
719.0890910845527
 20
-632.132127385072
 10
719.3213869541852
 20
-631.9430147219737
 10
719.5521937476416
 20
-631.7434785263367
 10
719.7070576607299
 20
-631.5990381458602
 10
719.8753232586047
 20
-631.4382179284223
 10
720.0569905412661
 20
-631.2580397218484
 10
720.2732788428483
 20
-631.0287220044929
 10
720.4921730276943
 20
-630.7845135261613
 10
720.7200016690648
 20
-630.5120126021693
 10
720.9314504734738
 20
-630.23802260209
 10
721.093015228911
 20
-630.0191284173316
 10
721.2389446854751
 20
-629.80916868901
 10
721.3670052289905
 20
-629.6140997215622
 10
721.4146556637869
 20
-629.5411349932801
 10
726.7937976113959
 20
-634.9202594908234
 10
726.791540730451
 20
-634.9231678425566
 10
726.7883706270621
 20
-634.9272162681683
 10
726.7855320757707
 20
-634.9309156915729
 10
726.7818966361045
 20
-634.9356155879733
 10
726.7776737093888
 20
-634.941106556045
 10
726.7607471022919
 20
-634.9627446929323
 10
726.7419475166888
 20
-634.9869421793525
 10
726.7211004514653
 20
-635.0137455489254
 10
726.695460422594
 20
-635.0463190883241
 10
726.6680986494881
 20
-635.0811262418669
 10
726.6403646073605
 20
-635.1161195299205
 10
726.6174700625169
 20
-635.1447842446026
 10
726.5912716301128
 20
-635.1773577840014
 10
726.5586980907011
 20
-635.2181212418936
 10
726.5305917795519
 20
-635.2529283954364
 10
726.4089994102243
 20
-635.4014637350947
 10
726.2675371819226
 20
-635.5697293329695
 10
726.0814026709992
 20
-635.7841562895533
 10
725.8468731872798
 20
-636.0507009091519
 10
725.7039218828905
 20
-636.201097593978
 10
725.3830259861028
 20
-636.5376287896838
 10
725.2177385404028
 20
-636.7044053114713
 10
724.8756233093919
 20
-637.0364692788565
 10
724.6120568419243
 20
-637.2776996050134
 10
724.330621461408
 20
-637.5263753116071
 10
724.039507086368
 20
-637.7735619420989
 10
723.75844397494
 20
-638.0013905834401
 10
723.5484842466184
 20
-638.16667802914
 10
723.5410388662953
 20
-638.1729135352568
1001
TCAD
1000
TCW_CUSTOM_DATA
1002
{
1000
#$AUX@_ToolInfo Properties
1070
     8
1000
CMD_POLYLINE@
1002
}
  0
LWPOLYLINE
  5
1DD
330
1F
100
AcDbEntity
  8
0
  6
Continuous
 62
     5
420
      255
370
     0
100
AcDbPolyline
 90
       59
 70
   129
 43
0.0
 10
698.3393887541584
 20
-634.9440701665783
 10
703.718594685473
 20
-629.5648642352637
 10
703.7207003321151
 20
-629.5682262898799
 10
703.7230270135018
 20
-629.5718791796567
 10
703.7277269099048
 20
-629.579254759647
 10
703.7392672495822
 20
-629.597402874462
 10
703.7522966653468
 20
-629.6177846034082
 10
703.7604865838229
 20
-629.630511550582
 10
703.7767733535287
 20
-629.6558258440677
 10
703.8057172699797
 20
-629.700218924919
 10
703.8351265227019
 20
-629.7445189385187
 10
703.8747731735249
 20
-629.8042681165141
 10
703.918328649081
 20
-629.8686706572937
 10
704.0019030445193
 20
-629.9873314079116
 10
704.1835703271805
 20
-630.2389852666802
 10
704.3801283707159
 20
-630.4921282015362
 10
704.5692410338139
 20
-630.7244240711686
 10
704.7687772294508
 20
-630.955230864625
 10
704.9132176099275
 20
-631.1100947777134
 10
705.0740378273655
 20
-631.2783603755881
 10
705.2542160339393
 20
-631.4600276582496
 10
705.4835337512949
 20
-631.6763159598318
 10
705.7277422296264
 20
-631.8952101446778
 10
706.0002431536185
 20
-632.1230387860483
 10
706.2742331536978
 20
-632.3344875904572
 10
706.493127338456
 20
-632.4960523458944
 10
706.7030870667778
 20
-632.6419818024585
 10
706.8981560342255
 20
-632.7700423459739
 10
706.9711207625077
 20
-632.8176927807704
 10
701.5919962649645
 20
-638.1968347283794
 10
701.5890879132311
 20
-638.1945778474344
 10
701.5850394876194
 20
-638.1914077440456
 10
701.5813400642149
 20
-638.1885691927541
 10
701.5766401678144
 20
-638.184933753088
 10
701.5711491997425
 20
-638.1807108263722
 10
701.5495110628555
 20
-638.1637842192754
 10
701.5253135764352
 20
-638.1449846336723
 10
701.4985102068623
 20
-638.1241375684488
 10
701.4659366674636
 20
-638.0984975395775
 10
701.4311295139208
 20
-638.0711357664716
 10
701.3961362258673
 20
-638.043401724344
 10
701.367471511185
 20
-638.0205071795003
 10
701.3348979717863
 20
-637.9943087470963
 10
701.2941345138942
 20
-637.9617352076846
 10
701.2593273603514
 20
-637.9336288965353
 10
701.1107920206931
 20
-637.8120365272077
 10
700.9425264228183
 20
-637.6705742989061
 10
700.7280994662345
 20
-637.4844397879826
 10
700.4615548466357
 20
-637.2499103042633
 10
700.3111581618097
 20
-637.106958999874
 10
699.9746269661038
 20
-636.7860631030862
 10
699.8078504443164
 20
-636.6207756573863
 10
699.4757864769311
 20
-636.2786604263754
 10
699.2345561507744
 20
-636.0150939589078
 10
698.9858804441807
 20
-635.7336585783914
 10
698.7386938136889
 20
-635.4425442033514
 10
698.5108651723477
 20
-635.1614810919234
 10
698.3455777266478
 20
-634.9515213636018
 10
698.339342220531
 20
-634.9440759832787
1001
TCAD
1000
TCW_CUSTOM_DATA
1002
{
1000
#$AUX@_ToolInfo Properties
1070
     8
1000
CMD_POLYLINE@
1002
}
  0
LWPOLYLINE
  5
1DE
330
1F
100
AcDbEntity
  8
0
  6
Continuous
 62
     5
420
      255
370
     0
100
AcDbPolyline
 90
       59
 70
   129
 43
0.0
 10
723.5886834844313
 20
-609.6947754361507
 10
718.2094775531167
 20
-615.0739813674651
 10
718.2128396077329
 20
-615.0760870141073
 10
718.2164924975096
 20
-615.0784136954939
 10
718.2238680775
 20
-615.0831135918971
 10
718.242016192315
 20
-615.0946539315744
 10
718.2623979212611
 20
-615.107683347339
 10
718.275124868435
 20
-615.115873265815
 10
718.3004391619207
 20
-615.1321600355209
 10
718.344832242772
 20
-615.1611039519719
 10
718.3891322563717
 20
-615.1905132046941
 10
718.4488814343671
 20
-615.2301598555172
 10
718.5132839751467
 20
-615.2737153310733
 10
718.6319447257646
 20
-615.3572897265115
 10
718.8835985845332
 20
-615.5389570091728
 10
719.1367415193891
 20
-615.7355150527079
 10
719.3690373890216
 20
-615.9246277158062
 10
719.599844182478
 20
-616.1241639114431
 10
719.7547080955663
 20
-616.2686042919197
 10
719.9229736934411
 20
-616.4294245093577
 10
720.1046409761026
 20
-616.6096027159315
 10
720.3209292776847
 20
-616.8389204332871
 10
720.5398234625308
 20
-617.0831289116186
 10
720.7676521039012
 20
-617.3556298356106
 10
720.9791009083102
 20
-617.6296198356899
 10
721.1406656637474
 20
-617.8485140204483
 10
721.2865951203115
 20
-618.05847374877
 10
721.4146556638269
 20
-618.2535427162178
 10
721.4623060986233
 20
-618.3265074444998
 10
726.8414480462324
 20
-612.9473829469565
 10
726.8391911652874
 20
-612.9444745952234
 10
726.8360210618986
 20
-612.9404261696117
 10
726.8331825106071
 20
-612.936726746207
 10
726.829547070941
 20
-612.9320268498067
 10
726.8253241442252
 20
-612.9265358817348
 10
726.8083975371284
 20
-612.9048977448475
 10
726.7895979515253
 20
-612.8807002584275
 10
726.7687508863017
 20
-612.8538968888545
 10
726.7431108574305
 20
-612.8213233494557
 10
726.7157490843246
 20
-612.786516195913
 10
726.688015042197
 20
-612.7515229078595
 10
726.6651204973533
 20
-612.7228581931772
 10
726.6389220649493
 20
-612.6902846537785
 10
726.6063485255376
 20
-612.6495211958862
 10
726.5782422143883
 20
-612.6147140423436
 10
726.4566498450607
 20
-612.4661787026853
 10
726.3151876167591
 20
-612.2979131048105
 10
726.1290531058356
 20
-612.0834861482266
 10
725.8945236221163
 20
-611.816941528628
 10
725.751572317727
 20
-611.6665448438018
 10
725.4306764209392
 20
-611.330013648096
 10
725.2653889752393
 20
-611.1632371263086
 10
724.9232737442284
 20
-610.8311731589233
 10
724.6597072767607
 20
-610.5899428327666
 10
724.3782718962444
 20
-610.3412671261729
 10
724.0871575212044
 20
-610.094080495681
 10
723.8060944097764
 20
-609.8662518543399
 10
723.5961346814548
 20
-609.7009644086398
 10
723.5886893011317
 20
-609.6947289025231
1001
TCAD
1000
TCW_CUSTOM_DATA
1002
{
1000
#$AUX@_ToolInfo Properties
1070
     8
1000
CMD_POLYLINE@
1002
}
  0
TEXT
  5
1E0
330
1F
100
AcDbEntity
  8
0
  6
Continuous
 62
     5
420
      255
100
AcDbText
 10
729.4020077496314
 20
-642.2454413621739
 30
0.0
 40
5.012131690979004
  1
45.
  7
_TCW_TXTSTY_17
 11
729.4020077496314
 21
-637.2333096711949
 31
0.0
100
AcDbText
 73
     3
1001
TCAD
1000
TCW40_TEXT
1002
{
1000
Times New Roman
1070
     0
1070
   257
1002
}
1000
TCW_CUSTOM_DATA
1002
{
1000
#$AUX@_ToolInfo Properties
1070
     8
1000
CMD_TEXT@
1002
}
  0
CIRCLE
  5
1E1
330
1F
100
AcDbEntity
  8
0
  6
Continuous
 62
     5
420
      255
370
     0
100
AcDbCircle
 10
733.7003521844514
 20
-639.8273631990872
 30
0.0
 40
5.862654945854388
1001
TCAD
1000
TCW_CUSTOM_DATA
1002
{
1000
#$AUX@_ToolInfo Properties
1070
     8
1000
CMD_CENTERPTCIRCLE@
1002
}
  0
DIMENSION
  5
1E3
330
1F
100
AcDbEntity
  8
0
  6
Continuous
 62
     7
100
AcDbDimension
  2
*D19
 10
654.9612706334382
 20
-740.3538912927224
 30
0.0
 11
654.9612706334382
 21
-747.8538912927224
 31
0.0
 70
    33
  1
15
 71
     5
 42
15.0
  3
Standard
100
AcDbAlignedDimension
 13
660.4463712356632
 23
-755.3538912927224
 33
0.0
 14
660.4463712356632
 24
-740.3538912927224
 34
0.0
1001
TCAD
1000
TCW_CUSTOM_DATA
1002
{
1000
#$AUX@_ToolInfo Properties
1070
     8
1000
CMD_ORTHOGONALDIM@
1002
}
1001
ACAD
1000
DSTYLE
1002
{
1070
   148
1040
0.01
1070
   340
1005
1E2
1002
}
  0
LINE
  5
1F1
330
1F
100
AcDbEntity
  8
0
  6
Continuous
 62
     5
420
      255
370
     0
100
AcDbLine
 10
661.199662047939
 20
-740.3534688100485
 30
0.0
 11
665.199662047939
 21
-740.3534688100485
 31
0.0
1001
TCAD
1000
TCW_CUSTOM_DATA
1002
{
1000
#$AUX@_ToolInfo Properties
1070
     8
1000
CMD_LINE@
1002
}
  0
DIMENSION
  5
1F3
330
1F
100
AcDbEntity
  8
0
  6
Continuous
 62
     5
420
      255
100
AcDbDimension
  2
*D20
 10
610.7725269801346
 20
-737.8893677083661
 30
0.0
 11
584.6497269271291
 21
-748.2869449912907
 31
0.0
 70
    34
  1
<>
 71
     5
 42
1.518392990931344
  3
Standard
100
AcDb2LineAngularDimension
 13
580.2562359113355
 23
-774.9185036065562
 33
0.0
 14
676.2252166070793
 24
-774.9185036065562
 34
0.0
 15
612.7147558123677
 25
-774.9185113103608
 35
0.0
 16
592.2114364157558
 26
-742.1084495344106
 36
0.0
1001
TCAD
1000
TCW_DSTYLE
1002
{
1070
     0
1002
}
1000
TCW_CUSTOM_DATA
1002
{
1000
#$AUX@_ToolInfo Properties
1070
     8
1000
CMD_ANGULARDIM@
1002
}
1001
ACAD
1000
DSTYLE
1002
{
1070
   148
1040
0.01
1070
   177
1070
     5
1070
     3
1000

1070
   340
1005
1F2
1002
}
  0
LEADER
  5
204
330
1F
100
AcDbEntity
  8
0
  6
Continuous
 62
     7
370
     0
100
AcDbLeader
  3
Standard
 73
     0
 76
     6
 10
609.5717844773251
 20
-771.967031454614
 30
0.0
 10
605.3819911004473
 20
-767.756752174966
 30
0.0
 10
605.3819911004473
 20
-767.7176784166282
 30
0.0
 10
602.9594180835113
 20
-765.2951053996923
 30
0.0
 10
597.9594180835113
 20
-765.2951053996923
 30
0.0
 10
579.8427188647613
 20
-765.2951053996923
 30
0.0
340
205
1001
TCAD
1000
TCW_CUSTOM_DATA
1002
{
1000
#$AUX@_ToolInfo Properties
1070
     8
1000
CMD_STRINGDIM@
1002
}
1001
ACAD
1000
DSTYLE
1002
{
1070
   148
1040
0.01
1070
    45
1040
0.01
1070
   283
1070
     0
1070
   340
1005
203
1002
}
  0
MTEXT
  5
205
102
{ACAD_REACTORS
330
204
102
}
330
1F
100
AcDbEntity
  8
0
  6
Continuous
 62
     7
100
AcDbMText
 10
597.8969180835113
 20
-765.2326053996923
 30
0.0
 40
3.0
 41
0.0
 71
     9
 72
     1
  1
forrasztva
  7
_TCW_TXTSTY_1A
 73
     1
 44
1.0
1001
TCAD
1000
TCW40_TEXT
1002
{
1000
Times New Roman
1070
     0
1070
  2052
1002
}
1000
TCW_ATTRIBUTE
1002
{
1000
forrasztva
1002
}
1000
TCW_REFPOINT
1002
{
1010
597.8969180835113
1020
-765.2326053996923
1030
0.0
1002
}
  0
MTEXT
  5
206
330
1F
100
AcDbEntity
  8
0
  6
Continuous
 62
     5
420
      255
100
AcDbMText
 10
767.6815138874875
 20
-684.6154393072533
 30
0.0
 40
3.522528076171875
 41
77.29036620259285
 71
     1
 72
     1
  1
{38.:Helyzetlбmpa oldal takarуlemez\P39.:Helyzetlбmpa hбtsу takarуlemez\P45.:Ment\U+0151gy\U+0171r\U+0171 elemek\P46.:Tцmkcs\U+0151\P47.:Kormбnytengely-cs\U+0151\P48.:Siklуcsapбgy \P49.:Kipufogуdob\P50.:Kipufogуcs\U+0151\P51.:Kormбnykar}
  7
_TCW_TXTSTY_1A
 73
     1
 44
1.0
1001
TCAD
1000
TCW40_TEXT
1002
{
1000
Times New Roman
1070
     0
1070
   257
1002
}
1000
TCW_CUSTOM_DATA
1002
{
1000
#$AUX@_ToolInfo Properties
1070
     8
1000
CMD_TEXT@
1002
}
  0
TEXT
  5
207
330
1F
100
AcDbEntity
  8
0
  6
Continuous
 62
     5
420
      255
100
AcDbText
 10
628.7202712968527
 20
-766.9193036297382
 30
0.0
 40
5.012131690979004
  1
46.
  7
_TCW_TXTSTY_1A
 11
628.7202712968527
 21
-761.9071719387592
 31
0.0
100
AcDbText
 73
     3
1001
TCAD
1000
TCW40_TEXT
1002
{
1000
Times New Roman
1070
     0
1070
   257
1002
}
1000
TCW_CUSTOM_DATA
1002
{
1000
#$AUX@_ToolInfo Properties
1070
     8
1000
CMD_TEXT@
1002
}
  0
CIRCLE
  5
208
330
1F
100
AcDbEntity
  8
0
  6
Continuous
 62
     5
420
      255
370
     0
100
AcDbCircle
 10
633.0186157316728
 20
-764.5012254666516
 30
0.0
 40
5.862654945854388
1001
TCAD
1000
TCW_CUSTOM_DATA
1002
{
1000
#$AUX@_ToolInfo Properties
1070
     8
1000
CMD_CENTERPTCIRCLE@
1002
}
  0
TEXT
  5
20A
330
1F
100
AcDbEntity
  8
0
  6
Continuous
 62
     5
420
      255
100
AcDbText
 10
648.2985941346575
 20
-679.9635030840107
 30
0.0
 40
5.012131690979004
  1
47.
  7
_TCW_TXTSTY_1B
 11
648.2985941346575
 21
-674.9513713930316
 31
0.0
100
AcDbText
 73
     3
1001
TCAD
1000
TCW40_TEXT
1002
{
1000
Times New Roman
1070
     0
1070
   257
1002
}
1000
TCW_CUSTOM_DATA
1002
{
1000
#$AUX@_ToolInfo Properties
1070
     8
1000
CMD_TEXT@
1002
}
  0
CIRCLE
  5
20B
330
1F
100
AcDbEntity
  8
0
  6
Continuous
 62
     5
420
      255
370
     0
100
AcDbCircle
 10
652.5969385694775
 20
-677.545424920924
 30
0.0
 40
5.862654945854388
1001
TCAD
1000
TCW_CUSTOM_DATA
1002
{
1000
#$AUX@_ToolInfo Properties
1070
     8
1000
CMD_CENTERPTCIRCLE@
1002
}
  0
TEXT
  5
20D
330
1F
100
AcDbEntity
  8
0
  6
Continuous
 62
     5
420
      255
100
AcDbText
 10
668.5069160981648
 20
-737.7960803607689
 30
0.0
 40
5.012131690979004
  1
50.
  7
_TCW_TXTSTY_1C
 11
668.5069160981648
 21
-732.7839486697899
 31
0.0
100
AcDbText
 73
     3
1001
TCAD
1000
TCW40_TEXT
1002
{
1000
Times New Roman
1070
     0
1070
   257
1002
}
1000
TCW_CUSTOM_DATA
1002
{
1000
#$AUX@_ToolInfo Properties
1070
     8
1000
CMD_TEXT@
1002
}
  0
CIRCLE
  5
20E
330
1F
100
AcDbEntity
  8
0
  6
Continuous
 62
     5
420
      255
370
     0
100
AcDbCircle
 10
672.8052605329848
 20
-735.3780021976822
 30
0.0
 40
5.862654945854388
1001
TCAD
1000
TCW_CUSTOM_DATA
1002
{
1000
#$AUX@_ToolInfo Properties
1070
     8
1000
CMD_CENTERPTCIRCLE@
1002
}
  0
TEXT
  5
210
330
1F
100
AcDbEntity
  8
0
  6
Continuous
 62
     5
420
      255
100
AcDbText
 10
639.5093036590093
 20
-613.8714872777039
 30
0.0
 40
5.012131690979004
  1
48.
  7
_TCW_TXTSTY_1D
 11
639.5093036590093
 21
-608.8593555867249
 31
0.0
100
AcDbText
 73
     3
1001
TCAD
1000
TCW40_TEXT
1002
{
1000
Times New Roman
1070
     0
1070
   257
1002
}
1000
TCW_CUSTOM_DATA
1002
{
1000
#$AUX@_ToolInfo Properties
1070
     8
1000
CMD_TEXT@
1002
}
  0
CIRCLE
  5
211
330
1F
100
AcDbEntity
  8
0
  6
Continuous
 62
     5
420
      255
370
     0
100
AcDbCircle
 10
643.8076480938294
 20
-611.4534091146172
 30
0.0
 40
5.862654945854388
1001
TCAD
1000
TCW_CUSTOM_DATA
1002
{
1000
#$AUX@_ToolInfo Properties
1070
     8
1000
CMD_CENTERPTCIRCLE@
1002
}
  0
TEXT
  5
213
330
1F
100
AcDbEntity
  8
0
  6
Continuous
 62
     5
420
      255
100
AcDbText
 10
580.9437377487412
 20
-689.2394721054709
 30
0.0
 40
5.012131690979004
  1
49.
  7
_TCW_TXTSTY_1E
 11
580.9437377487412
 21
-684.2273404144919
 31
0.0
100
AcDbText
 73
     3
1001
TCAD
1000
TCW40_TEXT
1002
{
1000
Times New Roman
1070
     0
1070
   257
1002
}
1000
TCW_CUSTOM_DATA
1002
{
1000
#$AUX@_ToolInfo Properties
1070
     8
1000
CMD_TEXT@
1002
}
  0
CIRCLE
  5
214
330
1F
100
AcDbEntity
  8
0
  6
Continuous
 62
     5
420
      255
370
     0
100
AcDbCircle
 10
585.2420821835613
 20
-686.8213939423842
 30
0.0
 40
5.862654945854388
1001
TCAD
1000
TCW_CUSTOM_DATA
1002
{
1000
#$AUX@_ToolInfo Properties
1070
     8
1000
CMD_CENTERPTCIRCLE@
1002
}
  0
MTEXT
  5
216
330
1F
100
AcDbEntity
  8
0
  6
Continuous
 62
     5
420
      255
100
AcDbMText
 10
693.0226480837604
 20
-716.0980578401774
 30
0.0
 40
2.636517906188965
 41
68.09502668352798
 71
     1
 72
     1
  3
{  A 46.,47.,50. alkatrйszek anyaga 4 mm\Pkьls\U+0151 бtmйr\U+0151j\U+0171, йs 0,5 mm falvastagsбgъ\Prйzcs\U+0151. \P  A 48. szбmъ siklуcsapбgy rйz, vagy \Pcsapбgybronz anyagъ, йs gйpi \Pforgбcsolбssal (esztergбlбssal) kйszьl.\P  Az 51. sz. alkatrйsz
  3
 anyaga #1 mm\Pvastagsбgъ rйzlemez. A *-al jelцlt mйret\Pa felhasznбlt kцt\U+0151elem kьlmйretйt\U+0151l fьgg.\P  A 49. szбmъ alkatrйsz kemйnyfa anyagъ, \Pesztergбlyozott henger, ennek hiбnyбban \P8 mm бtmйr\U+0151j\U+0171 kemйnyfa pбlcбbуl is \Pkйsz
  1
нthet\U+0151.\P  A 38., 39. sz. alkatrйszek anyaga # 1 mm\Pvastagsбgъ balsa lemez.}
  7
_TCW_TXTSTY_1F
 73
     1
 44
1.0
1001
TCAD
1000
TCW40_TEXT
1002
{
1000
Times New Roman
1070
     0
1070
   257
1002
}
1000
TCW_CUSTOM_DATA
1002
{
1000
#$AUX@_ToolInfo Properties
1070
     8
1000
CMD_TEXT@
1002
}
  0
LWPOLYLINE
  5
217
330
1F
100
AcDbEntity
  8
0
  6
Continuous
 62
     5
420
      255
370
     0
100
AcDbPolyline
 90
        4
 70
   129
 43
0.0
 10
690.1350332857958
 20
-712.8965723737214
 10
761.3210154525196
 20
-712.8965723737214
 10
761.3210154525196
 20
-783.9570060657218
 10
690.1350332857958
 20
-783.9570060657218
1001
TCAD
1000
TCW_CUSTOM_DATA
1002
{
1000
#$AUX@_ToolInfo Properties
1070
     8
1000
CMD_RECTANGLE@
1002
}
  0
LINE
  5
218
330
1F
100
AcDbEntity
  8
0
  6
Continuous
 62
     5
420
      255
370
     0
100
AcDbLine
 10
716.0005379217299
 20
-679.913285350969
 30
0.0
 11
742.0108343032955
 21
-679.913285350969
 31
0.0
1001
TCAD
1000
TCW_CUSTOM_DATA
1002
{
1000
#$AUX@_ToolInfo Properties
1070
     8
1000
CMD_LINE@
1002
}
  0
LINE
  5
219
330
1F
100
AcDbEntity
  8
0
  6
Continuous
 62
     5
420
      255
370
     0
100
AcDbLine
 10
717.2731458593828
 20
-678.6831345970771
 30
0.0
 11
717.2731458593828
 21
-681.125304631873
 31
0.0
1001
TCAD
1000
TCW_CUSTOM_DATA
1002
{
1000
#$AUX@_ToolInfo Properties
1070
     8
1000
CMD_LINE@
1002
}
  0
ARC
  5
21A
330
1F
100
AcDbEntity
  8
0
  6
Continuous
 62
     7
370
     0
100
AcDbCircle
 10
717.2731458593828
 20
-679.913285350969
 30
0.0
 40
3.599999999999985
100
AcDbArc
 50
-175.4152736971589
 51
175.2648381979159
1001
TCAD
1000
TCW_CUSTOM_DATA
1002
{
1000
#$AUX@_ToolInfo Properties
1070
     8
1000
CMD_CENTERPTCIRCLE@
1002
}
  0
LINE
  5
21B
330
1F
100
AcDbEntity
  8
0
  6
Continuous
 62
     7
370
     0
100
AcDbLine
 10
713.6731458593828
 20
-680.1824679997218
 30
0.0
 11
713.6731458593828
 21
-686.4196949515181
 31
0.0
1001
TCAD
1000
TCW_CUSTOM_DATA
1002
{
1000
#$AUX@_ToolInfo Properties
1070
     8
1000
CMD_LINE@
1002
}
  0
LINE
  5
21C
330
1F
100
AcDbEntity
  8
0
  6
Continuous
 62
     5
420
      255
370
     0
100
AcDbLine
 10
741.2731458593828
 20
-679.1489739992551
 30
0.0
 11
741.2731458593828
 21
-680.6538863157085
 31
0.0
1001
TCAD
1000
TCW_CUSTOM_DATA
1002
{
1000
#$AUX@_ToolInfo Properties
1070
     8
1000
CMD_LINE@
1002
}
  0
CIRCLE
  5
21D
330
1F
100
AcDbEntity
  8
0
  6
Continuous
 62
     7
370
     0
100
AcDbCircle
 10
741.2731458593828
 20
-679.913285350969
 30
0.0
 40
0.8000000000000114
1001
TCAD
1000
TCW_CUSTOM_DATA
1002
{
1000
#$AUX@_ToolInfo Properties
1070
     8
1000
CMD_CENTERPTCIRCLE@
1002
}
  0
ARC
  5
21E
330
1F
100
AcDbEntity
  8
0
  6
Continuous
 62
     7
370
     0
100
AcDbCircle
 10
741.2731458593828
 20
-679.913285350969
 30
0.0
 40
3.000000000000012
100
AcDbArc
 50
-78.62910521684866
 51
75.78853336234984
1001
TCAD
1000
TCW_CUSTOM_DATA
1002
{
1000
#$AUX@_ToolInfo Properties
1070
     8
1000
CMD_CENTERPTCIRCLE@
1002
}
  0
LINE
  5
21F
330
1F
100
AcDbEntity
  8
0
  6
Continuous
 62
     7
370
     0
100
AcDbLine
 10
716.0820602879018
 20
-671.4301761036771
 30
0.0
 11
742.0741508856053
 21
-677.0087627385905
 31
0.0
1001
TCAD
1000
TCW_CUSTOM_DATA
1002
{
1000
#$AUX@_ToolInfo Properties
1070
     8
1000
CMD_LINE@
1002
}
  0
LINE
  5
220
330
1F
100
AcDbEntity
  8
0
  6
Continuous
 62
     7
370
     0
100
AcDbLine
 10
716.0776151075231
 20
-688.4172423741859
 30
0.0
 11
741.97163832203
 21
-682.8263506779685
 31
0.0
1001
TCAD
1000
TCW_CUSTOM_DATA
1002
{
1000
#$AUX@_ToolInfo Properties
1070
     8
1000
CMD_LINE@
1002
}
  0
ARC
  5
221
330
1F
100
AcDbEntity
  8
0
  6
Continuous
 62
     7
370
     0
100
AcDbCircle
 10
715.6686232473477
 20
-686.4570039446343
 30
0.0
 40
1.999999999999964
100
AcDbArc
 50
175.6373897284176
 51
281.8931751791822
1001
TCAD
1000
TCW_CUSTOM_DATA
1002
{
1000
#$AUX@_ToolInfo Properties
1070
     8
1000
CMD_CENTERPTCIRCLE@
1002
}
  0
ARC
  5
222
330
1F
100
AcDbEntity
  8
0
  6
Continuous
 62
     7
370
     0
100
AcDbCircle
 10
715.6686232473768
 20
-673.3866521857874
 30
0.0
 40
2.000000000000065
100
AcDbArc
 50
74.69367338563184
 51
180.645467877682
1001
TCAD
1000
TCW_CUSTOM_DATA
1002
{
1000
#$AUX@_ToolInfo Properties
1070
     8
1000
CMD_CENTERPTCIRCLE@
1002
}
  0
LINE
  5
223
330
1F
100
AcDbEntity
  8
0
  6
Continuous
 62
     7
370
     0
100
AcDbLine
 10
713.6731459796827
 20
-679.6566375559605
 30
0.0
 11
713.6731459796827
 21
-673.3831476562339
 31
0.0
1001
TCAD
1000
TCW_CUSTOM_DATA
1002
{
1000
#$AUX@_ToolInfo Properties
1070
     8
1000
CMD_LINE@
1002
}
  0
DIMENSION
  5
224
330
1F
100
AcDbEntity
  8
0
  6
Continuous
 62
     7
100
AcDbDimension
  2
*D21
 10
741.2726804620087
 20
-665.4322315343402
 30
0.0
 11
729.272921704775
 21
-663.8697315343402
 31
0.0
 70
    32
  1
12
 71
     5
 42
23.99951751446736
  3
Standard
100
AcDbAlignedDimension
 13
717.2731629475413
 23
-669.4255734909258
 33
0.0
 14
741.2726804620087
 24
-669.5835335821841
 34
0.0
100
AcDbRotatedDimension
1001
TCAD
1000
TCW_CUSTOM_DATA
1002
{
1000
#$AUX@_ToolInfo Properties
1070
     8
1000
CMD_ORTHOGONALDIM@
1002
}
1001
ACAD
1000
DSTYLE
1002
{
1070
   148
1040
0.01
1070
   340
1005
215
1002
}
  0
LINE
  5
231
330
1F
100
AcDbEntity
  8
0
  6
Continuous
 62
     5
420
      255
370
     0
100
AcDbLine
 10
713.6734214516176
 20
-672.0309397113757
 30
0.0
 11
713.6734214516176
 21
-670.575512543875
 31
0.0
1001
TCAD
1000
TCW_CUSTOM_DATA
1002
{
1000
#$AUX@_ToolInfo Properties
1070
     8
1000
CMD_LINE@
1002
}
  0
LINE
  5
232
330
1F
100
AcDbEntity
  8
0
  6
Continuous
 62
     5
420
      255
370
     0
100
AcDbLine
 10
713.6726446385902
 20
-687.8462570954165
 30
0.0
 11
713.6726446385902
 21
-689.1085124734855
 31
0.0
1001
TCAD
1000
TCW_CUSTOM_DATA
1002
{
1000
#$AUX@_ToolInfo Properties
1070
     8
1000
CMD_LINE@
1002
}
  0
DIMENSION
  5
234
330
1F
100
AcDbEntity
  8
0
  6
Continuous
 62
     7
100
AcDbDimension
  2
*D22
 10
702.2472813353385
 20
-670.9103056356287
 30
0.0
 11
702.2472813353385
 21
-679.924599608957
 31
0.0
 70
    32
  1
9
 71
     5
 42
18.02858794665667
  3
Standard
100
AcDbAlignedDimension
 13
711.9960565326545
 23
-688.9388935822853
 33
0.0
 14
711.9075142633635
 24
-670.9103056356287
 34
0.0
 50
90.0
100
AcDbRotatedDimension
1001
TCAD
1000
TCW_CUSTOM_DATA
1002
{
1000
#$AUX@_ToolInfo Properties
1070
     8
1000
CMD_ORTHOGONALDIM@
1002
}
1001
ACAD
1000
DSTYLE
1002
{
1070
   148
1040
0.01
1070
   340
1005
233
1002
}
  0
DIMENSION
  5
243
330
1F
100
AcDbEntity
  8
0
  6
Continuous
 62
     7
100
AcDbDimension
  2
*D23
 10
744.2733044986462
 20
-660.299231777216
 30
0.0
 11
728.9732250310087
 21
-658.2232182637025
 31
0.0
 70
    32
  1
(15,3)
 71
     5
 42
30.60015893527486
  3
Standard
100
AcDbAlignedDimension
 13
713.6731455633713
 23
-669.0919484676087
 33
0.0
 14
744.2733044986462
 24
-669.4375265586739
 34
0.0
100
AcDbRotatedDimension
1001
TCAD
1000
TCW_CUSTOM_DATA
1002
{
1000
#$AUX@_ToolInfo Properties
1070
     8
1000
CMD_ORTHOGONALDIM@
1002
}
1001
ACAD
1000
DSTYLE
1002
{
1070
   148
1040
0.01
1070
   340
1005
242
1002
}
  0
LINE
  5
250
330
1F
100
AcDbEntity
  8
0
  6
Continuous
 62
     5
420
      255
370
     0
100
AcDbLine
 10
713.5131016851641
 20
-670.8768397686641
 30
0.0
 11
714.7098197945322
 21
-671.1376629464971
 31
0.0
1001
TCAD
1000
TCW_CUSTOM_DATA
1002
{
1000
#$AUX@_ToolInfo Properties
1070
     8
1000
CMD_LINE@
1002
}
  0
LINE
  5
251
330
1F
100
AcDbEntity
  8
0
  6
Continuous
 62
     5
420
      255
370
     0
100
AcDbLine
 10
713.5378202215372
 20
-688.9691037162805
 30
0.0
 11
714.5998649253623
 21
-688.7261801685889
 31
0.0
1001
TCAD
1000
TCW_CUSTOM_DATA
1002
{
1000
#$AUX@_ToolInfo Properties
1070
     8
1000
CMD_LINE@
1002
}
  0
DIMENSION
  5
253
330
1F
100
AcDbEntity
  8
0
  6
Continuous
 62
     7
100
AcDbDimension
  2
*D24
 10
716.5228494685635
 20
-684.6486075381495
 30
0.0
 11
708.2044896437761
 21
-695.7448823835433
 31
0.0
 70
    35
  1
R1
 71
     5
 42
3.999999999999945
  3
Standard
100
AcDbDiametricDimension
 15
714.8143970261318
 25
-688.2654003511191
 35
0.0
 40
10.00000000000012
1001
TCAD
1000
TCW_CUSTOM_DATA
1002
{
1000
#$AUX@_ToolInfo Properties
1070
     8
1000
CMD_DIAMETERDIM@
1002
}
1001
ACAD
1000
DSTYLE
1002
{
1070
   148
1040
0.01
1070
   340
1005
252
1002
}
  0
DIMENSION
  5
261
330
1F
100
AcDbEntity
  8
0
  6
Continuous
 62
     7
100
AcDbDimension
  2
*D25
 10
740.0630203744606
 20
-677.168181289054
 30
0.0
 11
750.6425860237753
 21
-689.8768669165644
 31
0.0
 70
    35
  1
R1,5
 71
     5
 42
6.000000000000042
  3
Standard
100
AcDbDiametricDimension
 15
742.483271344305
 25
-682.6583894128839
 35
0.0
 40
10.0
1001
TCAD
1000
TCW_CUSTOM_DATA
1002
{
1000
#$AUX@_ToolInfo Properties
1070
     8
1000
CMD_DIAMETERDIM@
1002
}
1001
ACAD
1000
DSTYLE
1002
{
1070
   148
1040
0.01
1070
   340
1005
260
1002
}
  0
DIMENSION
  5
26F
330
1F
100
AcDbEntity
  8
0
  6
Continuous
 62
     7
100
AcDbDimension
  2
*D26
 10
740.7189276594795
 20
-680.4902101180712
 30
0.0
 11
751.3821561226417
 21
-670.1929316257193
 31
0.0
 70
    35
  1
0,8
 71
     5
 42
1.600000000000022
  3
Standard
100
AcDbDiametricDimension
 15
741.8273640592861
 25
-679.3363605838667
 35
0.0
 40
10.00000000000018
1001
TCAD
1000
TCW_CUSTOM_DATA
1002
{
1000
#$AUX@_ToolInfo Properties
1070
     8
1000
CMD_DIAMETERDIM@
1002
}
1001
ACAD
1000
DSTYLE
1002
{
1070
   148
1040
0.01
1070
   340
1005
26E
1002
}
  0
DIMENSION
  5
27D
330
1F
100
AcDbEntity
  8
0
  6
Continuous
 62
     7
100
AcDbDimension
  2
*D27
 10
714.6421734541802
 20
-682.3705163541639
 30
0.0
 11
730.9070070778358
 21
-668.6595042638241
 31
0.0
 70
    35
  1
3,6*
 71
     5
 42
7.199999999999899
  3
Standard
100
AcDbDiametricDimension
 15
719.9041182645853
 25
-677.456054347774
 35
0.0
 40
10.00000000000001
1001
TCAD
1000
TCW_CUSTOM_DATA
1002
{
1000
#$AUX@_ToolInfo Properties
1070
     8
1000
CMD_DIAMETERDIM@
1002
}
1001
ACAD
1000
DSTYLE
1002
{
1070
   148
1040
0.01
1070
   340
1005
27C
1002
}
  0
TEXT
  5
28B
330
1F
100
AcDbEntity
  8
0
  6
Continuous
 62
     5
420
      255
100
AcDbText
 10
731.6618801988369
 20
-695.4779923879054
 30
0.0
 40
5.012131690979004
  1
51.
  7
_TCW_TXTSTY_26
 11
731.6618801988369
 21
-690.4658606969264
 31
0.0
100
AcDbText
 73
     3
1001
TCAD
1000
TCW40_TEXT
1002
{
1000
Times New Roman
1070
     0
1070
   257
1002
}
1000
TCW_CUSTOM_DATA
1002
{
1000
#$AUX@_ToolInfo Properties
1070
     8
1000
CMD_TEXT@
1002
}
  0
CIRCLE
  5
28C
330
1F
100
AcDbEntity
  8
0
  6
Continuous
 62
     5
420
      255
370
     0
100
AcDbCircle
 10
735.9602246336569
 20
-693.0599142248187
 30
0.0
 40
5.862654945854388
1001
TCAD
1000
TCW_CUSTOM_DATA
1002
{
1000
#$AUX@_ToolInfo Properties
1070
     8
1000
CMD_CENTERPTCIRCLE@
1002
}
  0
TEXT
  5
28E
330
1F
100
AcDbEntity
  8
0
  6
Continuous
 62
     5
420
      255
100
AcDbText
 10
714.6169848206139
 20
-697.9113405058274
 30
0.0
 40
3.522528076171875
  1
M 2:1
  7
_TCW_TXTSTY_27
 11
714.6169848206139
 21
-694.3888124296556
 31
0.0
100
AcDbText
 73
     3
1001
TCAD
1000
TCW40_TEXT
1002
{
1000
Times New Roman
1070
     0
1070
   257
1002
}
1000
TCW_CUSTOM_DATA
1002
{
1000
#$AUX@_ToolInfo Properties
1070
     8
1000
CMD_TEXT@
1002
}
  0
ENDSEC
  0
SECTION
  2
OBJECTS
  0
DICTIONARY
  5
C
330
0
100
AcDbDictionary
281
     1
  3
ACAD_GROUP
350
D
  3
ACAD_LAYOUT
350
1A
  3
ACAD_MLINESTYLE
350
17
  3
ACAD_PLOTSETTINGS
350
19
  3
ACAD_PLOTSTYLENAME
350
E
  0
DICTIONARY
  5
D
102
{ACAD_REACTORS
330
C
102
}
330
C
100
AcDbDictionary
281
     1
  0
DICTIONARY
  5
1A
102
{ACAD_REACTORS
330
C
102
}
330
C
100
AcDbDictionary
281
     1
  3
Model
350
22
  3
Paper 1
350
1E
  0
DICTIONARY
  5
17
102
{ACAD_REACTORS
330
C
102
}
330
C
100
AcDbDictionary
281
     1
  3
Standard
350
18
  0
DICTIONARY
  5
19
102
{ACAD_REACTORS
330
C
102
}
330
C
100
AcDbDictionary
281
     1
  0
ACDBDICTIONARYWDFLT
  5
E
102
{ACAD_REACTORS
330
C
102
}
330
C
100
AcDbDictionary
281
     1
  3
Normal
350
F
100
AcDbDictionaryWithDefault
340
F
  0
LAYOUT
  5
22
102
{ACAD_REACTORS
330
1A
102
}
330
1A
100
AcDbPlotSettings
  1

  2
none_device
  4

  6

 40
7.0
 41
7.0
 42
7.0
 43
7.0
 44
297.0
 45
210.0
 46
-566.5884644117976
 47
798.8439193153342
 48
0.0
 49
0.0
140
0.0
141
0.0
142
1.0
143
1.0
 70
  1712
 72
     1
 73
     0
 74
     0
  7

 75
     0
 76
     0
 77
     2
 78
   300
147
1.0
148
0.0
149
0.0
100
AcDbLayout
  1
Model
 70
     1
 71
     0
 10
559.5884644117976
 20
-805.8439193153342
 11
856.5884644117976
 21
-595.8439193153342
 12
0.0
 22
0.0
 32
0.0
 14
559.5884644117976
 24
-805.8439193153342
 34
0.0
 15
856.5884644117976
 25
-595.8439193153342
 35
0.0
146
0.0
 13
0.0
 23
0.0
 33
0.0
 16
1.0
 26
0.0
 36
0.0
 17
0.0
 27
1.0
 37
0.0
 76
     0
330
1F
  0
LAYOUT
  5
1E
102
{ACAD_REACTORS
330
1A
102
}
330
1A
100
AcDbPlotSettings
  1

  2
none_device
  4

  6

 40
7.0
 41
7.0
 42
7.0
 43
7.0
 44
297.0
 45
210.0
 46
-7.0
 47
-7.0
 48
0.0
 49
0.0
140
0.0
141
0.0
142
1.0
143
1.0
 70
   688
 72
     1
 73
     0
 74
     5
  7

 75
    16
 76
     0
 77
     2
 78
   300
147
1.0
148
0.0
149
0.0
100
AcDbLayout
  1
Paper 1
 70
     1
 71
     1
 10
0.0
 20
0.0
 11
297.0
 21
210.0
 12
0.0
 22
0.0
 32
0.0
 14
0.0
 24
0.0
 34
0.0
 15
297.0
 25
210.0
 35
0.0
146
0.0
 13
0.0
 23
0.0
 33
0.0
 16
1.0
 26
0.0
 36
0.0
 17
0.0
 27
1.0
 37
0.0
 76
     0
330
1B
  0
MLINESTYLE
  5
18
102
{ACAD_REACTORS
330
17
102
}
330
17
100
AcDbMlineStyle
  2
Standard
 70
     0
  3

 62
   256
 51
90.0
 52
90.0
 71
     5
 49
0.5
 62
   256
  6
BYLAYER
 49
-0.5
 62
   256
  6
BYLAYER
 49
0.25
 62
     7
  6
BYLAYER
 49
0.0
 62
     7
  6
BYLAYER
 49
-0.25
 62
     7
  6
BYLAYER
  0
ACDBPLACEHOLDER
  5
F
102
{ACAD_REACTORS
330
E
102
}
330
E
  0
ENDSEC
  0
SECTION
  2
THUMBNAILIMAGE
 90
    16364
310
28000000B40000005500000001000800000000000000000000000000000000000000000000000000FFFFFF000000FF0000FFFF0000FF0000FFFF0000FF000000FF00FF000000000080808000C0C0C0000000FF007F7FFF000000A5005252A50000007F003F3F7F0000004C0026264C000000260013132600003FFF007F9FFF
310
000029A5005267A500001F7F003F4F7F0000134C00262F4C000009260013172600007FFF007FBFFF000052A500527CA500003F7F003F5F7F0000264C0026394C0000132600131C260000BFFF007FDFFF00007CA5005291A500005F7F003F6F7F0000394C0026424C00001C26001321260000FFFF007FFFFF0000A5A50052A5
310
A500007F7F003F7F7F00004C4C00264C4C00002626001326260000FFBF007FFFDF0000A57C0052A59100007F5F003F7F6F00004C3900264C420000261C001326210000FF7F007FFFBF0000A5520052A57C00007F3F003F7F5F00004C2600264C39000026130013261C0000FF3F007FFF9F0000A5290052A56700007F1F003F
310
7F4F00004C1300264C2F00002609001326170000FF00007FFF7F0000A5000052A55200007F00003F7F3F00004C0000264C260000260000132613003FFF00009FFF7F0029A5000067A552001F7F00004F7F3F00134C00002F4C260009260000172613007FFF0000BFFF7F0052A500007CA552003F7F00005F7F3F00264C0000
310
394C2600132600001C261300BFFF0000DFFF7F007CA5000091A552005F7F00006F7F3F00394C0000424C26001C26000021261300FFFF0000FFFF7F00A5A50000A5A552007F7F00007F7F3F004C4C00004C4C26002626000026261300FFBF0000FFDF7F00A57C0000A59152007F5F00007F6F3F004C3900004C422600261C00
310
0026211300FF7F0000FFBF7F00A5520000A57C52007F3F00007F5F3F004C2600004C39260026130000261C1300FF3F0000FF9F7F00A5290000A56752007F1F00007F4F3F004C1300004C2F26002609000026171300FF000000FF7F7F00A5000000A55252007F0000007F3F3F004C0000004C2626002600000026131300FF00
310
3F00FF7F9F00A5002900A55267007F001F007F3F4F004C0013004C262F002600090026131700FF007F00FF7FBF00A5005200A5527C007F003F007F3F5F004C0026004C2639002600130026131C00FF00BF00FF7FDF00A5007C00A55291007F005F007F3F6F004C0039004C26420026001C0026132100FF00FF00FF7FFF00A5
310
00A500A552A5007F007F007F3F7F004C004C004C264C002600260026132600BF00FF00DF7FFF007C00A5009152A5005F007F006F3F7F0039004C0042264C001C002600211326007F00FF00BF7FFF005200A5007C52A5003F007F005F3F7F0026004C0039264C00130026001C1326003F00FF009F7FFF002900A5006752A500
310
1F007F004F3F7F0013004C002F264C000900260017132600000000002D2D2D005B5B5B0089898900B7B7B700B3B3B30000000000000000000000000000000000000000000000000000000000000000000000000000000000000000000000000000000000000000000000000000000000000000000000000000000000000000
310
00000000000000000000000000000000000000000000000000000000000000000000000000000000000000000000000000000000000000000000000000000000000000000000000000000000000000000000000000000000000000000000000000000000000000000000000000000000000000000000000000000000000000
310
00000000000000000000000000000000000000000000000000000000000000000000000000000000000000000000000000000000000000000000000000000000000000000000000000000000000000000000000000000000000000000000000000000000000000000000000000000000000000000000000000000000000000
310
00000000000000000000000000000000000000000000000000000000000000000000000000000000000000000000000000000000000000000007070707070707070707070707070707070707070707070707070707070707070707070707070707070707070707070707070707070707070707070707070707070707070707
310
07070707070707070707070707070707070707070707070707070707070707070707070707070707070707070707070707070700000000000000000000000000000000000000000000000000000000000000000000000000000000000000000000000000000000000000000000000700000000000000000000000000000000
310
00000000000000000000000000000000000000000000000000000000000000000000000000000000000000000000000000000000000000000000000000000000000000000000000000000007070707070707070707070707070707070707070707070707070707070000000000000000000000000000000000000000000000
310
00000000000000000000000000000000000000000000000000000000000000000000000007000000000707070707070707070707070707070707070707070707070707070707070707070707070707070707070000000000000000000000000000000000000000000000000000000000000000000000000000000000000000
310
00070007070707070707070707070707070707070707070000000000070700000000000000000000000000000000000000000000000000000000000000000000000000000000000000000000000000000000000000000000000700000000070707000000000000000000000000000000000007070000000000000000000000
310
00000000000007070700000000000000000000000000000000000000000000000000000000000000000000000000000000000000000007000707070007000000000000000007000700000700000000000007070000000000000000000000000000000000000000000000000000000000000000000000000000000000000000
310
00000000000000000000000000000007000000000700000700000000000000000000000000000000070700000000000000000000000000000000070000070700000000000000000000000000000000000000000000000000000000000000000000000000000000000000000707070707070707070707070707070707070000
310
00000000000000070700000000000000000000000000000000000000000000000000000000000000000000000000000000000000000000000000000000000000000000000700000000070707070707070707070707070707070707070707070707070707070707070707070707070707070707070000000005050505050505
310
05050505050505050505050505050505050505050505050505000000000000000007070707070007070707070707070707070707000000000000000007070000000000000000000000000000000000000000000000000000000000000000000000000000000000000000000000000000000000000000000000070000000007
310
07070707070707070707070707070000000000070700000000000000000000000000000000000007070707000000050005050505050505050505050505050505050000000000000000000000000500000000000000000707070707070707070707070707070707070707070000000000000707000000000000000000000000
310
00000000000000000000000000000000000000000000000000000000000000000000000000000000000000000000000700000000070707070000070707000000070707000000000000000000000000000000000000000000000000000707070000000005050505050505050505050505050505050505000000000000000000
310
00000005000000000000000007070707070707070707070707070707070707070700000000000007070000000000000000000000000000000000000000000000000000000000000000000000000000000000000000000000000000000000000000000000070000000007070707070707070707070707070707070707070707
310
07070707070707070707070707070707070707070700000000050005050505050505050505050505050505050505050505050505050505050500000000000000000707070707070707070707070707070707070707070000000000000707000000000000000000000000000000000000000000000000000000000000000000
310
00000000000000000000000000000000000000000000000000000700070505050705050505050505050505050505070707070505050505050505050505050505050505050505050705070700000005000005050505050505050505050505050505050505050505050505050505050000000000000000070707070707070000
310
00000000000000000000000000000000000007070000000000000000000000000000000000000000000000000000000000000000000000000000000000000000000000000000000000000000000000070007000007070707070707070707070707070507070707070707070707070707070707070707070707070707070707
310
07000000050505050505050505050000000500000500000500000000000505050000000500000000000000000707070707070700000000000000000000000000000000000000000707000000000000000000000000000000000000000000000000000000000000000000000000000000000000000000000000000000000000
310
00000000000700070700000000000000000000000007000705070000070000000505000000000000000000000000000000000000070000000005050505050505050505000000000000000000000000000000000000000000050000000000000000070007070707070707070707070707070707070707070707070700070700
310
00000000000000000000000000000000000000000000000000000000000000000000000000000000000000000000000000000000000000000000070007000000000000000000000000000700070507000007000005000005050000000000000000000000000000000007070000000505050505050505050505050505050505
310
05050505050505050505050000000500000000000000000700070707070707070707070700070707070707070707070707070707000000000000000000000000000000000000000000000000000000000000000000000000000000000000000000000000000000000000000000000007000007000707070707070707070707
310
00000705070000070000050505050500000000000000000000000000000000070000000005050505050505050505050505050505050505050505050505050505000000050000000000000000070707070707070707070707070707070707070707070707070700070700000000000000000000000000000000000000000000
310
00000000000000000000000000000000000000000000000000000000000000000000000000070000070007070707070707070000000000070507000007000505050505050000000000000000000000000000000007000000000505050505050505050505050505050505050505050505050505050505050005000000000000
310
00000707070707070707070707070707070707070707070707070707070707000000000000000000000000000000000000000000000000000000000000000000000000000000000000000000000000000000000000000000000007000000070707000000070000000000000007050700000700000505050505000000000000
310
00000000000000000000000000000005050505050505050505050505050505050505050505050505050505050500050000000000000000070707070707070707070707070007070707070707070707070707070700000000000000000000000000000000000000000000000000000000000000000000000000000000000000
310
00000000000000000000000000000000070000000700000000000000000000000000070507000007000000050500000000000000000007000000000707000000000000000500050505050005050505050505050505050505050505050505050505050505000000000000000007070707070707070707070707070707070707
310
07070707070707070707000000000000000000000000000000000000000000000000000000000000000000000000000000000000000000000000000000000000000000000007000000070000000000000000000000000005000700070700000000000000000000000707070707070707070707070000000000050000050505
310
05050505050505050505050505050505050505050505050505050000000000000000000000000000000000000000000000000000000000000000000000000700000000000000000000000000000000000000000000000000000000000000000000000000000000000000000000000000000000000000000000000700000000
310
07000000000000000000000007050700000707070000000000000000000007070707070707000000000000000000000505050505050505050505050505050505050505050505050505050505050505000000000000000000000000000000000000000000000000000000000000000000000000070000000000000000000000
310
00000000000000000000000000000000000000000000000000000000000000000000000000000000000000000000000007000000000700000000000000000000000705070000000700000000000000000000070700070000070500000000000000000000050005050505050505050505050505050505050505050505050505
310
05050500050000000000000000000000000000000000000000000000000000000000000000000000000700000000000000000000000000000000000000000000000000000000000000000000000000000000000000000000000000000000000000000000000700000007070707070000000000000000070507000000070000
310
00000000000000000707070707000705000000000000000000000500050505050505050505050505050505050505050505050505050505050005000000000000000000000000000000000000000000000000000000000000000000000000070000000000000000000000000000000000000000000000000000000000000000
310
00000000000000000000000000000000000000000000000000000007000000070707070700000000000000000705070000000700000000000000000000000707070700070500000000000000000000050505050505050505050505050505050505050505050505050505050505000500000000000000000000000000000000
310
00000000000000000000000000000000000000000700000000000000000000000000000000000000000000000000000000000000000000000000000000000000000000000000000000000000000000000700000000000000070000000000000000070507000000070000000000000000000000070007070007050000000000
310
00000000000500050505050505050505050505050505050505050505050505050000000005000000000000000000000000000000000000000000000000000000000000000000000000070000000000000000000000000000000000000000000000000000000000000000000000000000000000000000000000000000000000
310
00000000000007000000000000000007050000000000000705070000070700000000000000000000070707070000070500000000000000000000050000050505050505050505050505050505050505050505050505000000000500000000000000000000000000000000000000000000000000000000000000000000000007
310
00000000000000000000000000000000000000000000000000000000000000000000000000000000000000000000000000000000000000000000000700000000000000000000070700000000070507000007000000000000000000000007070707070705050000050500000000000005050505050505050505050505050505
310
05050505050505050505050500000005000000000000000000000000000000000000000000000000000000000000000000000000070000000000000000000000000000000000000000000000000000000000000000000000000000000000000000000000000000000000000000000000070000000000000000000000000707
310
00070705070707070700000000000000000000000700000000070500050505050500000000050505050505050505050505050505050505050505050505050505050000000500000000000000000000000000000000000000000000000000000000000000000000000007000000000000000000000000000000000000000000
310
00000000000000000000000000000000000000000000000000000000000000000000000000000700000000000000000000000000000707070700000000000000000000000000000000070000000007050505050505050000000005050505050505050505050505050505050505050505050000000000000000050000050505
310
05050505050505050505050500000000000000000000000000000000000000070000000000000000000000000000000000000000000000000000000000000000000000000000000000000000000000000000000000000000000000070000000000000000000000000000000000000000000000000000000000000000000007
310
00000000070500050505050500000000050005050505050505050505050505050505050505050505000505000000000500000505000505050505050505050505050500000000000000000000000000000000000007000000000000000000000000000000000000000000000000000000000000000000000000000000000000
310
00000000000000000000000000000000000700000000000000000000000000000000000000000000000000000000000000000007070000000007050005000005050000000005000505050505050505050505050505050505050505050500050505000000050000050500050505050000050505050000000000000000000000
310
00000000000000000000070000000000000000000000000000000000000000000000000000000000000000000000000000000000000000000000000000000000000000000000070000000000000000000000000000000000000000000000000000000000000000000707000000000705000005050000000000000500000505
310
05050005050000050505000000050000050500000000000000000500000505050505050505050505050505050500000000000000000000000000000000000007000000000000000000000000000000000000000000000000000000000000000000000000000000000000000000000000000000000000000000000007000000
310
00000000000000000000000000000000000000000000000000000000000000070707070707000500000000000000000005050505050505000000000000000000000000000000000000000000000000050000050505050505050505050505050505000000000000000000000000000000000000000700000000000000000000
310
00000000000000000000000000000000000000000000000000000000000000000000000000000000000000000000000000070000000000000000000000000000000000000000000000000000000000000000000000000000070007000507000000000000000500050505050505000005050500050505000000000505050505
310
05050500000500000505000505050505050505050505050500000000000000000000000000000000000007000000000000000000000000000000000000000000000000000000000000000000000000000000000000000000000000000000000000000000000007000000000000000000000000000000000000000007000000
310
00000000000000000000000000070000000707050700000000000005050505050505050505050505050505050505050505050505050505050000050000050505050505050505050505050505050000000000000000000000000000000000000700000000000000000000000000000000000000000000000000000000000000
310
00000000000000000000000000000000000000000000000000000000070000000000000000000000000000000000000000070000000000000000000000000000000700000000000007050500000000000505050505050505050505050505050505050505050505050505050505050005000005050505050500050505000505
310
05050500000000000000000000000000000000000007000000000000000000000000000000000000000000000000000000000000000000000000000000000000000000000000000000000000000000000007000000000000070707070707070707070000000707000000000000000000000000000000070707000000000007
310
00050700000005000505050505050505050505050505050505050505050505050505050500050000050505050505050505050505050505050000000000000000000000000000000000000700000000000000000000000000000000000000000000000000000000000000000000000000000000000000000000000000000000
310
00000000000000070000000000000707070007070707070700000007070000000000000000000000000000000007070000000000000707050700000500000500050505050505000505000005000505000000000005000000000005000005050505050505050505050505050505000000000000000000000000000000000000
310
07000000000000000000000000000000000000000000000000000000000000000000000000000000000000000000000000000000000000000000000007000000000000000000000707050707070707070707070000000000000000000000000000000000070707000000000007050000050505050505050505050505050505
310
05050505050505050505050505050505050000050505050505050505050505050505050505050505050500000000000000000000000700000000000000000000000000000000000000000000000000000000000000000000000000000000000000000000000000000000000000000000000700000000000000000000070005
310
00000700000007070700000000000000000000000000000000000007070000000000000700000000000000000000000000000000000000000000000000000000000000000000000005050505050505050505050505050505050505050505050000000000000000000000070000000000000000000000000000000000000000
310
00000000000000000000000000000000000000000000000000000000000000000000000000000007000000000000000000000700050000070000000707070000000000000000000000000000000000000707000000000007000000000000000000000000000000000000000000000000000000000000000000000000000505
310
05050505000000050000050000000005000000050500000000000000000000000700000000000000000000000000000000000000000000000000000000000000000000000000000000000000000000000000000000000000000000000700000000000000000000070505050507070707070707000000000000000000000000
310
00000000000000000707070007000000000000000000000000000000000000000000000000000000000000000000000000000005050500050505050505050500000000000000000000000000000000000000000000070000000000000000000000000000000000000000000000000000000000000000000000000000000000
310
00000000000000000000000000000000000007000000000000000000000700050000070000000707070000000000000000000000000000000000000000000707000700000000000000000000000000000000000000000000000000000000000000000000000000000505050505050505050505050000000000000000000000
310
00000000000000000000000700000000000000000000000000000000000000000000000000000000000000000000000000000000000000000000000000000000000000000000000700000000000000000000070005000007000000070707000000000000000000000000000000000000000000000707000000000000000000
310
00000000000000000000000000000000000000000000000000000000000005050505050505050505050505050505050505050505000000000000000000000000070000000000000000000000000000000000000000000000000000000000000000000000000000000000000000000000000000000000000000000000070000
310
00000000000000000700050000070000000007070000000000000000000000000000000000000000000000000000000000000000000000000000000005050505050500000505000000000000000000000000000505050505050505050505050505050505050505050500000000000000000000000007000000000000000000
310
00000000000000000000000000000000000000000000000000000000000000000000000000000000000000000000000000000700000000000000000000070005000007000000000707000000000000000000000000000000000000000000000000000000000000000000000000070707000505050505050000050005050000
310
00000000000000000005050505050505050505050000050505050505050505000000000000000000000000070000000000000000000000000000000000000000000000000000000000000000000000000000000000000000000000000000000000000000000000070000000000000000000007000500000700000000000700
310
00000000000000000000000000000000000000000000000000000000000000000000000707070005050505050500050505050500000000000000000000000505050505050505050505050505050505050505050505050505050505050505050507000000000000000000000000000000000000000000000000000000000000
310
00000000000000000000000000000000000000000000000000000000000700000000000505000000070005000007000000000007000000000000000000000000000000000007070707070707070000000000000000000000000000070000000000000005050505050000070707070000000000050505050505050505050505
310
05050505050505050505050505050505050505050505070000000000000000000000000000000000000000000000000000000000000000000000000000000000000000000000000000000000000000000000070000000005050505050007000500000700000000000700000000000000000000000000000000070707070707
310
00070700000000000000000007070707070705000000000000050505050500070707070700000000000505050505050505000005050500050005050500000000050500050505000000000007000000000000000000000000000000000000000000000000000000000000000000000000000000000000000000000000000000
310
00000000000000000700000005050505050500070005000007000000000007000000000000000000000000000000000705070000070007070000000000000000000700000707050707070000000000050500000707070700070000000000050505050505050505050505050505050505050505050505050505050505050505
310
00070000000000000000000000000000000000000000000000000000000000000000000000000000000000000000000000000000000000000000000000070000000005050505050007000500000700000000000700000000000000000000000000000000070507000007000007000000000000000000070700000707000700
310
07070707070707070007000000000000000000000505050505050505050505050505050500050505050505050505050505050505050007000000000000000000000000000000000000000000000000000000000000000000000000000000000000000000000000000000000000000000000007000000000500000505000700
310
05000007000000000007000000000000000000000000050500000705070000070000070000000000000000000700000000070707000000000000000707070700000000000000000000000000000000000000000000000000000000000000000000000000000000000000000700000000000000000000000000000000000000
310
00000000000000000000000000000000000000000000000000000000000000000000000000000000070000000000050500000007000500000700000000070700000000000000000000000505050505070507000707070707000000000000000000070700000007070707070505050505050707070700000000000000000000
310
00000000000000000000000000000000000000000000000000000000000000000007000000000000000000000000000000000000000000000000000000000000000000000000000000000000000000000000000000000000000000000007000000000000000000000700050000070000000007070000000000000000000000
310
05050505050705070007070707070700000000000000000707000000070705070000000000000000070700000000000000000000000000000000000000000000000005050505050505050505050505050500000000000700000000000000000000000000000000000000000000000000000000000000000000000000000000
310
00000000000000000000000000000000000000070000000000000000000007000500000700000000000700000000000000000000000505050505070507000007000007000000000000000000070700000007000707070000000707070707000700000000000000000000000000000000000005050000000000000000000000
310
00000000000000000000000007000000000000000000000000000000000000000000000000000000000000000000000000000000000000000000000000000000000000000000000007000000000000000000000700050000070000000000070000000000000000000000000500050507050700000700000700000000000000
310
00000700000000070000000707070700000007000000070000000000000000000000000000000005050505050707070707070707070707070707070700000000000700000000000000000000000000000000000000000000000000000000000000000000000000000000000000000000000000000000000000000000000700
310
00000000000000000007000500000700000000000700000000000000000000000005050000070507000007000707000000000000000000070707070705050707000007070707070700000000070707000000000000000000000000050505050505070000000000000000000000000000070000000000070000000000000000
310
00000000000000000000000000000000000000000000000000000000000000000000000000000000000000000000000000000007000000000000000000000700050000070000000000070000000000000000000000000000000007070707070700070700000000000000000000000000000700070000000707070707000700
310
07000707070000000000000000000000000005050505050700000000000000000000000000000700000000000700000000000000000000000000000000000000000000000000000000000000000000000000000000000000000000000000000000000000000000000700000000000000000000070005000007000000000007
310
00000000000000000000000000000000070707070707070707000000000000000000000000000007000707070707070707070707000700000000000000000000000000000000000505050505070000000000000000000000000000070000000000070000000000000000000000000000000000000000000000000000000000
310
00000000000000000000000000000000000000000000000000000000000007000000000000000000000700050000070000000000070000000000000000000000000000000007000700000000000000000000000000000000000000000700070707000707070007070700070000000000000000000000000000000000000505
310
00000007070707070707070707070707070700000000000700000000000000000000000000000000000000000000000000000000000000000000000000000000000000000000000000000000000000000000000700000000000000000000070005000007000000000007000000000000000000000000070707070707070707
310
07070000000000000000000000000000000007000707000007070700000707000700000000000000000000000000000000000000000000000000000000000000000000000000000000000000070000000000000000000000000000000000000000000000000000000000000000000000000000000000000000000000000000
310
00000000000000000007000000000000000000000700050000070000000000070000000000000000000000000000000000070700000000000000000000000000000000000000000707070707070707070707070707070000000000000000000000000000000000000000000000000000000000000000000000000000000000
310
00000700000000000000000000000000000000000000000000000000000000000000000000000000000000000000000000000000000000000000000000000700000000000000000000070005000007000000000007000000000000000000000000000000000000000000000000000000000000000000000000000000000000
310
00000707070707000000000000000000000000000000000000000000000000000000000000000000000000000000000000000000000000070000000000000000000000000000000000000000000000000000000000000000000000000000000000000000000000000000000000000000000000070000000000000000000007
310
00050000070000000000070000000000000000000000000000000000000000000000000000000000000000000000000000000000000000000000000000000000000000000000000000000000000000000000000000000000000000000505050507070707070707000000000007000000000000000000000000000000000000
310
00000000000000000000000000000000000000000000000000000000000000000000000000000000000700000000000000000000070005000007000000000707000000000000000000000000000000000000000000000000000000000000000000000000000000000000000000000000000000000000000000000000000000
310
00000000000000000000000000000000000505050505070000000000070000000000070000000000000000000000000000000000000000000000000000000000000000000000000000000000000000000000000000000000000000000000070000000000000000000007000500000700000000070700000000000000000000
310
00000000000000000000000000000000000000000000000000000000000000000000000000000000000000000000000000000000000000000000000000000000000000000005050505050507000000000007000000000007000000000000000000000000000000000000000000000000000000000000000000000000000000
310
00000000000000000000000000000000000000000700000000000000000000070005000007000000000007000000000000000000000000000000000000000000000000000000000000000000000000000000000000000000000000000000000000000000000000000000000000000000000000000000000000000005050505
310
05070000000000070000000000070000000000000000000000000000000000000000000000000000000000000000000000000000000000000000000000000000000000000000000000070000000000070707070707070505070707070707070700000000000000000505050505000000000505050505050500000000000000
310
00000000000000000000000000000000050500000000000000000000000000000000000000000000000000000000000000000505000007070707070707000000000007000000000000000000000000000000000000000000000000000000000000000000000000000000000000000000000000000000000000000000000007
310
00000000000700000000000005050000000000000000000000000000000005050505050000000005050505050500000000000000000000000000000000000000000000000005050505000000000000000000000000000000000000000000000000000000000000000000000000000000000000000000000700000000000000
310
00000000000000000000000000000000000000000000000000000000000000000000000000000000000000000000000000000000070000000000070000000000000505000000000000000000000000000000000505050505050505050505050505050500000700000000000000000000070707070000000000050505050500
310
00000007070707000000000000000000000000000000000000000505050505050505050505050505000000000007000000000000000000000000000000000000000000000000000000000000000000000000000000000000000000000000000000000000000000000007000000000007000000000000050500000000000000
310
00000000000000000005050505050505050505050505050505050007000000000000000507070000000007070705000505050505000507070000000007070705000000000000000000050500000707070707070707070707070707070700000000000700000000000000000000000000000000000000000000000000000000
310
00000000000000000000000000000000000000000000000000000000000000070000000000070000000000000505000000000000000000000000000000000505000000000505000000000005050000070700000000000005050500000000000000050505050505050505050505000000000000050505000000000000000505
310
05050507000000000000000000000000000007000000000007000000000000000000000000000000000000000000000000000000000000000000000000000000000000000000000000000000000000000000000007000000000007070707070707050005000000000000000000000000000000000007070707070707070707
310
07070707000707000000000000050000050000070700050007050005050000050000000500070700050007050000000000000505050505050700000000000000000000000000000700000000000700000000000000000000000000000000000000000000000000000000000000000000000000000000000000000000000000
310
00000000000000000000070000000000070000000000000005000505000000000000000000000000000000070000070000000000000000000707070700000000000700050505050700000505000507000000000700050005050700000705050507000000000000000505050505070000000000000000000000000000070000
310
00000007000000000000000000000000000000000000000000000000000000000000000000000000000000000000000000000000000000000000000000000007000000000707000000000000000005000005000000000000000000000000000007070007000000000000000000070000070000000000070000050000000000
310
00050500000700000007000005050000000000000500000700000000000005050505050700000000000000000000000000000700000000000700000000000000000000000000000000000000000000000000000000000000000000000000000000000000000000000000000000000000000000000700000000070700000000
310
00000000000500000500000000000000000000000000070700070000000000000000000700070700000000070000000700000000000000070000070000070000000700000000000000070000070000000000000005050000000707070707070707070707070707070000000000070000000000000000000000000000000000
310
00000000000000000000000000000000000000000000000000000000000000000000000000000000000007000000000707000000000000000000000505000505000000000000000000000007000007070707070707070707070007070000000007000007000000050505000007000007000007000000070000000505000007
310
00000700000000000000000000000000000000000000000000000000000000000000000700000000000000000000000000000000000000000000000000000000000000000000000000000000000000000000000000000000000000000000000700000000000000000000000000000000000005000005000000000000000000
310
00070700070000000000000000000700000700000000070000070000000005000000070000070000070000000700000005000000070000070000000000000000000000000000000000000000000000000000000000000000070000000000000000000000000000000000000000000000000000000000000000000000000000
310
00000000000000000000000000000000000000000007000000000000000000000000000000000000000500050000000000000000000007000007070707070707070707070707070000000000070000070000000000000007000007000000070000070000000000000007000007000000000000000000000000000000050505
310
05000707070707070700000000000700000000000000000000000000000000000000000000000000000000000000000000000000000000000000000000000000000000000000000000000700000000000000000000000000000000000000000505000000000000000005050707070707070707070707070707000707000000
310
00000700000505000000000005050000070000000700000505000000000005050000070000000000000000000000000000050505050500070000000000070000000000070000000000000000000000000000000000000000000000000000000000000000000000000000000000000000000000000000000000000000000000
310
07000000000000000000000000000000000000000000050000000000000000050005050007000000000000000000070007070000000000000705000505000000050500050700000000000705000505000000070500050700000000000000000000000000000500050505050007000000000007000000000007000000000000
310
00000000000000000000000000000000000000000000000000000000000000000000000000000000000000000000000000000000000700000000000000000000000000000000000000000000000000000000000505050505000700070000000000070007000007000000000000050000050007070700050007050000000000
310
05000505000707070000050705000000000000000000000000000000050505050500070000000000070000000000070000000000000000000000000000000000000000000000000000000000000000000000000000000000000000000000000000000000000000000000070000000000000000000000000000000000000000
310
00000000000000000005050505050007070707070707070707070000070000000000000505050000000000000005050500000000000505070000000000000000050500000000000000000000000000000000050500000007070707070707000000000007000000000000000000000000000000000000000000000000000000
310
00000000000000000000000000000000000000000000000000000000000000000700000000000000000000000000000000000000000000000000000000000505050505000000000000070000000000000000000000000000000500070700000007070705000000000000000000070700000007070700000000000000000000
310
00000000000000000000000000000000000000000000000000070000000000000000000000000000000000000000000000000000000000000000000000000000000000000000000000000000000000000000000000070000000000000000000000000000000000000000000000000000000000000505000000000000000000
310
000000000000000000000000000000000000000707070000000000000000000000000000000707070000000000000000000000000000000000000000000000000000000000000000000000000000070000000000000000000000000000000000000000000000000000000000
  0
ENDSEC
  0
EOF
